<?xml version="1.0" standalone="no"?>
<!DOCTYPE svg PUBLIC "-//W3C//DTD SVG 1.1//EN" "http://www.w3.org/Graphics/SVG/1.1/DTD/svg11.dtd" >
<svg xmlns="http://www.w3.org/2000/svg">
<metadata>
This is a custom SVG webfont generated by Font Squirrel.
Copyright   : Copyright c 2003 by Bitstream Inc All Rights ReservedDejaVu changes are in public domain
Foundry     : DejaVu fonts team
Foundry URL : httpdejavusourceforgenet
</metadata>
<defs>
<font id="webfontGkEbXtNf" horiz-adv-x="1423" >
<font-face units-per-em="2048" ascent="1556" descent="-492" />
<missing-glyph horiz-adv-x="712" />
<glyph unicode=" "  horiz-adv-x="712" />
<glyph unicode="&#x09;" horiz-adv-x="712" />
<glyph unicode="&#xa0;" horiz-adv-x="712" />
<glyph unicode="!" horiz-adv-x="897" d="M150 162q16 82 81 135q68 55 144 55q77 0 123 -55q47 -55 30.5 -135t-82.5 -135q-68 -55 -145 -56q-80 0 -123 56q-42 57 -28 135zM326 461l36 190l48 842h374l-282 -842l-37 -190h-139z" />
<glyph unicode="&#x22;" horiz-adv-x="1064" d="M195 938v555h237v-555h-237zM635 938v555h237v-555h-237z" />
<glyph unicode="#" horiz-adv-x="1714" d="M139 383v215h328l70 274h-283v213h338l96 385h223l-96 -385h264l97 385h221l-97 -385h277v-213h-330l-69 -274h284v-215h-336l-96 -383h-221l96 383h-264l-96 -383h-223l96 383h-279zM690 598h264l70 274h-264z" />
<glyph unicode="$" d="M84 59l57 291h119q-8 -135 57.5 -200.5t208.5 -65.5h15l80 405q-242 55 -330 149.5t-58 258.5q33 174 179 283q141 104 362 110l53 269h121l-51 -269q104 -6 208.5 -28.5t186.5 -59.5l-53 -272h-121q6 119 -55 180q-63 63 -189 68l-71 -373q256 -57 346 -158 q90 -98 55 -280q-37 -186 -182 -287q-150 -102 -383 -109l-51 -270h-121l51 270q-109 2 -217 25q-117 22 -217 63zM539 1022q-12 -72 20 -113q35 -43 127 -71l68 340q-90 -12 -146 -54q-57 -43 -69 -102zM662 84q102 12 163 55q59 43 76 117q14 72 -27 123q-37 47 -141 78z " />
<glyph unicode="%" horiz-adv-x="1945" d="M121 1114q41 201 160 301q123 104 313 104.5t270 -104.5q82 -109 43 -301q-41 -203 -159 -303q-123 -104 -314 -104q-188 0 -270 104q-84 104 -43 303zM268 -29l1237 1549h172l-1237 -1549h-172zM375 877q14 -70 80 -70q63 0 106 70q39 63 74 237q33 172 18 236 q-14 70 -80 69q-63 0 -106 -69q-43 -72 -74 -236q-34 -165 -18 -237zM1038 379q37 197 160 301t311 104q193 0 273 -104.5t43 -300.5q-41 -203 -160 -303q-123 -104 -313.5 -104.5t-270.5 104.5q-82 108 -43 303zM1292 141q14 -70 80 -69q63 0 107 69q39 63 73 238 q33 172 19 235q-14 70 -80 70q-63 0 -107 -70q-43 -72 -73 -235q-35 -166 -19 -238z" />
<glyph unicode="&#x26;" horiz-adv-x="1847" d="M14 352q0 41 11 99q29 158 141 278q104 115 309 199q-35 63 -51 129q-8 31 -8 65q0 27 6 52q31 164 186 256q154 90 406 90q76 0 170 -13q76 -10 215 -34l-62 -312h-129v29q0 100 -41 151q-45 57 -153 58q-102 0 -168 -47q-70 -49 -84 -131q-2 -8 -2 -23q0 -92 129 -252 q10 -14 24 -28l367 -482q66 59 123 158q55 94 84 201l22 120h318l-23 -120h-176q-45 -145 -112 -258q-70 -117 -160 -201l166 -215h170l-25 -121h-479l-101 131q-119 -82 -245 -121q-125 -39 -273 -39q-301 0 -442 127q-113 100 -113 254zM383 426q0 -109 61 -188 q86 -109 248 -109q78 0 158 25q82 25 162 75l-451 588q-70 -70 -110 -143q-41 -72 -60 -158q-8 -41 -8 -90z" />
<glyph unicode="'" horiz-adv-x="626" d="M195 938v555h237v-555h-237z" />
<glyph unicode="(" horiz-adv-x="968" d="M192.5 618.5q67.5 344.5 276.5 575.5q209 229 575 362l-22 -120q-174 -94 -285 -285q-102 -178 -172 -533q-68 -348 -35 -532q35 -190 172 -285l-22 -120q-315 127 -434 358q-121 235 -53.5 579.5z" />
<glyph unicode=")" horiz-adv-x="968" d="M-78 -319l23 120q172 92 282 285q106 184 174 532q68 342 33 532.5t-172 285.5l25 120q313 -131 434 -362t53 -576q-68 -348 -278 -579q-212 -233 -574 -358z" />
<glyph unicode="*" horiz-adv-x="1069" d="M45 874l361 170l-361 168l98 158l328 -242l-27 392h183l-27 -392l328 242l98 -158l-360 -168l360 -170l-98 -155l-328 239l27 -389h-183l27 389l-328 -239z" />
<glyph unicode="+" horiz-adv-x="1714" d="M217 528v230h526v526h230v-526h526v-230h-526v-526h-230v526h-526z" />
<glyph unicode="," horiz-adv-x="712" d="M-8 -197q121 84 188 189q70 106 96 241l17 86h285l-3 -8q-43 -221 -165.5 -380.5t-335.5 -268.5z" />
<glyph unicode="-" horiz-adv-x="849" d="M86 414l51 270h629l-53 -270h-627z" />
<glyph unicode="." horiz-adv-x="712" d="M166 162q16 82 82 135q68 55 145.5 55t122.5 -55q47 -55 30.5 -135t-81.5 -135q-68 -55 -146 -56q-77 0 -122.5 55.5t-30.5 135.5z" />
<glyph unicode="/" horiz-adv-x="747" d="M-164 -190l854 1683h221l-854 -1683h-221z" />
<glyph unicode="0" d="M96 745q74 377 270.5 576t497.5 199q299 0 418 -199q121 -201 47 -576q-74 -377 -270.5 -575.5t-497.5 -198.5q-299 0 -418 199q-121 200 -47 575zM442 197q23 -109 144 -109q119 0 184.5 108.5t151.5 548.5q84 428 61 547q-22 111 -141 111q-121 0 -186.5 -108.5 t-151.5 -549.5q-85 -431 -62 -548z" />
<glyph unicode="1" d="M133 0l25 121h278l236 1208l-346 -184l28 149l418 226h315l-272 -1399h283l-25 -121h-940z" />
<glyph unicode="2" d="M-10 0l47 244l250 153q326 197 442 332q123 141 156 320q35 176 -21 264q-55 90 -190 90q-115 0 -203 -72q-82 -68 -129 -207h-121l62 322q127 37 254 55q123 18 243 19q287 0 422 -117t96 -324q-29 -150 -139 -266q-113 -121 -391 -278l-469 -273h709l32 176h138 l-84 -438h-1104z" />
<glyph unicode="3" d="M8 51l64 328h121q-18 -141 47 -217q63 -74 200 -74q156 0 252 84q98 86 129 240q31 164 -37 250q-70 88 -229 88h-66l23 120h53q147 0 234 68q90 72 114 203q25 125 -32 194q-55 68 -187 68q-117 0 -198.5 -63.5t-118.5 -188.5h-121l57 299q150 37 267 53q115 16 245 17 q268 0 396 -97q125 -94 90 -276q-25 -135 -125 -219q-100 -86 -264 -113q186 -31 264 -133q76 -98 41 -279q-41 -211 -228 -321q-188 -111 -501 -111q-123 0 -240 21q-133 22 -250 59z" />
<glyph unicode="4" d="M12 393l23 115l821 1012h377l-195 -998h256l-24 -129h-256l-53 -272h223l-25 -121h-821l22 121h224l53 272h-625zM215 522h447l141 725z" />
<glyph unicode="5" d="M37 53l61 326h121q-20 -147 35 -219t195 -72q145 0 235 98q89 98 129 301q39 197 -10 297q-49 98 -193 99q-77 0 -141 -31q-59 -29 -129 -98h-100l145 739h918l-52 -262h-798l-64 -328q80 55 162 78q86 25 176 25q276 0 409.5 -139.5t86.5 -379.5q-47 -246 -233.5 -381 t-475.5 -135q-127 0 -238 21q-135 24 -239 61z" />
<glyph unicode="6" d="M121 698q80 408 293 615t561 207q94 0 188 -15q113 -16 213 -45l-51 -264h-121q-6 100 -65.5 153.5t-167.5 53.5q-178 0 -283 -123q-102 -121 -158 -395q76 53 162 78q94 27 180 26q229 0 334 -135t60 -367q-49 -246 -221.5 -381t-446.5 -135q-303 0 -426 185 q-123 182 -51 542zM469 176q29 -88 129 -88q102 0 166 88q57 82 102 303q43 215 14.5 303t-129 88t-163.5 -88q-57 -82 -103 -303q-43 -219 -16 -303z" />
<glyph unicode="7" d="M213 1008l94 485h1094l-49 -254l-858 -1239h-203l835 1210h-737l-39 -202h-137z" />
<glyph unicode="8" d="M39 397q31 166 143 267q117 104 297 131q-154 37 -213 120.5t-35 214.5q37 188 199 289t432 101q272 0 393 -101q123 -100 86 -289q-25 -127 -120 -215q-92 -84 -258 -120q168 -27 243 -131q72 -98 41 -267q-39 -205 -217 -315.5t-471 -110.5q-291 0 -426 111 q-133 110 -94 315zM436 157.5q33 -69.5 148 -69.5q113 0 174 70q59 68 96 256q35 186 2 252q-35 70 -147 69q-115 0 -174 -69q-61 -70 -95 -252q-37 -187 -4 -256.5zM612 911q29 -59 119 -59q94 0 143 59q47 55 78 215q33 162 6 217q-29 59 -118 60q-94 0 -144 -60 q-49 -57 -80 -217q-31 -158 -4 -215z" />
<glyph unicode="9" d="M49 31l51 264h121q6 -100 65.5 -153.5t170.5 -53.5q174 0 278.5 123t159.5 397q-78 -53 -162 -80q-82 -27 -180 -26q-227 0 -332 133q-106 133 -59 369q49 250 219 383t444 133q305 0 428 -184.5t52 -542.5q-80 -406 -295 -615q-213 -207 -559 -207q-96 0 -191 15 q-107 16 -211 45zM544.5 709q28.5 -88 129 -88t164.5 88q57 82 102 303q43 219 16 303q-29 88 -131 88q-100 0 -163 -88q-57 -82 -103 -303q-43 -215 -14.5 -303z" />
<glyph unicode=":" horiz-adv-x="755" d="M125 162q16 82 82 135q68 55 143 55q77 0 123 -55q47 -55 30.5 -135t-81.5 -135q-68 -55 -146 -56q-77 0 -122 56q-45 53 -29 135zM252 813q14 78 82 135q63 55 143 56q77 0 123 -56q47 -55 31 -135q-14 -76 -82 -133q-66 -55 -145.5 -55t-122.5 55q-43 57 -29 133z" />
<glyph unicode=";" horiz-adv-x="755" d="M-49 -188q127 88 190 186q70 106 97 242l16 88h285q-43 -225 -168 -387q-127 -164 -336 -271zM281 813q16 80 81 135q68 55 146 56q77 0 123 -56q45 -53 28 -135q-14 -76 -81 -133q-66 -55 -146 -55t-123 55q-42 57 -28 133z" />
<glyph unicode="&#x3c;" horiz-adv-x="1714" d="M217 530v226l1282 463v-240l-979 -338l979 -336v-239z" />
<glyph unicode="=" horiz-adv-x="1714" d="M217 301v227h1282v-227h-1282zM217 756v227h1282v-227h-1282z" />
<glyph unicode="&#x3e;" horiz-adv-x="1714" d="M217 66v239l979 336l-979 338v240l1282 -463v-226z" />
<glyph unicode="?" horiz-adv-x="1198" d="M211 1145l59 307q127 33 246 51q104 16 221 17q250 0 365 -111q113 -111 74 -315q-39 -201 -193 -318t-401 -135l-39 -205h-140l58 299q150 43 231 135q82 90 113 246q27 143 -19 217t-165 74q-106 0 -183 -66q-72 -61 -106 -196h-121zM229.5 162q16.5 82 81.5 135 q68 55 146 55q76 0 123 -55t30 -135q-14 -80 -84 -135q-68 -55 -145 -56q-77 0 -123 56q-45 53 -28.5 135z" />
<glyph unicode="@" horiz-adv-x="2048" d="M131 186q-33 164 4 357q37 190 135.5 356t248 291t329.5 188q175 61 381 62q178 0 313 -49q143 -51 234 -146q109 -109 149 -254q39 -137 4 -315q-55 -276 -241 -430q-188 -154 -471 -154h-31l26 148q-63 -78 -135 -111q-80 -37 -170 -37q-190 0 -276 121 q-84 119 -45 330q39 209 174 331q131 119 323 119q86 0 154 -39q63 -35 94 -108l25 125h219l-145 -742q152 41 251 156q100 117 136 293q27 141 -5 260q-31 117 -126 213q-80 80 -193 121q-111 41 -256 41q-127 0 -250 -35q-111 -31 -227 -104q-163 -108 -271 -271 q-111 -168 -147 -360q-31 -152 -8 -293q20 -129 92 -238q82 -119 211 -180t291 -61q119 0 241 34q125 35 238 101l39 -94q-139 -80 -293 -125q-147 -43 -291 -43q-195 0 -342 63q-152 66 -254 189q-100 122 -135 290zM827 543q-29 -147 14.5 -235.5t141.5 -88.5 q100 0 178 78q80 80 105 207l14 76q25 127 -23 208q-45 78 -147 78q-98 0 -176 -88q-80 -88 -107 -235z" />
<glyph unicode="A" horiz-adv-x="1587" d="M-162 0l25 121h121l829 1372h240l295 -1372h143l-25 -121h-698l23 121h147l-64 305h-561l-186 -305h178l-22 -121h-445zM385 547h463l-119 571z" />
<glyph unicode="B" horiz-adv-x="1730" d="M-49 0l22 121h193l244 1251h-193l25 121h884q270 0 392 -92q92 -71 92 -196q0 -38 -8 -81q-25 -135 -136 -211q-111 -77 -301 -98q221 -20 324 -121q75 -73 75 -186q0 -36 -8 -76q-43 -223 -231 -328q-186 -104 -545 -104h-829zM551 121h141q193 0 299.5 75.5 t136.5 235.5q9 47 9 87q0 97 -54 153q-76 78 -268 78h-141zM696 870h131q172 0 267 62q96 61 120 192q7 34 7 64q0 82 -50 125q-70 59 -245 59h-131z" />
<glyph unicode="C" horiz-adv-x="1628" d="M86 745q68 354 330 566q261 209 639 209q132 0 270 -31q123 -27 285 -98l-72 -367h-127q-4 193 -86 281q-88 94 -254 94q-215 0 -354 -160q-137 -160 -203 -494q-30 -152 -30 -270q0 -137 40 -223q74 -160 295 -160q152 0 260.5 82t186.5 252h198q-106 -233 -278 -342 q-178 -113 -434 -113q-379 0 -557 209q-128 150 -128 377q0 88 19 188z" />
<glyph unicode="D" horiz-adv-x="1775" d="M-49 0l22 121h193l244 1251h-193l25 121h766q401 0 577 -193q125 -136 125 -358q0 -90 -20 -194q-70 -362 -322 -555q-250 -193 -651 -193h-766zM551 121h137q236 0 373 149q135 147 201 478q29 148 29 258q0 135 -44 217q-80 150 -313 149h-139z" />
<glyph unicode="E" horiz-adv-x="1560" d="M-49 0l22 121h193l244 1251h-193l25 121h1341l-67 -352h-140l41 215h-626l-95 -479h391l37 190h138l-101 -516h-137l39 190h-391l-117 -604h645l41 215h137l-67 -352h-1360z" />
<glyph unicode="F" horiz-adv-x="1452" d="M-49 0l22 121h193l244 1251h-193l25 121h1331l-70 -352h-137l43 215h-616l-95 -479h379l37 190h137l-100 -516h-135l37 190h-379l-121 -620h233l-22 -121h-813z" />
<glyph unicode="G" horiz-adv-x="1748" d="M86 745q72 362 330 568q262 207 645 207q160 0 307 -31q137 -29 293 -98l-72 -367h-127q-6 199 -94 287t-278 88q-231 0 -371 -158q-141 -160 -205 -496q-31 -159 -31 -277q0 -134 39 -218q74 -158 293 -158q83 0 160 19q66 16 141 57l80 410h-180l24 120h539l-113 -573 q-201 -84 -358 -117q-175 -37 -350 -37q-385 0 -563 207q-128 148 -129 377q0 89 20 190z" />
<glyph unicode="H" horiz-adv-x="1933" d="M-49 0l22 121h193l244 1251h-193l25 121h768l-25 -121h-190l-99 -502h594l99 502h-193l25 121h768l-25 -121h-190l-244 -1251h190l-22 -121h-768l22 121h193l119 612h-594l-119 -612h190l-22 -121h-768z" />
<glyph unicode="I" horiz-adv-x="956" d="M-49 0l22 121h193l244 1251h-193l25 121h768l-25 -121h-190l-244 -1251h190l-22 -121h-768z" />
<glyph unicode="J" horiz-adv-x="968" d="M-324 -358l45 235h132q-4 -27 -4 -50q0 -57 22 -87q33 -45 104 -45q98 0 152 74q51 74 92 280l256 1323h-217l25 121h794l-22 -121h-193l-258 -1331q-45 -242 -192.5 -354.5t-411.5 -112.5q-90 0 -162 16q-90 21 -162 52z" />
<glyph unicode="K" horiz-adv-x="1779" d="M-49 0l22 121h193l244 1251h-193l25 121h768l-25 -121h-190l-107 -545l739 545h-159l22 121h557l-22 -121h-201l-625 -461l576 -790h145l-22 -121h-506l-524 725l-117 -604h190l-22 -121h-768z" />
<glyph unicode="L" horiz-adv-x="1439" d="M-49 0l22 121h193l244 1251h-193l25 121h768l-25 -121h-190l-240 -1235h588l45 236h135l-74 -373h-1298z" />
<glyph unicode="M" horiz-adv-x="2265" d="M-59 0l22 121h191l243 1251h-188l22 121h617l239 -958l615 958h614l-22 -121h-193l-243 -1251h190l-23 -121h-768l23 121h190l224 1139l-668 -1041h-252l-258 1041l-221 -1139h188l-22 -121h-520z" />
<glyph unicode="N" horiz-adv-x="1871" d="M-55 0l22 121h193l243 1251h-190l23 121h466l697 -1057l180 936h-188l22 121h522l-22 -121h-193l-266 -1372h-262l-705 1079l-188 -958h190l-22 -121h-522z" />
<glyph unicode="O" horiz-adv-x="1783" d="M86 745q70 360 326 567.5t630 207.5q379 0 551 -205q123 -147 123 -373q0 -92 -20 -197q-72 -365 -326 -569.5t-631 -204.5t-549 205q-124 149 -124 376q0 91 20 193zM512 254q61 -162 252 -162q188 0 315 162q123 156 189 491q33 167 32 292q0 121 -30 200 q-61 162 -252 162t-316 -162q-123 -160 -188 -492q-33 -166 -32 -290q0 -120 30 -201z" />
<glyph unicode="P" horiz-adv-x="1538" d="M-49 0l22 121h193l244 1251h-193l25 121h850q252 0 372 -119q94 -91 94 -226q0 -43 -10 -91q-41 -203 -209 -320q-170 -119 -417 -119h-275l-96 -497h240l-23 -121h-817zM672 739h110q131 0 226 86q92 84 120 232q9 49 10 89q0 84 -40 140q-61 86 -193 86h-110z" />
<glyph unicode="Q" horiz-adv-x="1783" d="M102 549q0 96 21 196q70 360 326 567.5t628 207.5q377 0 551 -205q125 -150 125 -375q0 -94 -20 -195q-61 -317 -267 -516q-207 -201 -516 -245q41 -57 115 -82q164 -57 299 -58h192l-47 -245h-172q-252 0 -407 114q-115 86 -160 258q-375 6 -547 209q-121 146 -121 369z M518 455q0 -121 31 -201q61 -162 252 -162q188 0 315 162q123 156 189 491q33 164 32 295q0 117 -30 197q-61 162 -252 162t-316 -162q-123 -160 -188 -492q-33 -175 -33 -290z" />
<glyph unicode="R" horiz-adv-x="1701" d="M-49 0l22 121h193l244 1251h-193l25 121h852q261 0 381 -104q93 -81 92 -213q0 -40 -8 -84q-31 -156 -150 -246q-121 -92 -326 -117q86 -12 140 -59q51 -45 80 -133l137 -416h151l-22 -121h-492l-149 451q-43 139 -82 178t-127 39h-62l-106 -547h190l-22 -121h-768z M680 788h131q143 0 231 76q90 78 117 217q9 45 9 83q0 82 -42 132q-63 76 -200 76h-131z" />
<glyph unicode="S" horiz-adv-x="1478" d="M27 72l69 354h127v-11q0 -161 88 -241q90 -82 283 -82q154 0 248 59.5t114 172.5q5 25 5 46q0 59 -33 95q-46 49 -209 92l-213 55q-203 53 -277 156q-46 64 -46 168q0 52 12 115q43 223 215 346t438 123q121 0 266 -23q127 -20 281 -65l-64 -330h-127q0 154 -84 225.5 t-264 71.5q-150 0 -233.5 -51.5t-106.5 -153.5q-6 -28 -5 -51q0 -55 30 -90q43 -49 235 -101l213 -55q197 -53 271 -162q48 -71 47 -179q0 -56 -13 -124q-43 -225 -223 -344q-178 -117 -481 -117q-147 0 -285 25q-147 27 -278 76z" />
<glyph unicode="T" horiz-adv-x="1523" d="M96 1120l72 373h1481l-72 -373h-135l45 236h-414l-239 -1235h198l-22 -121h-785l25 121h196l240 1235h-407l-46 -236h-137z" />
<glyph unicode="U" horiz-adv-x="1785" d="M195 1372l22 121h768l-22 -121h-193l-143 -747q-25 -127 -25 -219q0 -110 35 -170q66 -113 276 -113q209 0 315.5 112.5t162.5 389.5l145 747h-190l22 121h520l-22 -121h-193l-147 -768q-63 -340 -244 -487q-176 -145 -524 -145.5t-469 147.5q-77 95 -78 269q0 97 25 218 l149 766h-190z" />
<glyph unicode="V" horiz-adv-x="1587" d="M111 1372l22 121h701l-23 -121h-145l208 -989l601 989h-179l23 121h444l-22 -121h-125l-832 -1372h-237l-295 1372h-141z" />
<glyph unicode="W" horiz-adv-x="2299" d="M104 1372l23 121h709l-25 -121h-160l107 -917l524 1038h285l123 -1055l473 934h-178l22 121h463l-25 -121h-151l-695 -1372h-258l-127 1087l-548 -1087h-258l-158 1372h-146z" />
<glyph unicode="X" horiz-adv-x="1587" d="M-109 0l23 121h184l504 571l-334 680h-137l25 121h741l-23 -121h-163l207 -420l366 420h-174l25 121h520l-25 -121h-182l-475 -536l350 -715h141l-22 -121h-746l25 121h166l-225 454l-402 -454h184l-22 -121h-531z" />
<glyph unicode="Y" horiz-adv-x="1460" d="M104 1372l23 121h717l-25 -121h-166l226 -569l444 569h-147l22 121h428l-22 -121h-127l-551 -702l-109 -549h203l-25 -121h-788l22 121h201l98 497l-297 754h-127z" />
<glyph unicode="Z" horiz-adv-x="1492" d="M-70 0l27 141l1128 1215h-714l-43 -223h-138l70 360h1296l-26 -141l-1118 -1215h753l41 209h137l-67 -346h-1346z" />
<glyph unicode="[" horiz-adv-x="968" d="M80 -270l352 1826h567l-22 -120h-213l-307 -1586h213l-25 -120h-565z" />
<glyph unicode="\" horiz-adv-x="747" d="M164 1493h221l199 -1683h-222z" />
<glyph unicode="]" horiz-adv-x="968" d="M-33 -270l25 120h213l307 1586h-213l23 120h569l-354 -1826h-570z" />
<glyph unicode="^" horiz-adv-x="1714" d="M207 936l543 557h223l536 -557h-213l-438 315l-438 -315h-213z" />
<glyph unicode="_" horiz-adv-x="1024" d="M0 -293h1024v-190h-1024v190z" />
<glyph unicode="`" horiz-adv-x="1024" d="M262 1638h281l182 -376h-164z" />
<glyph unicode="a" horiz-adv-x="1325" d="M72 449q43 221 233 415q227 227 533 228q301 0 344 -62l-176 -909l133 2l-25 -123h-442l24 135q-111 -164 -305 -164t-278 127q-56 84 -56 209q0 65 15 142zM397 199q25 -72 121 -72q92 0 152 84q57 82 94 268l78 398q-2 59 -62 59q-133 0 -264 -160q-57 -70 -108 -321 q-21 -104 -21 -175q-1 -51 10 -81z" />
<glyph unicode="b" horiz-adv-x="1431" d="M51 0l279 1436h-152l23 120h506l-121 -628q61 84 143 123q86 41 197 41q227 0 327 -150q70 -100 70 -248q0 -76 -18 -162q-53 -262 -211 -411.5t-385 -149.5q-111 0 -181 41q-72 43 -98 123l-24 -135h-355zM477 309q0 -55 17 -98q31 -84 137 -84q109 0 170 88t106 317 q29 147 29 230q0 53 -12 86q-27 88 -136 88q-106 0 -169.5 -82t-100.5 -270l-20 -105q-21 -96 -21 -170z" />
<glyph unicode="c" horiz-adv-x="1245" d="M70 387q0 74 14 145q53 266 233 412q184 147 457 148q119 0 221 -21q117 -23 217 -63l-57 -295h-113q2 14 2 45q0 102 -40 155q-49 66 -164 66q-150 0 -232 -100q-80 -96 -129 -347q-25 -129 -24 -219q0 -76 18 -125q40 -104 178 -104q109 0 185 63q78 66 114 185h166 q-74 -181 -209 -271q-137 -90 -336 -90q-285 0 -411 148q-90 102 -90 268z" />
<glyph unicode="d" horiz-adv-x="1431" d="M23 369q0 84 16 163q53 262 209 410q158 150 385 150q111 0 180 -41q72 -43 98 -123l99 508h-152l23 120h505l-301 -1556h-354l27 135q-63 -84 -146 -123q-88 -41 -196 -41q-227 0 -328 150q-65 98 -65 248zM408 303q0 -51 10 -88q27 -88 137 -88q102 0 168 84 q63 82 100 268l21 105q18 98 18 170q0 63 -14 100q-31 82 -135 82q-109 0 -172 -88q-59 -84 -107 -316q-26 -135 -26 -229z" />
<glyph unicode="e" horiz-adv-x="1302" d="M68 379q0 63 16 149q53 270 231 416q180 147 445 148q190 0 323 -74q131 -74 131 -209q0 -31 -6 -57q-66 -326 -753 -353q-6 -34 -6 -104q0 -211 204 -211q117 0 199 61.5t125 176.5h166q-76 -178 -223 -267q-141 -84 -373 -84q-274 0 -395 146q-84 102 -84 262zM477 518 h23q307 0 354 244q6 37 6 69q0 147 -125 148q-94 0 -149.5 -90t-108.5 -371z" />
<glyph unicode="f" horiz-adv-x="880" d="M-121 -389q12 68 23 113q82 0 127 57q47 59 71 186l191 975h-158l23 121h157l27 133q33 176 166 268t348 92q78 0 166 -10q72 -8 154 -28l-46 -228h-112q2 10 2 29q0 57 -25 88q-31 37 -98 37q-82 0 -127 -58q-51 -63 -74 -186l-26 -137h268l-25 -121h-266l-188 -971 q-39 -207 -166 -270q-189 -90 -412 -90z" />
<glyph unicode="g" horiz-adv-x="1431" d="M45 -389l51 254h113v-17q0 -94 53 -139q59 -51 191 -51q166 0 245.5 78t120.5 278l25 121q-123 -164 -348 -164q-223 0 -326 127q-72 89 -72 226q0 58 13 125q51 268 305 466q229 176 561 177q268 0 389 -97l-192 -981q-49 -244 -228 -346q-218 -123 -473 -123 q-98 0 -213 17q-107 15 -215 49zM502 199q31 -72 139 -72q104 0 170 84q61 78 98 268l78 398q-6 59 -69 59q-181 0 -295 -160q-72 -104 -115 -321q-20 -101 -20 -168q0 -56 14 -88z" />
<glyph unicode="h" horiz-adv-x="1488" d="M70 0l278 1436h-158l23 120h512l-125 -643q80 92 174 138q84 41 215 41q180 0 250 -107q45 -66 45 -174q0 -66 -14 -135l-109 -555h154l-25 -121h-506l134 686q14 66 14 119q0 45 -12 69q-25 51 -109 52q-109 0 -172 -78q-66 -80 -98 -250l-117 -598h-354z" />
<glyph unicode="i" horiz-adv-x="776" d="M70 0l184 942h-152l23 121h506l-185 -942h152l-23 -121h-505zM299 1325q0 25 2 39q16 82 84 137t147 55q76 0 123 -57q33 -39 33 -94q0 -12 -4 -41q-16 -82 -80 -135q-68 -55 -145 -55q-82 0 -127 55q-33 39 -33 96z" />
<glyph unicode="j" horiz-adv-x="739" d="M-340 -416l43 226h115q-6 -31 -6 -56q0 -39 14 -59q23 -37 88 -37q76 0 113 47q37 45 61 170l207 1067h-152l25 121h506l-232 -1188q-31 -162 -164 -246t-356 -84q-51 0 -127 11q-59 8 -135 28zM332 1325q0 10 4 39q16 80 82 137q65 55 147 55q78 0 125 -57 q33 -41 33 -96q0 -10 -4 -39q-16 -80 -82 -135q-68 -55 -145.5 -55t-124.5 55q-35 41 -35 96z" />
<glyph unicode="k" horiz-adv-x="1417" d="M70 0l278 1436h-149l22 120h504l-193 -999l504 385h-127l23 121h289l-25 -121l-322 -246l336 -575h115l-22 -121h-392l-290 500l-117 -88l-80 -412h-354z" />
<glyph unicode="l" horiz-adv-x="776" d="M70 0l278 1436h-149l22 120h504l-279 -1435h152l-23 -121h-505z" />
<glyph unicode="m" horiz-adv-x="2166" d="M115 0l184 942h-152l23 121h506l-31 -150q80 92 170 135.5t199 43.5q129 0 200.5 -49.5t96.5 -153.5q96 109 188 156t211 47q182 0 254 -105q43 -65 43 -172q0 -68 -14 -139l-109 -555h154l-25 -121h-506l121 623q27 139 27 198q0 29 -8 53q-20 51 -103 52 q-96 0 -160 -72q-70 -78 -92 -207l-127 -647h-354l123 623q25 129 24 196q0 31 -8 55q-20 51 -102 52q-98 0 -162 -72q-66 -76 -90 -207l-127 -647h-354z" />
<glyph unicode="n" horiz-adv-x="1488" d="M115 0l184 942h-152l23 121h506l-31 -150q80 92 174 138q84 41 215 41q180 0 250 -107q45 -66 45 -174q0 -66 -14 -135l-109 -555h154l-25 -121h-506l134 686q14 66 14 119q0 45 -12 69q-25 51 -109 52q-109 0 -172 -78q-66 -80 -98 -250l-117 -598h-354z" />
<glyph unicode="o" horiz-adv-x="1363" d="M70 393q0 70 14 139q52 264 240 412q188 147 469 148q283 0 411 -148q94 -106 94 -272q0 -70 -14 -140q-52 -261 -240 -411q-186 -150 -468.5 -150t-411.5 150q-94 106 -94 272zM446 270q0 -53 11 -90q27 -96 141 -96q109 0 174.5 96t114.5 352q33 162 33 267 q0 49 -11 86q-25 94 -139 94q-111 0 -176 -96q-66 -98 -115 -351q-33 -174 -33 -262z" />
<glyph unicode="p" horiz-adv-x="1431" d="M51 -426l266 1368h-151l22 121h506l-24 -135q61 84 143 123q86 41 197 41q227 0 327 -150q70 -100 70 -248q0 -76 -18 -162q-53 -262 -211 -411.5t-385 -149.5q-111 0 -181 41q-72 43 -98 123l-108 -561h-355zM561 309q0 -55 17 -98q31 -84 137 -84q109 0 170 88t106 317 q27 135 27 230q0 49 -10 86q-27 88 -138 88q-104 0 -167.5 -82t-100.5 -270l-20 -105q-21 -113 -21 -170z" />
<glyph unicode="q" horiz-adv-x="1431" d="M109 449q51 268 305 466q229 176 559 177q268 0 389 -97l-252 -1294l162 -2l-25 -123l-516 -2l111 561q-123 -164 -348 -164q-223 0 -326 127q-72 89 -72 226q0 58 13 125zM500 199q31 -72 139 -72q102 0 168 84q63 82 100 268l78 398q-6 59 -70 59q-182 0 -297 -160 q-70 -100 -112 -321q-20 -101 -20 -168q0 -56 14 -88z" />
<glyph unicode="r" horiz-adv-x="1077" d="M115 0l184 942h-164l25 121h516l-37 -189q74 111 170 164.5t219 53.5q16 0 74 -5q41 -2 100 -12l-61 -317h-113q2 14 2 39q0 59 -22 88q-29 41 -109 41q-117 0 -203 -103q-90 -106 -123 -282l-104 -541h-354z" />
<glyph unicode="s" horiz-adv-x="1150" d="M0 31l55 297h115q0 -4 -1 -14.5t-1 -14.5q0 -96 59.5 -155.5t178.5 -59.5q231 0 260 145q4 25 4 47q0 27 -24.5 58t-127.5 55l-137 37q-158 41 -209 106q-49 66 -49 146q0 31 6 72q33 170 172 258q131 84 354 84q221 0 455 -64l-51 -268h-115q4 25 4 37q0 182 -225 182 q-229 0 -254 -135q-2 -10 -2 -39q0 -65 123 -98l137 -37q199 -51 254 -119t55 -154q0 -41 -8 -75q-33 -176 -180 -265q-143 -86 -416 -86q-203 1 -432 60z" />
<glyph unicode="t" horiz-adv-x="944" d="M100 942l23 121h153l66 330h352l-63 -330h295l-23 -121h-295l-127 -651q-16 -80 -16 -133q0 -31 4 -39q16 -35 74 -35q63 0 102 43q37 39 60 133h149q-41 -162 -131 -225.5t-283 -63.5q-219 0 -284 70q-41 41 -41 135q0 49 12 115l127 651h-154z" />
<glyph unicode="u" horiz-adv-x="1488" d="M129 942l25 121h505l-120 -621q-25 -127 -25 -192q0 -41 8 -60q23 -53 111 -53q109 0 172 78q65 80 98 252l117 596h354l-182 -942h149l-22 -121h-506l29 150q-82 -94 -172 -138q-84 -41 -215 -41q-180 0 -250 105q-45 66 -45 176q0 66 14 135l109 555h-154z" />
<glyph unicode="v" horiz-adv-x="1189" d="M43 942l23 121h434l162 -793q31 0 188 213q145 201 211 459h-117l25 123l235 -2q4 -250 -198 -584q-193 -322 -367 -479h-285l-194 942h-117z" />
<glyph unicode="w" horiz-adv-x="1761" d="M61 942l25 121h434l103 -696l372 696h211l111 -764q12 12 149 182q139 182 199 461l-139 -2l24 123h273q-59 -385 -183 -578q-193 -301 -385 -485h-243l-97 666l-356 -666h-242l-139 942h-117z" />
<glyph unicode="x" horiz-adv-x="1220" d="M-37 0l467 518l-221 424h-119l23 121h434l201 -385l348 385h143l-455 -500l230 -442h141l-22 -121h-453l-209 401l-367 -401h-141z" />
<glyph unicode="y" horiz-adv-x="1189" d="M-39 -412l43 222h113q-4 -33 -4 -46q0 -68 47 -90q25 -10 63 -16q16 -2 49 -2q109 0 224 72l-283 1214h-117l25 121h434l238 -1028q117 172 192 354q76 186 154 551h-144l25 123h287q-23 -115 -62 -293q-88 -403 -201 -594q-291 -489 -528 -579q-129 -51 -323 -52 q-95 0 -232 43z" />
<glyph unicode="z" horiz-adv-x="1161" d="M-31 0l23 121l698 747q-41 16 -59 29q-127 68 -207 68q-117 0 -299 -146l31 160q176 168 336 168q78 -2 210 -70q141 -72 199 -71q53 0 115 22q55 20 82 37l98 -2l-22 -119l-701 -749q45 -16 64 -29q127 -68 204 -68q119 0 301 146l-30 -158q-180 -170 -338 -170 q-78 2 -211 70q-141 72 -199 71q-53 0 -114 -22q-55 -20 -82 -37z" />
<glyph unicode="{" horiz-adv-x="1316" d="M160 551l24 121h62q141 0 204.5 57t94.5 209l49 250q20 100 45 166q23 57 57 92q61 61 150 86q86 25 323 24h148l-25 -120h-102q-111 0 -162 -47q-51 -49 -76 -183l-53 -270q-31 -158 -94 -227q-59 -66 -197 -97q121 -33 160 -100q35 -61 4 -225l-51 -271 q-25 -139 4 -182q31 -47 145 -47h103l-25 -121h-147q-237 0 -314 25q-78 25 -114 86q-22 37 -25 92q-2 47 21 166l49 250q29 154 -12 209q-43 57 -185 57h-61z" />
<glyph unicode="|" horiz-adv-x="743" d="M264 -483v2048h215v-2048h-215z" />
<glyph unicode="}" horiz-adv-x="1316" d="M2 -334l25 121h100q111 0 162 47q51 49 76 182l53 271q31 156 94 225q61 68 199 100q-123 31 -160 98.5t-6 225.5l53 270q25 137 -8 183q-35 47 -144 47h-100l25 120h145q237 0 313 -24q78 -25 115 -86q22 -37 25 -92q2 -47 -21 -166l-49 -250q-31 -147 14 -209 q43 -57 183 -57h61l-24 -121h-62q-141 0 -205 -57q-68 -61 -94 -209l-47 -250q-20 -100 -45 -166q-20 -53 -59 -92q-61 -61 -150 -86q-86 -25 -324 -25h-145z" />
<glyph unicode="~" horiz-adv-x="1714" d="M217 453v206q96 88 189 127q94 41 192 41t246 -57q10 -4 16 -7t10 -3l15 -6q172 -68 274 -68q77 0 160 37q94 41 180 108v-206q-92 -86 -186 -127t-194.5 -41t-248.5 57q-8 2 -14 6t-10 4q-2 0 -9.5 3t-11.5 5q-174 66 -268 66q-77 0 -160 -37q-94 -40 -180 -108z" />
<glyph unicode="&#xa1;" horiz-adv-x="897" d="M115 0l280 842l37 190h139l-36 -190l-46 -842h-374zM371 1329q16 80 82 135q68 55 145 56q77 0 123 -56q45 -53 29 -135q-16 -80 -82 -133q-68 -55 -146 -55q-80 0 -123 55q-42 57 -28 133z" />
<glyph unicode="&#xa2;" d="M162 532q53 264 229 408q180 145 459 152l49 264h123l-53 -269q53 -2 135 -22q51 -12 186 -57l-55 -295h-115q10 127 -33 190.5t-139 75.5l-174 -891q92 14 158 78q63 59 96 166h166q-66 -158 -174 -246q-113 -90 -266 -109l-56 -276h-120l53 270q-276 6 -398 152 q-122 149 -71 409zM537 221q25 -100 118 -127l170 875q-104 -25 -168 -125q-61 -98 -102 -312q-41 -217 -18 -311z" />
<glyph unicode="&#xa3;" d="M0 0l23 121h192l113 573h-195l25 121h192l56 277q43 215 194.5 321.5t427.5 106.5q74 0 154 -9q111 -12 207 -26l-56 -283h-121q12 100 -24 152q-39 53 -123 53q-119 0 -184 -74q-63 -74 -99 -250l-53 -268h352l-22 -121h-352l-109 -557h420l45 228h135l-70 -365h-1128z " />
<glyph unicode="&#xa4;" horiz-adv-x="1302" d="M76 215l209 209q-29 41 -45 100q-14 49 -15 117q0 66 15 117q16 55 45 100l-209 205l153 158l207 -211q47 31 103 45q51 14 114 14q57 0 109 -14q57 -16 112 -45l205 211l152 -154l-209 -205q27 -49 45 -112q14 -51 14 -109q0 -66 -14 -115q-16 -59 -45 -100l209 -211 l-156 -154l-207 211q-41 -29 -100 -45q-49 -14 -115 -14q-61 0 -112 14q-57 16 -105 41l-209 -207zM434 641q0 -92 63.5 -155.5t155.5 -63.5t155.5 63.5t63.5 155.5t-63.5 155.5t-155.5 63.5t-155.5 -63.5t-63.5 -155.5z" />
<glyph unicode="&#xa5;" d="M59 467l23 117h401l13 59l-35 135h-342l22 117h287l-129 477h-137l22 121h695l-25 -121h-170l152 -551l362 551h-149l22 121h436l-22 -121h-135l-316 -477h293l-22 -117h-351l-75 -116l-17 -78h404l-23 -117h-401l-70 -346h191l-23 -121h-760l25 121h188l70 346h-404z " />
<glyph unicode="&#xa6;" horiz-adv-x="743" d="M264 -350v758h215v-758h-215zM264 674v758h215v-758h-215z" />
<glyph unicode="&#xa7;" horiz-adv-x="1069" d="M-2 -150l47 240h119q-10 -92 33 -131q45 -41 149 -41q86 0 141.5 37t67.5 106q10 49 -10 80q-23 35 -103 80l-120 72q-166 96 -224 182q-55 82 -32 199q20 102 92 176q70 74 194 117q-72 45 -100.5 110.5t-9.5 153.5q25 135 149 213q121 76 322 76q86 0 157 -11 q61 -8 185 -34l-47 -240h-119q12 84 -33 129q-43 43 -139 43q-82 0 -135.5 -37t-65.5 -104q-9 -46 12 -80q23 -35 101 -80l121 -72q170 -98 225 -182q53 -80 31 -199q-23 -106 -91 -178q-70 -74 -194 -117q76 -47 100 -110q27 -68 8 -154q-25 -135 -149 -213 q-121 -76 -326 -76q-96 0 -169.5 10t-186.5 35zM322 745q-12 -63 22.5 -112t134.5 -109l152 -88q51 33 82 74q29 39 39 82q12 59 -25 110q-37 53 -137 111l-150 88q-53 -37 -80 -72q-30 -39 -38 -84z" />
<glyph unicode="&#xa8;" horiz-adv-x="1024" d="M336 1468q12 59 63.5 102.5t112.5 43.5t94 -43q35 -43 23 -103q-12 -61 -64 -104t-110 -43q-57 0 -97 45q-34 45 -22 102zM782 1468q12 59 63.5 102.5t111 43.5t96.5 -43t24 -103q-12 -61 -63 -102q-55 -45 -113 -45q-59 0 -94 45q-37 47 -25 102z" />
<glyph unicode="&#xa9;" horiz-adv-x="2048" d="M283 741q0 152 55 285t162 240q109 109 241 164t283 55t283 -55q133 -55 241 -164q106 -106 161.5 -239.5t55.5 -285.5q0 -154 -55 -282q-59 -135 -162 -240q-109 -109 -241 -164t-283 -55t-283 55q-133 55 -241 164q-102 104 -162 240q-55 128 -55 282zM436 741.5 q0 -120.5 43 -225t129 -190.5t190.5 -129t225.5 -43t225.5 43t190.5 129t129 190.5t43 225t-43 225t-129 190.5q-90 90 -191 131q-104 43 -225 43t-225 -43q-100 -41 -191 -131q-86 -86 -129 -190.5t-43 -225zM606 741.5q0 200.5 117 321.5t313 121q78 0 158 -19 q88 -20 168 -57v-223h-105q-12 94 -65 147t-133 53q-104 0 -164 -92q-59 -94 -59 -252q0 -162 59 -252t164 -90q76 0 123 45q51 47 71 136h138q-29 -139 -119 -209t-246 -70q-186 0 -303 121q-117 119 -117 319.5z" />
<glyph unicode="&#xaa;" horiz-adv-x="995" d="M14 504l27 135h797l-27 -135h-797zM131 952q0 55 12 119q37 186 140 303q102 119 249 146q25 6 48 6q37 0 69 -17q47 -20 70 -77l16 90h162l-115 -592h115l-29 -152h-276l24 129q-47 -70 -106 -110q-66 -45 -129 -58q-33 -6 -66 -6q-94 0 -143 68q-41 57 -41 151z M317 1006q0 -57 19 -95q25 -57 82 -57q16 0 24 2q76 14 138 92q59 76 82 189l12 65q8 39 8 78q0 57 -20 92q-29 47 -82 47q-18 0 -29 -2q-78 -16 -137 -98q-61 -86 -86 -213q-11 -45 -11 -100z" />
<glyph unicode="&#xab;" horiz-adv-x="1280" d="M141 516l33 168l545 385l-29 -147l-303 -322l178 -321l-28 -148zM602 516l33 168l543 385l-27 -147l-303 -322l176 -321l-29 -148z" />
<glyph unicode="&#xac;" horiz-adv-x="1714" d="M217 676v227h1282v-616h-229v389h-1053z" />
<glyph unicode="&#xad;" horiz-adv-x="849" d="M86 414l51 270h629l-53 -270h-627z" />
<glyph unicode="&#xae;" horiz-adv-x="2048" d="M283 741q0 152 55 285t162 240q109 109 241 164t283 55t283 -55q133 -55 241 -164q106 -106 161.5 -239.5t55.5 -285.5q0 -154 -55 -282q-59 -135 -162 -240q-109 -109 -241 -164t-283 -55t-283 55q-133 55 -241 164q-102 104 -162 240q-55 128 -55 282zM436 741.5 q0 -120.5 43 -225t129 -190.5t190.5 -129t225.5 -43t225.5 43t190.5 129t129 190.5t43 225t-43 225t-129 190.5q-90 90 -191 131q-104 43 -225 43t-225 -43q-100 -41 -191 -131q-86 -86 -129 -190.5t-43 -225zM649 352v82h86v643h-86v82h453q121 0 188 -55q70 -57 70 -150 q0 -89 -49 -141q-47 -49 -146 -59q43 -14 70 -37q31 -28 49 -68l100 -215h60v-82h-223l-117 254q-31 70 -62 90q-29 20 -84 21h-26v-283h86v-82h-369zM932 799h67q78 0 121 36.5t43 102.5t-43 102.5t-121 36.5h-67v-278z" />
<glyph unicode="&#xaf;" horiz-adv-x="1024" d="M319 1360l35 188h631l-37 -188h-629z" />
<glyph unicode="&#xb0;" horiz-adv-x="1024" d="M178 1200q0 141 96.5 237.5t237.5 96.5q66 0 127 -25q51 -20 109 -73q49 -53 71 -109q25 -61 25 -126.5t-24.5 -127t-69.5 -106.5q-49 -49 -110.5 -74t-129.5 -25q-141 0 -236 95q-96 96 -96 237zM340 1200q0 -72 49 -121t123 -49t123 49t49 121t-51 123q-49 49 -121 49 q-74 0 -123 -49t-49 -123z" />
<glyph unicode="&#xb1;" horiz-adv-x="1714" d="M217 0v227h1282v-227h-1282zM217 698v228h526v358h230v-358h526v-228h-526v-358h-230v358h-526z" />
<glyph unicode="&#xb2;" horiz-adv-x="894" d="M4 684l27 133l145 84q209 121 275 193q63 70 81 163q16 84 -16 132q-31 47 -104 47q-66 0 -115 -41q-52 -43 -74 -111h-94l39 195q78 23 151 30q86 10 158 11q186 0 271 -64q86 -63 63 -178q-16 -84 -82 -148q-70 -66 -242 -153l-270 -139h414l18 96h101l-50 -250h-696z " />
<glyph unicode="&#xb3;" horiz-adv-x="894" d="M16 711l37 200h97q-8 -80 28 -120q37 -39 115 -39q86 0 141 43q57 45 72 125q16 82 -25 124q-39 43 -133 43h-41l17 84h30q84 0 131 33q51 35 64 99q12 66 -21 98q-35 35 -104 35q-68 0 -113 -37t-63 -101h-96l34 183q106 20 168 28q86 10 142 11q180 0 262 -51.5 t63 -153.5q-16 -74 -76 -119q-66 -49 -165 -63q115 -14 168 -72q51 -55 32 -148q-25 -123 -139 -184t-313 -61q-72 0 -158 10q-70 8 -154 33z" />
<glyph unicode="&#xb4;" horiz-adv-x="1024" d="M465 1262l332 376h278l-446 -376h-164z" />
<glyph unicode="&#xb5;" horiz-adv-x="1497" d="M63 -426l267 1368h-152l25 121h506l-117 -596q-29 -147 -29 -215q0 -43 8 -59q25 -55 113 -56q106 0 170 80q66 80 98 250l117 596h354l-184 -942h154l-25 -121h-506l25 125q-68 -80 -133 -119q-57 -35 -136 -35q-29 0 -59 11q-28 9 -55 30l-86 -438h-355z" />
<glyph unicode="&#xb6;" horiz-adv-x="1302" d="M229 1071q37 190 189 305q154 117 368 117h555l-22 -125h-115l-303 -1565h-151l303 1565h-162l-305 -1565h-152l164 846q-217 18 -309 127q-97 111 -60 295z" />
<glyph unicode="&#xb7;" horiz-adv-x="712" d="M166 711q16 82 82 135q68 55 145.5 55t122.5 -55q47 -55 30.5 -135t-81.5 -133q-68 -55 -146 -56q-77 0 -122 56q-47 55 -31 133z" />
<glyph unicode="&#xb8;" horiz-adv-x="1024" d="M229 -375l29 156q37 -16 84 -27q35 -8 76 -8q61 0 96 23q33 23 43 69q6 31 -2 62q-6 20 -49 100h127q53 -70 69 -119q18 -53 9 -106q-14 -84 -90 -131q-72 -45 -195 -45q-49 0 -98 6q-33 4 -99 20z" />
<glyph unicode="&#xb9;" horiz-adv-x="894" d="M82 684l16 94h164l121 613l-203 -101l21 105l245 125h228l-146 -742h164l-16 -94h-594z" />
<glyph unicode="&#xba;" horiz-adv-x="1024" d="M14 504l27 135h797l-27 -135h-797zM84 1128q37 186 174 287q141 104 352 105q213 0 312 -105q100 -106 63 -287q-37 -182 -174 -286q-139 -104 -352 -104.5t-312 104.5q-100 106 -63 286zM379 893q18 -70 96 -70q76 0 123 72q51 78 80 233q31 164 12 236q-18 70 -96 70 t-123 -70q-51 -78 -80 -236q-32 -157 -12 -235z" />
<glyph unicode="&#xbb;" horiz-adv-x="1280" d="M102 131l29 148l301 321l-176 322l29 147l393 -385l-33 -168zM561 131l31 148l301 321l-176 322l26 147l396 -385l-33 -168z" />
<glyph unicode="&#xbc;" horiz-adv-x="2134" d="M1835 16h-518l16 94h125l25 121h-363l17 88l483 533h252l-103 -527h148l-19 -94h-147l-25 -121h125zM1501 325l66 334l-305 -334h239zM82 684l16 94h164l121 613l-203 -101l21 105l245 125h228l-146 -742h164l-16 -94h-594zM1602 1520h169l-1236 -1549h-170z" />
<glyph unicode="&#xbd;" horiz-adv-x="2134" d="M82 684l16 94h164l121 613l-203 -101l21 105l245 125h228l-146 -742h164l-16 -94h-594zM1602 1520h169l-1236 -1549h-170zM1114 16l27 133l145 84q209 121 275 193q63 70 81 163q16 84 -16 132q-31 47 -104 47q-66 0 -115 -41q-52 -43 -74 -111h-94l39 195q78 23 151 30 q86 10 158 11q186 0 271 -64q86 -63 63 -178q-16 -84 -82 -148q-70 -66 -242 -153l-270 -139h414l18 96h101l-50 -250h-696z" />
<glyph unicode="&#xbe;" horiz-adv-x="2134" d="M1835 16h-518l16 94h125l25 121h-363l17 88l483 533h252l-103 -527h148l-19 -94h-147l-25 -121h125zM1501 325l66 334l-305 -334h239zM16 711l37 200h97q-8 -80 28 -120q37 -39 115 -39q86 0 141 43q57 45 72 125q16 82 -25 124q-39 43 -133 43h-41l17 84h30q84 0 131 33 q51 35 64 99q12 66 -21 98q-35 35 -104 35q-68 0 -113 -37t-63 -101h-96l34 183q106 20 168 28q86 10 142 11q180 0 262 -51.5t63 -153.5q-16 -74 -76 -119q-66 -49 -165 -63q115 -14 168 -72q51 -55 32 -148q-25 -123 -139 -184t-313 -61q-72 0 -158 10q-70 8 -154 33z M1602 1520h169l-1236 -1549h-170z" />
<glyph unicode="&#xbf;" horiz-adv-x="1198" d="M25 397q39 201 192.5 317.5t400.5 135.5l39 205h140l-58 -299q-150 -43 -231 -135q-82 -90 -113 -246q-27 -143 19 -217t166 -74q106 0 182 66q72 61 106 196h121l-59 -307q-127 -33 -246 -51q-104 -16 -221 -17q-250 0 -365 111q-112 110 -73 315zM592 1329 q16 80 82 135q68 55 145 56q77 0 123 -56q45 -53 29 -135q-16 -80 -82 -133q-68 -55 -144 -55q-82 0 -124 55q-43 57 -29 133z" />
<glyph unicode="&#xc0;" horiz-adv-x="1587" d="M-162 0l25 121h121l829 1372h240l295 -1372h143l-25 -121h-698l23 121h147l-64 305h-561l-186 -305h178l-22 -121h-445zM385 547h463l-119 571zM948 1899l132 -264h-164l-246 264h278z" />
<glyph unicode="&#xc1;" horiz-adv-x="1587" d="M-162 0l25 121h121l829 1372h240l295 -1372h143l-25 -121h-698l23 121h147l-64 305h-561l-186 -305h178l-22 -121h-445zM385 547h463l-119 571zM1026 1899h279l-348 -264h-164z" />
<glyph unicode="&#xc2;" horiz-adv-x="1587" d="M-162 0l25 121h121l829 1372h240l295 -1372h143l-25 -121h-698l23 121h147l-64 305h-561l-186 -305h178l-22 -121h-445zM385 547h463l-119 571zM834 1899h307l172 -264h-166l-180 161l-246 -161h-164z" />
<glyph unicode="&#xc3;" horiz-adv-x="1587" d="M-162 0l25 121h121l829 1372h240l295 -1372h143l-25 -121h-698l23 121h147l-64 305h-561l-186 -305h178l-22 -121h-445zM385 547h463l-119 571zM590 1635l2 12q25 125 90 190q70 66 168 66q61 0 133 -39q9 -3 13 -6l65 -33q25 -12 43 -18q25 -4 35 -4q41 0 70 24 q29 23 38 70v4h111l-2 -15q-25 -123 -90.5 -188t-167.5 -65q-31 0 -66 10q-43 12 -79 35l-52 28q-33 16 -49 21q-25 6 -43 6q-39 0 -69 -27q-29 -25 -39 -67v-4h-111z" />
<glyph unicode="&#xc4;" horiz-adv-x="1587" d="M-162 0l25 121h121l829 1372h240l295 -1372h143l-25 -121h-698l23 121h147l-64 305h-561l-186 -305h178l-22 -121h-445zM385 547h463l-119 571zM614.5 1775.5q12.5 59.5 63.5 102.5q55 45 113 45q59 0 94 -45q35 -43 22 -102q-12 -61 -61 -103q-49 -43 -111 -43 q-59 0 -96 43t-24.5 102.5zM1061 1776q12 57 66 102q55 45 110 45q57 0 96 -45q37 -43 25 -102q-12 -57 -66 -103q-51 -43 -110.5 -43t-95.5 43q-37 46 -25 103z" />
<glyph unicode="&#xc5;" horiz-adv-x="1587" d="M-201 0l25 121h121l764 1263q-51 37 -70 97q-20 68 -6 135q23 119 123 201q102 84 217 84q117 0 184 -84q68 -82 45 -201q-16 -82 -55 -133q-43 -58 -111 -99l273 -1263h141l-23 -121h-700l25 121h145l-63 305h-562l-184 -305h178l-22 -121h-445zM346 547h463l-117 571z M786 1616q-8 -53 21 -92q31 -39 86 -39t100 39q47 41 56 92q8 53 -21 92q-31 39 -86 39q-53 0 -98 -39q-50 -43 -58 -92z" />
<glyph unicode="&#xc6;" horiz-adv-x="2117" d="M-209 0l25 121h112l838 1251h-203l25 121h1550l-67 -352h-140l41 215h-602l-92 -479h367l36 190h136l-101 -516h-135l39 190h-369l-116 -604h622l41 215h135l-67 -352h-1336l25 121h188l60 303h-522l-201 -303h164l-25 -121h-428zM362 545h465l160 827h-74z" />
<glyph unicode="&#xc7;" horiz-adv-x="1628" d="M86 745q68 354 330 566q261 209 639 209q132 0 270 -31q123 -27 285 -98l-72 -367h-127q-4 193 -86 281q-88 94 -254 94q-215 0 -354 -160q-137 -160 -203 -494q-30 -152 -30 -270q0 -137 40 -223q74 -160 295 -160q152 0 260.5 82t186.5 252h198q-106 -233 -278 -342 q-178 -113 -434 -113q-379 0 -557 209q-128 150 -128 377q0 88 19 188zM432 -375l29 156q37 -16 84 -27q35 -8 76 -8q61 0 96 23q33 23 43 69q6 31 -2 62q-6 20 -49 100h127q53 -70 69 -119q18 -53 9 -106q-14 -84 -90 -131q-72 -45 -195 -45q-49 0 -98 6q-33 4 -99 20z" />
<glyph unicode="&#xc8;" horiz-adv-x="1560" d="M-49 0l22 121h193l244 1251h-193l25 121h1341l-67 -352h-140l41 215h-626l-95 -479h391l37 190h138l-101 -516h-137l39 190h-391l-117 -604h645l41 215h137l-67 -352h-1360zM993 1899l132 -264h-164l-246 264h278z" />
<glyph unicode="&#xc9;" horiz-adv-x="1560" d="M-49 0l22 121h193l244 1251h-193l25 121h1341l-67 -352h-140l41 215h-626l-95 -479h391l37 190h138l-101 -516h-137l39 190h-391l-117 -604h645l41 215h137l-67 -352h-1360zM1071 1899h279l-348 -264h-164z" />
<glyph unicode="&#xca;" horiz-adv-x="1560" d="M-49 0l22 121h193l244 1251h-193l25 121h1341l-67 -352h-140l41 215h-626l-95 -479h391l37 190h138l-101 -516h-137l39 190h-391l-117 -604h645l41 215h137l-67 -352h-1360zM879 1899h307l172 -264h-166l-180 161l-246 -161h-164z" />
<glyph unicode="&#xcb;" horiz-adv-x="1560" d="M-49 0l22 121h193l244 1251h-193l25 121h1341l-67 -352h-140l41 215h-626l-95 -479h391l37 190h138l-101 -516h-137l39 190h-391l-117 -604h645l41 215h137l-67 -352h-1360zM700.5 1775.5q12.5 59.5 63.5 102.5q55 45 113 45q59 0 94 -45q35 -43 22 -102 q-12 -61 -61 -103q-49 -43 -111 -43q-59 0 -96 43t-24.5 102.5zM1147 1776q12 57 66 102q55 45 110 45q57 0 96 -45q37 -43 25 -102q-12 -57 -66 -103q-51 -43 -110.5 -43t-95.5 43q-37 46 -25 103z" />
<glyph unicode="&#xcc;" horiz-adv-x="956" d="M-49 0l22 121h193l244 1251h-193l25 121h768l-25 -121h-190l-244 -1251h190l-22 -121h-768zM657 1899l132 -264h-164l-246 264h278z" />
<glyph unicode="&#xcd;" horiz-adv-x="956" d="M-49 0l22 121h193l244 1251h-193l25 121h768l-25 -121h-190l-244 -1251h190l-22 -121h-768zM735 1899h279l-348 -264h-164z" />
<glyph unicode="&#xce;" horiz-adv-x="956" d="M-49 0l22 121h193l244 1251h-193l25 121h768l-25 -121h-190l-244 -1251h190l-22 -121h-768zM543 1899h307l172 -264h-166l-180 161l-246 -161h-164z" />
<glyph unicode="&#xcf;" horiz-adv-x="956" d="M-49 0l22 121h193l244 1251h-193l25 121h768l-25 -121h-190l-244 -1251h190l-22 -121h-768zM286.5 1775.5q12.5 59.5 63.5 102.5q55 45 113 45q59 0 94 -45q35 -43 22 -102q-12 -61 -61 -103q-49 -43 -111 -43q-59 0 -96 43t-24.5 102.5zM733 1776q12 57 66 102 q55 45 110 45q57 0 96 -45q37 -43 25 -102q-12 -57 -66 -103q-51 -43 -110.5 -43t-95.5 43q-37 46 -25 103z" />
<glyph unicode="&#xd0;" horiz-adv-x="1789" d="M-37 0l25 121h190l117 592h-213l27 137h213l102 522h-193l23 121h768q399 0 575 -193q175 -190 105 -552q-70 -360 -320 -555q-248 -193 -651 -193h-768zM563 121h139q233 0 371 149q135 147 201 478q66 326 -14 475t-314 149h-137l-102 -522h331l-26 -137h-332z" />
<glyph unicode="&#xd1;" horiz-adv-x="1871" d="M-55 0l22 121h193l243 1251h-190l23 121h466l697 -1057l180 936h-188l22 121h522l-22 -121h-193l-266 -1372h-262l-705 1079l-188 -958h190l-22 -121h-522zM754 1635l2 12q25 125 90 190q70 66 168 66q61 0 133 -39q9 -3 13 -6l65 -33q25 -12 43 -18q25 -4 35 -4 q41 0 70 24q29 23 38 70v4h111l-2 -15q-25 -123 -90.5 -188t-167.5 -65q-31 0 -66 10q-43 12 -79 35l-52 28q-33 16 -49 21q-25 6 -43 6q-39 0 -69 -27q-29 -25 -39 -67v-4h-111z" />
<glyph unicode="&#xd2;" horiz-adv-x="1783" d="M86 745q70 360 326 567.5t630 207.5q379 0 551 -205q123 -147 123 -373q0 -92 -20 -197q-72 -365 -326 -569.5t-631 -204.5t-549 205q-124 149 -124 376q0 91 20 193zM512 254q61 -162 252 -162q188 0 315 162q123 156 189 491q33 167 32 292q0 121 -30 200 q-61 162 -252 162t-316 -162q-123 -160 -188 -492q-33 -166 -32 -290q0 -120 30 -201zM1071 1899l132 -264h-164l-246 264h278z" />
<glyph unicode="&#xd3;" horiz-adv-x="1783" d="M86 745q70 360 326 567.5t630 207.5q379 0 551 -205q123 -147 123 -373q0 -92 -20 -197q-72 -365 -326 -569.5t-631 -204.5t-549 205q-124 149 -124 376q0 91 20 193zM512 254q61 -162 252 -162q188 0 315 162q123 156 189 491q33 167 32 292q0 121 -30 200 q-61 162 -252 162t-316 -162q-123 -160 -188 -492q-33 -166 -32 -290q0 -120 30 -201zM1149 1899h279l-348 -264h-164z" />
<glyph unicode="&#xd4;" horiz-adv-x="1783" d="M86 745q70 360 326 567.5t630 207.5q379 0 551 -205q123 -147 123 -373q0 -92 -20 -197q-72 -365 -326 -569.5t-631 -204.5t-549 205q-124 149 -124 376q0 91 20 193zM512 254q61 -162 252 -162q188 0 315 162q123 156 189 491q33 167 32 292q0 121 -30 200 q-61 162 -252 162t-316 -162q-123 -160 -188 -492q-33 -166 -32 -290q0 -120 30 -201zM957 1899h307l172 -264h-166l-180 161l-246 -161h-164z" />
<glyph unicode="&#xd5;" horiz-adv-x="1783" d="M86 745q70 360 326 567.5t630 207.5q379 0 551 -205q123 -147 123 -373q0 -92 -20 -197q-72 -365 -326 -569.5t-631 -204.5t-549 205q-124 149 -124 376q0 91 20 193zM512 254q61 -162 252 -162q188 0 315 162q123 156 189 491q33 167 32 292q0 121 -30 200 q-61 162 -252 162t-316 -162q-123 -160 -188 -492q-33 -166 -32 -290q0 -120 30 -201zM713 1635l2 12q25 125 90 190q70 66 168 66q61 0 133 -39q9 -3 13 -6l65 -33q25 -12 43 -18q25 -4 35 -4q41 0 70 24q29 23 38 70v4h111l-2 -15q-25 -123 -90.5 -188t-167.5 -65 q-31 0 -66 10q-43 12 -79 35l-52 28q-33 16 -49 21q-25 6 -43 6q-39 0 -69 -27q-29 -25 -39 -67v-4h-111z" />
<glyph unicode="&#xd6;" horiz-adv-x="1783" d="M86 745q70 360 326 567.5t630 207.5q379 0 551 -205q123 -147 123 -373q0 -92 -20 -197q-72 -365 -326 -569.5t-631 -204.5t-549 205q-124 149 -124 376q0 91 20 193zM512 254q61 -162 252 -162q188 0 315 162q123 156 189 491q33 167 32 292q0 121 -30 200 q-61 162 -252 162t-316 -162q-123 -160 -188 -492q-33 -166 -32 -290q0 -120 30 -201zM778.5 1775.5q12.5 59.5 63.5 102.5q55 45 113 45q59 0 94 -45q35 -43 22 -102q-12 -61 -61 -103q-49 -43 -111 -43q-59 0 -96 43t-24.5 102.5zM1225 1776q12 57 66 102q55 45 110 45 q57 0 96 -45q37 -43 25 -102q-12 -57 -66 -103q-51 -43 -110.5 -43t-95.5 43q-37 46 -25 103z" />
<glyph unicode="&#xd7;" horiz-adv-x="1714" d="M264 201l441 440l-441 440l154 156l440 -440l440 440l154 -156l-440 -440l440 -440l-154 -154l-440 440l-440 -440z" />
<glyph unicode="&#xd8;" horiz-adv-x="1783" d="M-76 12l240 201q-72 102 -90.5 235.5t12.5 296.5q70 360 326 567.5t630 207.5q162 0 285 -39q129 -41 215 -115l242 203l74 -90l-238 -199q70 -102 88 -238q18 -133 -12 -297q-72 -365 -326 -569.5t-631 -204.5q-160 0 -282 39q-121 39 -215 117l-244 -205zM483 479 l809 678q-18 119 -87.5 180.5t-186.5 61.5q-190 0 -316 -162q-123 -160 -188 -492q-6 -37 -22 -143q-9 -57 -9 -123zM492 334q20 -121 88 -182q66 -59 184 -60q194 0 319 166q127 168 195 526q14 72 16 115q4 55 -2 94z" />
<glyph unicode="&#xd9;" horiz-adv-x="1785" d="M195 1372l22 121h768l-22 -121h-193l-143 -747q-25 -127 -25 -219q0 -110 35 -170q66 -113 276 -113q209 0 315.5 112.5t162.5 389.5l145 747h-190l22 121h520l-22 -121h-193l-147 -768q-63 -340 -244 -487q-176 -145 -524 -145.5t-469 147.5q-77 95 -78 269q0 97 25 218 l149 766h-190zM1120 1899l132 -264h-164l-246 264h278z" />
<glyph unicode="&#xda;" horiz-adv-x="1785" d="M195 1372l22 121h768l-22 -121h-193l-143 -747q-25 -127 -25 -219q0 -110 35 -170q66 -113 276 -113q209 0 315.5 112.5t162.5 389.5l145 747h-190l22 121h520l-22 -121h-193l-147 -768q-63 -340 -244 -487q-176 -145 -524 -145.5t-469 147.5q-77 95 -78 269q0 97 25 218 l149 766h-190zM1198 1899h279l-348 -264h-164z" />
<glyph unicode="&#xdb;" horiz-adv-x="1785" d="M195 1372l22 121h768l-22 -121h-193l-143 -747q-25 -127 -25 -219q0 -110 35 -170q66 -113 276 -113q209 0 315.5 112.5t162.5 389.5l145 747h-190l22 121h520l-22 -121h-193l-147 -768q-63 -340 -244 -487q-176 -145 -524 -145.5t-469 147.5q-77 95 -78 269q0 97 25 218 l149 766h-190zM1006 1899h307l172 -264h-166l-180 161l-246 -161h-164z" />
<glyph unicode="&#xdc;" horiz-adv-x="1785" d="M195 1372l22 121h768l-22 -121h-193l-143 -747q-25 -127 -25 -219q0 -110 35 -170q66 -113 276 -113q209 0 315.5 112.5t162.5 389.5l145 747h-190l22 121h520l-22 -121h-193l-147 -768q-63 -340 -244 -487q-176 -145 -524 -145.5t-469 147.5q-77 95 -78 269q0 97 25 218 l149 766h-190zM827.5 1775.5q12.5 59.5 63.5 102.5q55 45 113 45q59 0 94 -45q35 -43 22 -102q-12 -61 -61 -103q-49 -43 -111 -43q-59 0 -96 43t-24.5 102.5zM1274 1776q12 57 66 102q55 45 110 45q57 0 96 -45q37 -43 25 -102q-12 -57 -66 -103q-51 -43 -110.5 -43 t-95.5 43q-37 46 -25 103z" />
<glyph unicode="&#xdd;" horiz-adv-x="1460" d="M104 1372l23 121h717l-25 -121h-166l226 -569l444 569h-147l22 121h428l-22 -121h-127l-551 -702l-109 -549h203l-25 -121h-788l22 121h201l98 497l-297 754h-127zM987 1899h279l-348 -264h-164z" />
<glyph unicode="&#xde;" horiz-adv-x="1548" d="M-49 0l22 121h193l244 1251h-193l25 121h815l-25 -121h-237l-33 -170h272q252 0 373 -119q125 -123 86 -317q-41 -201 -209 -317q-174 -121 -420 -121h-272l-41 -207h240l-23 -121h-817zM614 449h111q131 0 225 86t123 231t-33 229q-61 86 -190 86h-113z" />
<glyph unicode="&#xdf;" horiz-adv-x="1554" d="M-156 -389q12 68 23 113q82 0 127 57q47 59 72 186l231 1180q41 201 199 305q160 104 428 104q260 0 376.5 -106.5t98.5 -333.5h-23q-156 0 -244 -45t-106 -135q-8 -37 8 -74q18 -37 88 -94l76 -63q154 -129 186 -207q33 -80 13 -187q-31 -162 -172 -250 q-143 -90 -367 -90q-84 0 -164 15q-90 16 -180 45l51 258h121q-8 -106 31 -156q40 -49 135 -49q76 0 131 43q53 41 70 117q23 106 -121 223l-4 3q-4 3 -11.5 8t-13.5 11l-76 64q-86 74 -116 154q-31 78 -11 182q25 131 123 217q92 80 262 115q18 125 -20 174q-41 49 -152 49 q-104 0 -168 -60q-63 -61 -88 -194l-235 -1219q-39 -207 -166 -270q-189 -90 -412 -90z" />
<glyph unicode="&#xe0;" horiz-adv-x="1325" d="M72 449q43 221 233 415q227 227 533 228q301 0 344 -62l-176 -909l133 2l-25 -123h-442l24 135q-111 -164 -305 -164t-278 127q-56 84 -56 209q0 65 15 142zM397 199q25 -72 121 -72q92 0 152 84q57 82 94 268l78 398q-2 59 -62 59q-133 0 -264 -160q-57 -70 -108 -321 q-21 -104 -21 -175q-1 -51 10 -81zM350 1638h281l182 -376h-164z" />
<glyph unicode="&#xe1;" horiz-adv-x="1325" d="M72 449q43 221 233 415q227 227 533 228q301 0 344 -62l-176 -909l133 2l-25 -123h-442l24 135q-111 -164 -305 -164t-278 127q-56 84 -56 209q0 65 15 142zM397 199q25 -72 121 -72q92 0 152 84q57 82 94 268l78 398q-2 59 -62 59q-133 0 -264 -160q-57 -70 -108 -321 q-21 -104 -21 -175q-1 -51 10 -81zM553 1262l332 376h278l-446 -376h-164z" />
<glyph unicode="&#xe2;" horiz-adv-x="1325" d="M72 449q43 221 233 415q227 227 533 228q301 0 344 -62l-176 -909l133 2l-25 -123h-442l24 135q-111 -164 -305 -164t-278 127q-56 84 -56 209q0 65 15 142zM397 199q25 -72 121 -72q92 0 152 84q57 82 94 268l78 398q-2 59 -62 59q-133 0 -264 -160q-57 -70 -108 -321 q-21 -104 -21 -175q-1 -51 10 -81zM303 1262l332 376h241l183 -376h-164l-170 225l-256 -225h-166z" />
<glyph unicode="&#xe3;" horiz-adv-x="1325" d="M72 449q43 221 233 415q227 227 533 228q301 0 344 -62l-176 -909l133 2l-25 -123h-442l24 135q-111 -164 -305 -164t-278 127q-56 84 -56 209q0 65 15 142zM397 199q25 -72 121 -72q92 0 152 84q57 82 94 268l78 398q-2 59 -62 59q-133 0 -264 -160q-57 -70 -108 -321 q-21 -104 -21 -175q-1 -51 10 -81zM362 1309l2 16q27 145 97 221q68 76 170 76q35 0 69 -12t74 -43l62 -47l2 -2q41 -29 75 -29q41 0 72 35q31 33 43 96h111l-4 -16q-27 -141 -97 -222q-70 -76 -170 -75q-31 0 -69 14q-35 12 -72 41l-64 47h-2q-41 31 -73 31q-43 0 -74 -35 q-29 -31 -41 -96h-111z" />
<glyph unicode="&#xe4;" horiz-adv-x="1325" d="M72 449q43 221 233 415q227 227 533 228q301 0 344 -62l-176 -909l133 2l-25 -123h-442l24 135q-111 -164 -305 -164t-278 127q-56 84 -56 209q0 65 15 142zM397 199q25 -72 121 -72q92 0 152 84q57 82 94 268l78 398q-2 59 -62 59q-133 0 -264 -160q-57 -70 -108 -321 q-21 -104 -21 -175q-1 -51 10 -81zM424 1468q12 59 63.5 102.5t112.5 43.5t94 -43q35 -43 23 -103q-12 -61 -64 -104t-110 -43q-57 0 -97 45q-34 45 -22 102zM870 1468q12 59 63.5 102.5t111 43.5t96.5 -43t24 -103q-12 -61 -63 -102q-55 -45 -113 -45q-59 0 -94 45 q-37 47 -25 102z" />
<glyph unicode="&#xe5;" horiz-adv-x="1325" d="M72 449q43 221 233 415q227 227 533 228q301 0 344 -62l-176 -909l133 2l-25 -123h-442l24 135q-111 -164 -305 -164t-278 127q-56 84 -56 209q0 65 15 142zM397 199q25 -72 121 -72q92 0 152 84q57 82 94 268l78 398q-2 59 -62 59q-133 0 -264 -160q-57 -70 -108 -321 q-21 -104 -21 -175q-1 -51 10 -81zM475 1534q23 121 123 203q96 82 217 82q119 0 186 -82q66 -80 43 -203q-23 -121 -122 -203q-96 -82 -218 -82q-119 0 -186 82q-66 80 -43 203zM629 1534q-12 -53 20.5 -92t85.5 -39q55 0 101 39q46 37 55 92q10 55 -21 92q-31 39 -86 39 q-53 0 -98 -39q-49 -39 -57 -92z" />
<glyph unicode="&#xe6;" horiz-adv-x="1906" d="M55 309q0 303 240 543t543 240q215 0 299 -31q104 31 227 31q193 0 324 -74q133 -74 133 -209q0 -31 -6 -57q-66 -326 -754 -353q-8 -45 -8 -65q0 -250 207 -250q114 0 196 61t125 177h168q-76 -178 -223 -267q-141 -84 -381 -84q-233 0 -357 111q-147 -111 -397 -111 q-193 0 -278 127q-58 84 -58 211zM387 289q0 -59 10 -90q25 -72 119 -72t154 84q57 82 94 268l78 398q-2 59 -62 59q-133 0 -264 -160q-59 -72 -94 -250q-35 -180 -35 -237zM1083 518q332 0 375 244q6 37 6 69q0 147 -123 148q-96 0 -147 -84q-55 -92 -100 -313z" />
<glyph unicode="&#xe7;" horiz-adv-x="1245" d="M70 387q0 74 14 145q53 266 233 412q184 147 457 148q119 0 221 -21q117 -23 217 -63l-57 -295h-113q2 14 2 45q0 102 -40 155q-49 66 -164 66q-150 0 -232 -100q-80 -96 -129 -347q-25 -129 -24 -219q0 -76 18 -125q40 -104 178 -104q109 0 185 63q78 66 114 185h166 q-74 -181 -209 -271q-137 -90 -336 -90q-285 0 -411 148q-90 102 -90 268zM264 -375l29 156q37 -16 84 -27q35 -8 76 -8q61 0 96 23q33 23 43 69q6 31 -2 62q-6 20 -49 100h127q53 -70 69 -119q18 -53 9 -106q-14 -84 -90 -131q-72 -45 -195 -45q-49 0 -98 6q-33 4 -99 20z " />
<glyph unicode="&#xe8;" horiz-adv-x="1302" d="M68 379q0 63 16 149q53 270 231 416q180 147 445 148q190 0 323 -74q131 -74 131 -209q0 -31 -6 -57q-66 -326 -753 -353q-6 -34 -6 -104q0 -211 204 -211q117 0 199 61.5t125 176.5h166q-76 -178 -223 -267q-141 -84 -373 -84q-274 0 -395 146q-84 102 -84 262zM477 518 h23q307 0 354 244q6 37 6 69q0 147 -125 148q-94 0 -149.5 -90t-108.5 -371zM401 1638h281l182 -376h-164z" />
<glyph unicode="&#xe9;" horiz-adv-x="1302" d="M68 379q0 63 16 149q53 270 231 416q180 147 445 148q190 0 323 -74q131 -74 131 -209q0 -31 -6 -57q-66 -326 -753 -353q-6 -34 -6 -104q0 -211 204 -211q117 0 199 61.5t125 176.5h166q-76 -178 -223 -267q-141 -84 -373 -84q-274 0 -395 146q-84 102 -84 262zM477 518 h23q307 0 354 244q6 37 6 69q0 147 -125 148q-94 0 -149.5 -90t-108.5 -371zM604 1262l332 376h278l-446 -376h-164z" />
<glyph unicode="&#xea;" horiz-adv-x="1302" d="M68 379q0 63 16 149q53 270 231 416q180 147 445 148q190 0 323 -74q131 -74 131 -209q0 -31 -6 -57q-66 -326 -753 -353q-6 -34 -6 -104q0 -211 204 -211q117 0 199 61.5t125 176.5h166q-76 -178 -223 -267q-141 -84 -373 -84q-274 0 -395 146q-84 102 -84 262zM477 518 h23q307 0 354 244q6 37 6 69q0 147 -125 148q-94 0 -149.5 -90t-108.5 -371zM354 1262l332 376h241l183 -376h-164l-170 225l-256 -225h-166z" />
<glyph unicode="&#xeb;" horiz-adv-x="1302" d="M68 379q0 63 16 149q53 270 231 416q180 147 445 148q190 0 323 -74q131 -74 131 -209q0 -31 -6 -57q-66 -326 -753 -353q-6 -34 -6 -104q0 -211 204 -211q117 0 199 61.5t125 176.5h166q-76 -178 -223 -267q-141 -84 -373 -84q-274 0 -395 146q-84 102 -84 262zM477 518 h23q307 0 354 244q6 37 6 69q0 147 -125 148q-94 0 -149.5 -90t-108.5 -371zM475 1468q12 59 63.5 102.5t112.5 43.5t94 -43q35 -43 23 -103q-12 -61 -64 -104t-110 -43q-57 0 -97 45q-34 45 -22 102zM921 1468q12 59 63.5 102.5t111 43.5t96.5 -43t24 -103 q-12 -61 -63 -102q-55 -45 -113 -45q-59 0 -94 45q-37 47 -25 102z" />
<glyph unicode="&#xec;" horiz-adv-x="776" d="M496 121h151l-22 -121h-506l182 942h-151l22 121h506zM139 1638h281l182 -376h-164z" />
<glyph unicode="&#xed;" horiz-adv-x="776" d="M496 121h151l-22 -121h-506l182 942h-151l22 121h506zM342 1262l332 376h278l-446 -376h-164z" />
<glyph unicode="&#xee;" horiz-adv-x="776" d="M496 121h151l-22 -121h-506l182 942h-151l22 121h506zM92 1262l332 376h241l183 -376h-164l-170 225l-256 -225h-166z" />
<glyph unicode="&#xef;" horiz-adv-x="776" d="M496 121h151l-22 -121h-506l182 942h-151l22 121h506zM213 1468q12 59 63.5 102.5t112.5 43.5t94 -43q35 -43 23 -103q-12 -61 -64 -104t-110 -43q-57 0 -97 45q-34 45 -22 102zM659 1468q12 59 63.5 102.5t111 43.5t96.5 -43t24 -103q-12 -61 -63 -102q-55 -45 -113 -45 q-59 0 -94 45q-37 47 -25 102z" />
<glyph unicode="&#xf0;" horiz-adv-x="1363" d="M33 508q47 233 233 381q193 152 434 151q41 0 84 -6q41 -6 82 -18q-8 63 -30.5 118.5t-57.5 106.5l-348 -149l-31 100l306 131q-51 41 -117 70q-78 35 -164 53l47 110q147 -20 248 -53q111 -37 190 -92l361 154l26 -103l-290 -125q162 -152 221 -350.5t16 -429.5 q-51 -274 -242 -430q-188 -156 -473 -156q-274 0 -407 146q-135 147 -88 391zM412 178q27 -94 139.5 -94t175.5 94q61 92 109 330q20 100 26 203q6 94 0 180q-49 20 -80 29q-33 8 -67 8q-111 0 -176.5 -96.5t-110.5 -323.5q-45 -230 -16 -330z" />
<glyph unicode="&#xf1;" horiz-adv-x="1488" d="M115 0l184 942h-152l23 121h506l-31 -150q80 92 174 138q84 41 215 41q180 0 250 -107q45 -66 45 -174q0 -66 -14 -135l-109 -555h154l-25 -121h-506l134 686q14 66 14 119q0 45 -12 69q-25 51 -109 52q-109 0 -172 -78q-66 -80 -98 -250l-117 -598h-354zM489 1309l2 16 q27 145 97 221q68 76 170 76q35 0 69 -12t74 -43l62 -47l2 -2q41 -29 75 -29q41 0 72 35q31 33 43 96h111l-4 -16q-27 -141 -97 -222q-70 -76 -170 -75q-31 0 -69 14q-35 12 -72 41l-64 47h-2q-41 31 -73 31q-43 0 -74 -35q-29 -31 -41 -96h-111z" />
<glyph unicode="&#xf2;" horiz-adv-x="1363" d="M70 393q0 70 14 139q52 264 240 412q188 147 469 148q283 0 411 -148q94 -106 94 -272q0 -70 -14 -140q-52 -261 -240 -411q-186 -150 -468.5 -150t-411.5 150q-94 106 -94 272zM446 270q0 -53 11 -90q27 -96 141 -96q109 0 174.5 96t114.5 352q33 162 33 267 q0 49 -11 86q-25 94 -139 94q-111 0 -176 -96q-66 -98 -115 -351q-33 -174 -33 -262zM434 1638h281l182 -376h-164z" />
<glyph unicode="&#xf3;" horiz-adv-x="1363" d="M70 393q0 70 14 139q52 264 240 412q188 147 469 148q283 0 411 -148q94 -106 94 -272q0 -70 -14 -140q-52 -261 -240 -411q-186 -150 -468.5 -150t-411.5 150q-94 106 -94 272zM446 270q0 -53 11 -90q27 -96 141 -96q109 0 174.5 96t114.5 352q33 162 33 267 q0 49 -11 86q-25 94 -139 94q-111 0 -176 -96q-66 -98 -115 -351q-33 -174 -33 -262zM637 1262l332 376h278l-446 -376h-164z" />
<glyph unicode="&#xf4;" horiz-adv-x="1363" d="M70 393q0 70 14 139q52 264 240 412q188 147 469 148q283 0 411 -148q94 -106 94 -272q0 -70 -14 -140q-52 -261 -240 -411q-186 -150 -468.5 -150t-411.5 150q-94 106 -94 272zM446 270q0 -53 11 -90q27 -96 141 -96q109 0 174.5 96t114.5 352q33 162 33 267 q0 49 -11 86q-25 94 -139 94q-111 0 -176 -96q-66 -98 -115 -351q-33 -174 -33 -262zM387 1262l332 376h241l183 -376h-164l-170 225l-256 -225h-166z" />
<glyph unicode="&#xf5;" horiz-adv-x="1363" d="M70 393q0 70 14 139q52 264 240 412q188 147 469 148q283 0 411 -148q94 -106 94 -272q0 -70 -14 -140q-52 -261 -240 -411q-186 -150 -468.5 -150t-411.5 150q-94 106 -94 272zM446 270q0 -53 11 -90q27 -96 141 -96q109 0 174.5 96t114.5 352q33 162 33 267 q0 49 -11 86q-25 94 -139 94q-111 0 -176 -96q-66 -98 -115 -351q-33 -174 -33 -262zM446 1309l2 16q27 145 97 221q68 76 170 76q35 0 69 -12t74 -43l62 -47l2 -2q41 -29 75 -29q41 0 72 35q31 33 43 96h111l-4 -16q-27 -141 -97 -222q-70 -76 -170 -75q-31 0 -69 14 q-35 12 -72 41l-64 47h-2q-41 31 -73 31q-43 0 -74 -35q-29 -31 -41 -96h-111z" />
<glyph unicode="&#xf6;" horiz-adv-x="1363" d="M70 393q0 70 14 139q52 264 240 412q188 147 469 148q283 0 411 -148q94 -106 94 -272q0 -70 -14 -140q-52 -261 -240 -411q-186 -150 -468.5 -150t-411.5 150q-94 106 -94 272zM446 270q0 -53 11 -90q27 -96 141 -96q109 0 174.5 96t114.5 352q33 162 33 267 q0 49 -11 86q-25 94 -139 94q-111 0 -176 -96q-66 -98 -115 -351q-33 -174 -33 -262zM508 1468q12 59 63.5 102.5t112.5 43.5t94 -43q35 -43 23 -103q-12 -61 -64 -104t-110 -43q-57 0 -97 45q-34 45 -22 102zM954 1468q12 59 63.5 102.5t111 43.5t96.5 -43t24 -103 q-12 -61 -63 -102q-55 -45 -113 -45q-59 0 -94 45q-37 47 -25 102z" />
<glyph unicode="&#xf7;" horiz-adv-x="1714" d="M217 528v228h1282v-228h-1282zM709 272q0 61 45 107q43 43 104 43q63 0 106.5 -43t43.5 -107q0 -61 -43 -104q-45 -45 -107 -45q-59 0 -104 45t-45 104zM709 1012q0 59 45 104t104 45q61 0 107 -45q43 -43 43 -104q0 -63 -43 -106.5t-107 -43.5q-61 0 -104 43 q-45 46 -45 107z" />
<glyph unicode="&#xf8;" horiz-adv-x="1363" d="M-55 -16l196 163q-49 70 -65 172q-14 90 8 213q52 264 240 412q188 147 469 148q117 0 207 -25t151 -74l201 168l69 -86l-194 -162q49 -66 65 -168q14 -90 -8 -213q-49 -261 -240 -411q-188 -150 -469 -150q-109 0 -198 25t-160 74l-205 -172zM449 262q-2 -88 34 -133 q39 -45 115 -45q109 0 172 94q66 96 111 330l26 141zM459 416l463 385q0 92 -37 135t-115 43q-109 0 -174 -96q-63 -94 -111 -330z" />
<glyph unicode="&#xf9;" horiz-adv-x="1488" d="M129 942l25 121h505l-120 -621q-25 -127 -25 -192q0 -41 8 -60q23 -53 111 -53q109 0 172 78q65 80 98 252l117 596h354l-182 -942h149l-22 -121h-506l29 150q-82 -94 -172 -138q-84 -41 -215 -41q-180 0 -250 105q-45 66 -45 176q0 66 14 135l109 555h-154zM457 1638 h281l182 -376h-164z" />
<glyph unicode="&#xfa;" horiz-adv-x="1488" d="M129 942l25 121h505l-120 -621q-25 -127 -25 -192q0 -41 8 -60q23 -53 111 -53q109 0 172 78q65 80 98 252l117 596h354l-182 -942h149l-22 -121h-506l29 150q-82 -94 -172 -138q-84 -41 -215 -41q-180 0 -250 105q-45 66 -45 176q0 66 14 135l109 555h-154zM660 1262 l332 376h278l-446 -376h-164z" />
<glyph unicode="&#xfb;" horiz-adv-x="1488" d="M129 942l25 121h505l-120 -621q-25 -127 -25 -192q0 -41 8 -60q23 -53 111 -53q109 0 172 78q65 80 98 252l117 596h354l-182 -942h149l-22 -121h-506l29 150q-82 -94 -172 -138q-84 -41 -215 -41q-180 0 -250 105q-45 66 -45 176q0 66 14 135l109 555h-154zM410 1262 l332 376h241l183 -376h-164l-170 225l-256 -225h-166z" />
<glyph unicode="&#xfc;" horiz-adv-x="1488" d="M129 942l25 121h505l-120 -621q-25 -127 -25 -192q0 -41 8 -60q23 -53 111 -53q109 0 172 78q65 80 98 252l117 596h354l-182 -942h149l-22 -121h-506l29 150q-82 -94 -172 -138q-84 -41 -215 -41q-180 0 -250 105q-45 66 -45 176q0 66 14 135l109 555h-154zM531 1468 q12 59 63.5 102.5t112.5 43.5t94 -43q35 -43 23 -103q-12 -61 -64 -104t-110 -43q-57 0 -97 45q-34 45 -22 102zM977 1468q12 59 63.5 102.5t111 43.5t96.5 -43t24 -103q-12 -61 -63 -102q-55 -45 -113 -45q-59 0 -94 45q-37 47 -25 102z" />
<glyph unicode="&#xfd;" horiz-adv-x="1189" d="M-39 -412l43 222h113q-4 -33 -4 -46q0 -68 47 -90q25 -10 63 -16q16 -2 49 -2q109 0 224 72l-283 1214h-117l25 121h434l238 -1028q117 172 192 354q76 186 154 551h-144l25 123h287q-23 -115 -62 -293q-88 -403 -201 -594q-291 -489 -528 -579q-129 -51 -323 -52 q-95 0 -232 43zM549 1262l332 376h278l-446 -376h-164z" />
<glyph unicode="&#xfe;" horiz-adv-x="1431" d="M6 -426l363 1862h-154l25 120h505l-120 -628q61 84 143 123q86 41 197 41q227 0 327 -150q68 -98 68 -248q0 -70 -17 -162q-53 -262 -210.5 -411.5t-384.5 -149.5q-111 0 -181 41q-72 43 -98 123l-109 -561h-354zM516 309q0 -61 14 -98q31 -84 139.5 -84t170 88 t106.5 317q27 135 27 230q0 49 -10 86q-27 88 -138 88q-104 0 -167.5 -82t-100.5 -270l-20 -105q-21 -113 -21 -170z" />
<glyph unicode="&#xff;" horiz-adv-x="1189" d="M-39 -412l43 222h113q-4 -33 -4 -46q0 -68 47 -90q25 -10 63 -16q16 -2 49 -2q109 0 224 72l-283 1214h-117l25 121h434l238 -1028q117 172 192 354q76 186 154 551h-144l25 123h287q-23 -115 -62 -293q-88 -403 -201 -594q-291 -489 -528 -579q-129 -51 -323 -52 q-95 0 -232 43zM420 1468q12 59 63.5 102.5t112.5 43.5t94 -43q35 -43 23 -103q-12 -61 -64 -104t-110 -43q-57 0 -97 45q-34 45 -22 102zM866 1468q12 59 63.5 102.5t111 43.5t96.5 -43t24 -103q-12 -61 -63 -102q-55 -45 -113 -45q-59 0 -94 45q-37 47 -25 102z" />
<glyph unicode="&#x131;" horiz-adv-x="776" d="M496 121h151l-22 -121h-506l182 942h-151l22 121h506z" />
<glyph unicode="&#x152;" horiz-adv-x="2416" d="M86 747.5q43 219.5 159.5 385t291.5 251.5q113 59 249 84q138 25 351 25h1302l-67 -352h-138l41 215h-606l-92 -479h367l36 190h138l-101 -516h-137l39 190h-369l-116 -604h622l41 215h137l-67 -352h-1321q-199 0 -338 27q-133 25 -219 82q-139 86 -193 251 q-53 168 -10 387.5zM505.5 747.5q-61.5 -313.5 41.5 -471.5q100 -156 368 -155h127l244 1251h-127q-260 0 -428 -158q-164 -153 -225.5 -466.5z" />
<glyph unicode="&#x153;" horiz-adv-x="2103" d="M70 393q0 70 14 139q52 264 240 412q188 147 450 148q261 0 393 -111q166 111 377 111q209 0 332 -68q170 -98 137 -272q-66 -326 -756 -353q-6 -34 -6 -104q0 -211 207 -211q115 0 199 61q82 61 125 177h166q-76 -178 -224 -267q-141 -84 -378 -84q-236 0 -357 111 q-172 -111 -434 -111t-391 150q-94 106 -94 272zM446 291q0 -74 11 -111q27 -96 141 -96q109 0 174 96q68 100 107 307q41 203 41 287q0 74 -11 111q-25 94 -139 94q-111 0 -176 -96q-68 -98 -107 -305q-41 -215 -41 -287zM1280 518q328 -10 377 244q16 74 0 133 q-20 84 -119 84q-92 0 -147 -86q-56 -95 -111 -375z" />
<glyph unicode="&#x178;" horiz-adv-x="1460" d="M104 1372l23 121h717l-25 -121h-166l226 -569l444 569h-147l22 121h428l-22 -121h-127l-551 -702l-109 -549h203l-25 -121h-788l22 121h201l98 497l-297 754h-127zM616.5 1775.5q12.5 59.5 63.5 102.5q55 45 113 45q59 0 94 -45q35 -43 22 -102q-12 -61 -61 -103 q-49 -43 -111 -43q-59 0 -96 43t-24.5 102.5zM1063 1776q12 57 66 102q55 45 110 45q57 0 96 -45q37 -43 25 -102q-12 -57 -66 -103q-51 -43 -110.5 -43t-95.5 43q-37 46 -25 103z" />
<glyph unicode="&#x2c6;" horiz-adv-x="1024" d="M215 1262l332 376h241l183 -376h-164l-170 225l-256 -225h-166z" />
<glyph unicode="&#x2da;" horiz-adv-x="1024" d="M387 1534q23 121 123 203q96 82 217 82q119 0 186 -82q66 -80 43 -203q-23 -121 -122 -203q-96 -82 -218 -82q-119 0 -186 82q-66 80 -43 203zM541 1534q-12 -53 20.5 -92t85.5 -39q55 0 101 39q46 37 55 92q10 55 -21 92q-31 39 -86 39q-53 0 -98 -39q-49 -39 -57 -92z " />
<glyph unicode="&#x2dc;" horiz-adv-x="1024" d="M274 1309l2 16q27 145 97 221q68 76 170 76q35 0 69 -12t74 -43l62 -47l2 -2q41 -29 75 -29q41 0 72 35q31 33 43 96h111l-4 -16q-27 -141 -97 -222q-70 -76 -170 -75q-31 0 -69 14q-35 12 -72 41l-64 47h-2q-41 31 -73 31q-43 0 -74 -35q-29 -31 -41 -96h-111z" />
<glyph unicode="&#x2000;" horiz-adv-x="960" />
<glyph unicode="&#x2001;" horiz-adv-x="1921" />
<glyph unicode="&#x2002;" horiz-adv-x="960" />
<glyph unicode="&#x2003;" horiz-adv-x="1921" />
<glyph unicode="&#x2004;" horiz-adv-x="638" />
<glyph unicode="&#x2005;" horiz-adv-x="479" />
<glyph unicode="&#x2006;" horiz-adv-x="319" />
<glyph unicode="&#x2007;" horiz-adv-x="319" />
<glyph unicode="&#x2008;" horiz-adv-x="239" />
<glyph unicode="&#x2009;" horiz-adv-x="382" />
<glyph unicode="&#x200a;" horiz-adv-x="104" />
<glyph unicode="&#x2010;" horiz-adv-x="849" d="M86 414l51 270h629l-53 -270h-627z" />
<glyph unicode="&#x2011;" horiz-adv-x="849" d="M86 414l51 270h629l-53 -270h-627z" />
<glyph unicode="&#x2012;" horiz-adv-x="849" d="M86 414l51 270h629l-53 -270h-627z" />
<glyph unicode="&#x2013;" horiz-adv-x="1024" d="M86 424l47 240h805l-47 -240h-805z" />
<glyph unicode="&#x2014;" horiz-adv-x="2048" d="M86 424l47 240h1829l-47 -240h-1829z" />
<glyph unicode="&#x2018;" horiz-adv-x="712" d="M84 934q49 207 159.5 348t303.5 238l78 -136q-113 -68 -172 -161q-59 -92 -88 -234l-13 -55h-268z" />
<glyph unicode="&#x2019;" horiz-adv-x="712" d="M68 1042q113 72 170 160q63 98 90 236l10 55h270q-49 -207 -159 -348q-106 -135 -304 -238z" />
<glyph unicode="&#x201a;" horiz-adv-x="712" d="M31 -131q111 70 170 162q63 98 90 233l10 55h270q-49 -207 -159.5 -348t-302.5 -237z" />
<glyph unicode="&#x201c;" horiz-adv-x="1177" d="M84 934q49 207 159.5 348t303.5 238l78 -136q-113 -68 -172 -161q-59 -92 -88 -234l-13 -55h-268zM547 934q49 207 160 348q104 135 305 238l78 -136q-113 -68 -172 -161q-63 -98 -91 -234l-10 -55h-270z" />
<glyph unicode="&#x201d;" horiz-adv-x="1177" d="M68 1042q113 72 170 160q63 98 90 236l10 55h270q-49 -207 -159 -348q-106 -135 -304 -238zM532 1042q113 72 170 160q59 94 89 236l12 55h270q-49 -207 -160 -348q-106 -135 -303 -238z" />
<glyph unicode="&#x201e;" horiz-adv-x="1177" d="M31 -131q111 70 170 162q63 98 90 233l10 55h270q-49 -207 -159.5 -348t-302.5 -237zM494 -131q109 68 172 162q61 90 90 233l10 55h270q-49 -207 -159.5 -348t-303.5 -237z" />
<glyph unicode="&#x2022;" horiz-adv-x="1308" d="M295 762q0 78 27 139q31 70 77 115q49 49 117 78q61 27 139 26q76 0 138 -26q68 -29 116.5 -78t77.5 -117q27 -61 27 -137q0 -78 -27 -139q-29 -68 -78 -117t-116 -78q-61 -27 -139.5 -27t-139.5 27q-63 27 -115 78q-51 53 -77 117q-27 61 -27 139z" />
<glyph unicode="&#x2026;" horiz-adv-x="2048" d="M166 162q16 82 82 135q68 55 145.5 55t122.5 -55q47 -55 30.5 -135t-81.5 -135q-68 -55 -146 -56q-77 0 -122.5 55.5t-30.5 135.5zM834 162q16 82 81 135q68 55 146 55q77 0 123 -55q47 -55 30.5 -135t-81.5 -135q-68 -55 -146 -56q-77 0 -122.5 55.5t-30.5 135.5z M1501 162q16 82 82 135q68 55 146 55q77 0 122 -55q47 -55 31 -135t-82 -135q-68 -55 -145.5 -55.5t-122.5 55.5q-46 55 -31 135z" />
<glyph unicode="&#x202f;" horiz-adv-x="382" />
<glyph unicode="&#x2039;" horiz-adv-x="817" d="M141 516l33 168l545 385l-29 -147l-303 -322l178 -321l-28 -148z" />
<glyph unicode="&#x203a;" horiz-adv-x="817" d="M102 131l29 148l301 321l-176 322l29 147l393 -385l-33 -168z" />
<glyph unicode="&#x2044;" horiz-adv-x="339" d="M705 1520h169l-1236 -1549h-170z" />
<glyph unicode="&#x205f;" horiz-adv-x="479" />
<glyph unicode="&#x2074;" horiz-adv-x="894" d="M725 684h-518l16 94h125l25 121h-363l17 88l483 533h252l-103 -527h148l-19 -94h-147l-25 -121h125zM391 993l66 334l-305 -334h239z" />
<glyph unicode="&#x20ac;" d="M-49 530l76 119h120q0 2 1.5 5t2.5 8.5t1 9.5q2 12 10 73q0 2 6 30t12 50q4 12 4 17h-174l76 119h137q104 266 301 413q195 145 451 146q111 0 217 -31q108 -31 233 -98l-71 -367h-117q-2 197 -57 287q-55 92 -170 92q-129 0 -226 -109q-98 -111 -161 -333h471l-78 -119 h-422l-19 -68q-8 -35 -10 -45l-1 -4q-1 -4 -2 -11t-1 -16q-3 -28 -6 -49h338l-78 -119h-274q-23 -225 28 -331q53 -111 187 -111q113 0 200 86q92 88 150 252h162q-78 -219 -234 -340q-147 -115 -362 -115q-256 0 -393 146q-139 150 -140 413h-188z" />
<glyph unicode="&#x2122;" horiz-adv-x="2048" d="M238 1313v180h565v-180h-76v98h-131v-416h86v-80h-324v80h86v416h-131v-98h-75zM877 915v80h84v416h-84v82h266l166 -293l166 293h245v-82h-86v-416h86v-80h-323v80h86v359l-162 -285h-113l-161 285v-359h86v-80h-256z" />
<glyph unicode="&#xe000;" horiz-adv-x="1065" d="M0 1065h1065v-1065h-1065v1065z" />
<glyph unicode="&#xfb01;" horiz-adv-x="1488" d="M-121 -389q12 68 23 113q82 0 127 57q47 59 71 186l191 975h-158l23 121h157l17 76q41 209 200 311q166 106 439 106q98 0 202 -12q106 -12 220 -37l-48 -239h-112q0 2 1 8t1 8q0 74 -47 115q-51 45 -158 45q-145 0 -229 -72t-115 -223l-16 -86h714l-182 -942h152 l-23 -121h-506l183 942h-361l-188 -971q-39 -207 -166 -270q-189 -90 -412 -90z" />
<glyph unicode="&#xfb02;" horiz-adv-x="1488" d="M-121 -389q12 68 23 113q82 0 127 57q47 59 71 186l191 975h-158l23 121h157l17 76q41 213 207 315q168 102 471 102h467l-279 -1435h152l-23 -121h-506l281 1444h-88q-143 0 -219 -70q-78 -72 -109 -225l-16 -86h241l-22 -121h-242l-188 -971q-39 -207 -166 -270 q-189 -90 -412 -90z" />
<glyph unicode="&#xfb03;" horiz-adv-x="2269" d="M-121 -389q223 0 412 90q127 63 166 270l188 971h459l-189 -975q-25 -127 -71 -186q-45 -57 -127 -57q-23 -100 -25 -113q225 0 414 90q125 61 164 270l188 971h361l-183 -942h506l25 121h-154l185 942h-715l16 86q27 150 113 223q84 72 231 72q104 0 156 -45 q47 -41 47 -115v-16h111l47 239q-113 25 -219 37q-104 12 -201 12q-274 0 -441 -106q-160 -102 -200 -311l-15 -76h-460l26 137q23 123 74 186q45 57 127 58q68 0 98 -37q25 -31 25 -88q0 -18 -2 -29h112l46 228q-82 20 -154 28q-88 10 -166 10q-215 0 -348 -92t-166 -268 l-27 -133h-157l-23 -121h158l-191 -975q-25 -127 -71 -186q-45 -57 -127 -57q-11 -45 -23 -113z" />
<glyph unicode="&#xfb04;" horiz-adv-x="2344" d="M-121 -389q12 68 23 113q82 0 127 57q47 59 71 186l191 975h-158l23 121h157l27 133q33 176 166 268t348 92q78 0 166 -10q72 -8 154 -28l-46 -228h-112q2 10 2 29q0 57 -25 88q-31 37 -98 37q-82 0 -127 -58q-51 -63 -74 -186l-26 -137h454l23 76q70 236 198 315 q168 102 474 102h467l-279 -1435h152l-23 -121h-508l281 1444h-88q-143 0 -219 -69.5t-107 -225.5l-16 -86h241l-22 -121h-244l-188 -971q-39 -209 -164 -270q-188 -90 -414 -90q2 12 25 113q82 0 127 57q47 59 71 186l191 975h-455l-188 -971q-39 -207 -166 -270 q-189 -90 -412 -90z" />
<glyph horiz-adv-x="0" d="M-700.5 1402.5q12.5 59.5 63.5 102.5q55 45 113 45q59 0 94 -45q35 -43 22 -102q-12 -61 -61 -103q-49 -43 -111 -43q-59 0 -96 43t-24.5 102.5zM-254 1403q12 57 66 102q55 45 110 45q57 0 96 -45q37 -43 25 -102q-12 -57 -66 -103q-51 -43 -110.5 -43t-95.5 43 q-37 46 -25 103z" />
<glyph horiz-adv-x="0" d="M-330 1526h279l-348 -264h-164z" />
<glyph horiz-adv-x="0" d="M-766 1262l2 12q25 125 90 190q70 66 168 66q61 0 133 -39q9 -3 13 -6l65 -33q25 -12 43 -18q25 -4 35 -4q41 0 70 24q29 23 38 70v4h111l-2 -15q-25 -123 -90.5 -188t-167.5 -65q-31 0 -66 10q-43 12 -79 35l-52 28q-33 16 -49 21q-25 6 -43 6q-39 0 -69 -27 q-29 -25 -39 -67v-4h-111z" />
<glyph horiz-adv-x="0" d="M-408 1526l132 -264h-164l-246 264h278z" />
<glyph horiz-adv-x="0" d="M-522 1526h307l172 -264h-166l-180 161l-246 -161h-164z" />
</font>
</defs>
</svg>
