<?xml version="1.0" standalone="no"?>
<!DOCTYPE svg PUBLIC "-//W3C//DTD SVG 1.1//EN" "http://www.w3.org/Graphics/SVG/1.1/DTD/svg11.dtd" >
<svg xmlns="http://www.w3.org/2000/svg">
<metadata>
This is a custom SVG webfont generated by Font Squirrel.
Copyright   : Copyright c 2003 by Bitstream Inc All Rights ReservedDejaVu changes are in public domain
Foundry     : DejaVu fonts team
Foundry URL : httpdejavusourceforgenet
</metadata>
<defs>
<font id="webfontSV2LEIkv" horiz-adv-x="1232" >
<font-face units-per-em="2048" ascent="1556" descent="-492" />
<missing-glyph horiz-adv-x="500" />
<glyph unicode=" " />
<glyph unicode="!" d="M483 0v283h267v-283h-267zM483 838v655h267v-655l-33 -357h-199z" />
<glyph unicode="&#x22;" d="M231 938v555h256v-555h-256zM743 938v555h256v-555h-256z" />
<glyph unicode="#" d="M2 373v215h260l74 293h-219v215h274l94 374h222l-95 -374h203l94 374h224l-97 -374h193v-215h-246l-74 -293h205v-215h-258l-94 -373h-221l94 373h-205l-94 -373h-221l94 373h-207zM483 588h205l74 293h-205z" />
<glyph unicode="$" d="M164 942q0 168 102 266q100 98 287 111v237h141v-237q71 -3 148 -19q90 -18 157 -38v-256q-57 37 -139 63q-78 25 -166 31v-307q199 -31 297 -134q100 -102 101 -276q0 -164 -109 -268q-109 -106 -289 -115v-301h-141v301q-76 2 -182 27q-88 20 -199 65v262 q102 -59 199 -94q98 -35 182 -35v330q-199 41 -293 135q-96 96 -96 252zM428 967q0 -57 30.5 -94t94.5 -56v283q-66 -10 -94 -41q-31 -34 -31 -92zM694 225q65 9 99 49q35 41 34 101q0 61 -34 102q-33 39 -99 51v-303z" />
<glyph unicode="%" d="M33 1112q0 133 94 227q92 92 225 92.5t226 -92.5q94 -94 94 -227q0 -131 -94.5 -225t-225.5 -94q-133 0 -225 92q-94 94 -94 227zM86 561l1042 418l41 -96l-1048 -418zM215 1112q0 -57 41 -98q39 -39 96.5 -39t96.5 39q41 41 40 98q0 55 -40.5 96t-96.5 41q-57 0 -96 -39 q-41 -41 -41 -98zM580 319q0 135 92 227.5t227 92.5q127 0 225 -94q94 -92 94.5 -225.5t-94.5 -225.5q-98 -94 -225 -94q-135 0 -227 92t-92 227zM762 319q0 -59 39 -98t96 -39q59 0 98 39q41 41 41 98q0 55 -41 96.5t-98 41.5t-96 -39.5t-39 -98.5z" />
<glyph unicode="&#x26;" d="M37 442q0 145 69 265q68 115 211 206q-49 78 -73 144q-25 68 -25 127q0 164 109 250q106 86 315 86q84 0 143 -11q76 -12 138 -32v-256q-65 37 -129 55q-66 18 -131 18q-80 0 -121 -28.5t-41 -81.5q0 -33 30 -99q31 -65 99 -165l313 -480q20 35 33 86q10 41 10 107 q0 41 -2 59q-4 37 -6 53h235v-51q0 -143 -34.5 -253.5t-106.5 -194.5l162 -246h-317l-48 72q-80 -53 -159 -76q-86 -25 -172 -25q-225 0 -363 131q-139 133 -139 340zM307 496q0 -125 78 -205q80 -84 193 -84q27 0 57 6q29 6 57 18l2 1q2 1 6 4q43 25 48 26l-308 469 q-68 -45 -100.5 -102t-32.5 -133z" />
<glyph unicode="'" d="M487 938v555h256v-555h-256z" />
<glyph unicode="(" d="M383 643q0 229 78 457q78 225 235 454h228q-133 -242 -196.5 -463t-63.5 -448t63 -448q66 -227 197 -465h-228q-156 225 -235 456q-78 228 -78 457z" />
<glyph unicode=")" d="M309 -270q131 238 197 465q63 221 63 448t-63.5 448.5t-196.5 462.5h228q158 -229 235 -454q78 -227 78 -456.5t-78 -457.5q-80 -231 -235 -456h-228z" />
<glyph unicode="*" d="M121 870l332 174l-332 173l76 141l331 -182v344h172v-344l332 182l76 -141l-330 -173l330 -174l-76 -141l-332 184v-344h-172v344l-331 -184z" />
<glyph unicode="+" d="M66 524v238h432v430h237v-430h430v-238h-430v-432h-237v432h-432z" />
<glyph unicode="," d="M362 -287l99 383v271h313v-271l-196 -383h-216z" />
<glyph unicode="-" d="M301 444v291h631v-291h-631z" />
<glyph unicode="." d="M449 0v367h333v-367h-333z" />
<glyph unicode="/" d="M113 -190l786 1683h221l-786 -1683h-221z" />
<glyph unicode="0" d="M123 745.5q0 389.5 123 582t370.5 192.5t370.5 -192.5t123 -582t-123 -582t-370.5 -192.5t-370.5 192.5t-123 582zM420 745.5q0 -270.5 47 -399.5q45 -125 149.5 -125t149.5 125q47 129 47 399.5t-47 399.5q-45 125 -149.5 125t-149.5 -125q-47 -129 -47 -399.5zM492 745 q0 51 36.5 88t88 37t88 -36.5t36.5 -88t-36.5 -88t-88 -36.5t-88 36.5t-36.5 87.5z" />
<glyph unicode="1" d="M188 0v260h330v969l-307 -76v266l309 74h285v-1233h330v-260h-947z" />
<glyph unicode="2" d="M115 0v252l159 170l347 373q76 88 108.5 153.5t32.5 130.5q0 100 -60 154q-61 55 -172 55q-80 0 -178 -31q-96 -31 -205 -92v275q94 35 209 59q96 20 197 21q238 0 373 -111t135 -301q0 -94 -29 -166q-29 -70 -102 -170q-49 -63 -291 -305l-205 -207h629v-260h-948z" />
<glyph unicode="3" d="M125 45v274q98 -47 203 -71q106 -25 229 -25q120 0 191 56q70 55 69 149q0 117 -69 178q-72 61 -199 62h-158v260h158q109 0 170 43t61 123q0 83 -61 129q-63 47 -170 47q-90 0 -180 -21q-92 -20 -199 -61v268q115 35 203 47q109 16 192 17q240 0 369 -103 q131 -104 131 -284q0 -133 -76 -218q-78 -86 -217 -110q160 -29 244 -127q84 -100 84 -262q0 -215 -139.5 -330t-403.5 -115q-113 0 -223 19q-105 18 -209 55z" />
<glyph unicode="4" d="M102 322v286l566 885h309v-918h164v-253h-164v-322h-283v322h-592zM317 575h377v590z" />
<glyph unicode="5" d="M143 35v266q82 -39 170 -61q82 -20 176 -21q158 0 236 66q82 70 82 194q0 115 -80 187q-82 72 -215 71q-70 0 -158 -20.5t-161 -57.5v834h811v-260h-572v-277q33 14 78 21q40 6 86 6q223 0 360.5 -139t137.5 -365q0 -238 -149.5 -373t-407.5 -135q-90 0 -195 17 q-90 14 -199 47z" />
<glyph unicode="6" d="M131 743q0 387 152 582q150 193 452 193q74 0 144 -15q82 -16 151 -45v-268q-82 47 -151 67q-78 23 -140 23q-162 0 -243 -106q-84 -111 -88 -320q45 63 120 98q72 33 172 33q203 0 312 -127q111 -129 110 -362q0 -250 -123 -390q-123 -137 -348 -137q-276 0 -397 183 q-123 183 -123 591zM446 477q0 -129 50 -201q49 -70 147 -69q96 0 147.5 69.5t51.5 200.5t-51.5 201t-147.5 70q-98 0 -147 -70q-50 -72 -50 -201z" />
<glyph unicode="7" d="M135 1233v260h944v-209l-506 -1284h-301l486 1233h-623z" />
<glyph unicode="8" d="M129 420q0 135 72 235q71 98 196 136q-114 40 -172 122q-59 84 -59 205q0 184 121 293t329.5 109t329.5 -108.5t121 -293.5q0 -121 -57 -203q-59 -86 -170 -124q125 -37 194 -136q70 -96 70 -235q0 -215 -127 -332q-125 -117 -360.5 -117t-360.5 117q-127 117 -127 332z M395 438q0 -102 61.5 -165.5t160 -63.5t159.5 63q61 65 62 166q0 104 -61.5 166t-160 62t-160 -62t-61.5 -166zM428 1094q0 -84 51 -140q49 -51 137.5 -51t137.5 51q51 55 51 140q0 86 -51.5 137t-137.5 51t-137 -51t-51 -137z" />
<glyph unicode="9" d="M111 983q0 249 122 387q123 137 349 137q274 0 397 -182t123 -590q0 -387 -152 -581q-150 -193 -452 -193q-74 0 -144 14q-63 12 -151 45v269q82 -47 151 -68q78 -23 140 -22q162 0 243.5 106.5t87.5 319.5q-45 -63 -120 -99q-72 -33 -173 -32q-203 0 -311 127 q-110 129 -110 362zM391 1012q0 -131 51.5 -201t147.5 -70t145 70q51 74 51 201t-51 200q-49 70 -145 70t-147.5 -69.5t-51.5 -200.5z" />
<glyph unicode=":" d="M449 0v367h333v-367h-333zM449 698v365h333v-365h-333z" />
<glyph unicode=";" d="M371 -287l78 383v271h333v-271l-196 -383h-215zM449 698v365h333v-365h-333z" />
<glyph unicode="&#x3c;" d="M88 524v236l1057 416v-250l-795 -285l795 -283v-249z" />
<glyph unicode="=" d="M88 295v237h1057v-237h-1057zM88 752v235h1057v-235h-1057z" />
<glyph unicode="&#x3e;" d="M88 109v249l795 283l-795 285v250l1057 -416v-236z" />
<glyph unicode="?" d="M233 1139v268q102 57 199 84q104 29 201 29q205 0 317 -95q115 -96 115 -258q0 -76 -35 -141q-37 -70 -127 -158l-88 -86q-70 -68 -88 -108q-18 -43 -18 -103v-20q0 -4 -1 -12.5t-1 -14.5v-123h-267v154q0 100 31 170q31 71 111 147l90 89q63 59 86 102q23 41 22 82 q0 66 -47 100.5t-137 34.5q-88 0 -176 -35q-93 -36 -187 -106zM440 0v283h267v-283h-267z" />
<glyph unicode="@" d="M6 543q0 389 186.5 620.5t495.5 231.5q219 0 344 -131q127 -133 127 -359v-770h-196v82q-39 -55 -89 -78q-51 -25 -124 -24q-162 0 -265 118q-100 115 -100 311.5t100 311.5q100 117 265 117q70 0 124 -25q53 -23 89 -71v41q0 137 -74 210.5t-213 73.5q-209 0 -340 -182 t-131 -477q0 -305 151.5 -487.5t405.5 -182.5q88 0 156 23q76 25 143 71l92 -176q-76 -53 -176 -82q-98 -29 -205 -28q-350 0 -559 233q-207 232 -207 629zM592 544.5q0 -110.5 51 -177.5q49 -63 139 -64q88 0 139.5 63.5t51.5 178t-51.5 178t-139.5 63.5q-90 0 -139 -63 q-51 -68 -51 -178.5z" />
<glyph unicode="A" d="M33 0l403 1493h361l403 -1493h-295l-92 369h-395l-90 -369h-295zM477 612h279l-140 611z" />
<glyph unicode="B" d="M125 0v1495h481q250 0 375 -94t125 -283q0 -145 -74 -225q-76 -82 -217 -94q174 -18 258 -115q86 -98 86 -274q0 -213 -131 -314q-127 -96 -422 -96h-481zM410 236h196q141 0 197 49q57 51 57 166q0 121 -59.5 174t-194.5 53h-196v-442zM410 913h196q115 0 160 39 q47 41 47 133q0 90 -49 134q-47 41 -158 41h-196v-347z" />
<glyph unicode="C" d="M152 745.5q0 376.5 159.5 575.5t460.5 199q88 0 164 -19q86 -20 145 -53v-328q-72 66 -147 103q-68 33 -148 32q-163 0 -245 -129q-82 -127 -82 -380.5t82 -380.5q83 -129 245 -129q80 0 148 32q76 37 147 103v-328q-63 -33 -147 -53q-78 -18 -162 -19q-301 0 -460.5 199 t-159.5 575.5z" />
<glyph unicode="D" d="M137 0v1493h316q369 0 528 -174q160 -175 160 -571.5t-160 -571.5q-160 -176 -528 -176h-316zM432 266h80q176 0 248 109q74 111 74 373q0 264 -74 370q-74 109 -248 109h-80v-961z" />
<glyph unicode="E" d="M168 0v1493h930v-260h-635v-322h575v-260h-575v-391h635v-260h-930z" />
<glyph unicode="F" d="M182 0v1493h930v-260h-635v-322h578v-260h-578v-651h-295z" />
<glyph unicode="G" d="M117 745q0 377 159.5 576t460.5 199q90 0 176 -25q88 -25 164 -74v-327q-61 80 -143 120.5t-176 40.5q-166 0 -250 -127t-84 -383q0 -250 80 -378q82 -131 233 -131q49 0 80 8q35 10 55 26v285h-202v248h460v-684q-86 -74 -188 -111t-219 -37q-293 0 -449 201 q-157 204 -157 573z" />
<glyph unicode="H" d="M137 0v1493h295v-569h369v569h295v-1493h-295v664h-369v-664h-295z" />
<glyph unicode="I" d="M172 0v260h297v973h-297v260h889v-260h-297v-973h297v-260h-889z" />
<glyph unicode="J" d="M109 74v342q82 -86 184 -133q100 -47 196 -47q115 0 170 59q53 55 54 184v754h-361v260h656v-1014q0 -272 -115 -391q-115 -117 -377 -117q-86 0 -199 27q-108 25 -208 76z" />
<glyph unicode="K" d="M117 0v1493h295v-590l462 590h334l-471 -588l488 -905h-328l-354 672l-131 -166v-506h-295z" />
<glyph unicode="L" d="M225 0v1493h295v-1233h631v-260h-926z" />
<glyph unicode="M" d="M86 0v1493h352l178 -655l177 655h354v-1493h-254v1196l-158 -653h-235l-160 653v-1196h-254z" />
<glyph unicode="N" d="M119 0v1493h317l416 -1085v1085h260v-1493h-315l-418 1085v-1085h-260z" />
<glyph unicode="O" d="M92 745.5q0 378.5 133 577.5q131 197 391.5 197t391.5 -197q133 -199 133 -577.5t-133 -577.5q-131 -197 -391.5 -197t-391.5 197q-133 199 -133 577.5zM399 745.5q0 -272.5 52 -389.5q53 -121 165.5 -120.5t165.5 120.5q51 117 51.5 389.5t-51.5 389.5 q-53 121 -165.5 120.5t-165.5 -120.5q-52 -117 -52 -389.5z" />
<glyph unicode="P" d="M162 0v1493h405q309 0 444.5 -110.5t135.5 -356.5t-135 -356.5t-445 -110.5h-110v-559h-295zM457 807h121q147 0 204.5 49t57.5 170t-57.5 170t-204.5 49h-121v-438z" />
<glyph unicode="Q" d="M92 745.5q0 378.5 133 577.5q131 197 391.5 197t391.5 -197q133 -199 133 -578q0 -264 -64 -440q-66 -178 -182 -254l186 -182l-202 -150l-224 258q-20 -4 -22 -4t-8.5 -1t-10.5 -1q-258 0 -389 197q-133 199 -133 577.5zM399 745.5q0 -272.5 52 -389.5 q53 -121 165.5 -120.5t165.5 120.5q51 117 51.5 389.5t-51.5 389.5q-53 121 -165.5 120.5t-165.5 -120.5q-52 -117 -52 -389.5z" />
<glyph unicode="R" d="M133 0v1493h426q287 0 414 -102q125 -100 125 -332q0 -154 -74 -246q-72 -90 -217 -108q45 -10 76 -41q35 -35 80 -127l270 -537h-324l-180 377q-8 16 -20 45q-80 168 -187 168h-94v-590h-295zM428 838h139q121 0 174 47q51 45 52 157q0 111 -52 156q-53 47 -174 47h-139 v-407z" />
<glyph unicode="S" d="M129 1085q0 203 129 320q127 115 358 115q109 0 205 -23q106 -25 205 -70v-288q-98 70 -192 102q-100 35 -195 35q-106 0 -163.5 -43t-57.5 -123q0 -63 41 -102q45 -43 174 -90l127 -48q172 -61 264 -176q86 -109 86 -274q0 -227 -133 -338t-404 -111q-117 0 -223 27 q-119 31 -215 78v305q123 -88 227 -125q113 -41 220 -41q109 0 170 49q59 47 59 139q0 66 -41 117q-45 55 -115 80l-145 55q-219 84 -301 179q-80 91 -80 251z" />
<glyph unicode="T" d="M90 1235v258h1053v-258h-379v-1235h-295v1235h-379z" />
<glyph unicode="U" d="M106 551v942h295v-1016q0 -113 57.5 -176t158 -63t157.5 63.5t57 175.5v1016h295v-942q0 -303 -120 -442q-119 -137 -390 -138q-266 0 -389 138q-121 135 -121 442z" />
<glyph unicode="V" d="M57 1493h297l262 -1247l263 1247h297l-355 -1493h-409z" />
<glyph unicode="W" d="M0 1493h258l107 -1096l129 709h245l150 -709l84 1096h260l-172 -1493h-275l-170 784l-159 -784h-273z" />
<glyph unicode="X" d="M27 0l438 758l-426 735h305l272 -475l273 475h305l-424 -735l436 -758h-305l-285 494l-284 -494h-305z" />
<glyph unicode="Y" d="M8 1493h318l290 -600l291 600h318l-461 -905v-588h-295v588z" />
<glyph unicode="Z" d="M115 0v244l671 989h-649v260h1010v-244l-692 -989h706v-260h-1046z" />
<glyph unicode="[" d="M422 -270v1826h508v-190h-242v-1446h242v-190h-508z" />
<glyph unicode="\" d="M111 1493h223l786 -1683h-223z" />
<glyph unicode="]" d="M303 -80h242v1446h-242v190h508v-1826h-508v190z" />
<glyph unicode="^" d="M57 936l437 557h245l437 -557h-242l-318 301l-317 -301h-242z" />
<glyph unicode="_" d="M0 -293h1233v-190h-1233v190z" />
<glyph unicode="`" d="M199 1638h282l283 -376h-197z" />
<glyph unicode="a" d="M94 354q0 197 127 289q129 94 393 94h203v49q0 70 -51 107q-53 37 -152 37q-111 0 -204 -27q-104 -29 -205 -84v250q104 43 196 59q102 18 213 19q272 0 383 -110.5t111 -397.5v-639h-291v125q-53 -76 -135 -115q-80 -39 -184 -39q-190 0 -297 100.5t-107 282.5zM406 340 q0 -76 45 -121t122 -45q115 0 181 88q63 84 63 244v20h-117q-164 0 -229 -43t-65 -143z" />
<glyph unicode="b" d="M150 0v1556h292v-595q57 94 125 139q72 47 162 47q199 0 307 -152q106 -150 107 -436q0 -283 -107 -434q-106 -154 -297 -154q-102 0 -176 49q-76 51 -121 146v-166h-292zM442 557q0 -162 55.5 -254t149.5 -92t150 92q53 88 53 254t-53 254q-55 92 -149.5 92t-150 -92 t-55.5 -254z" />
<glyph unicode="c" d="M168 559q0 276 147 434q147 156 406 156q94 0 174 -20.5t166 -65.5v-268q-59 51 -141 84q-76 31 -158 30q-143 0 -219 -92q-78 -94 -78 -258q0 -168 78 -258t219 -90q84 0 159.5 28.5t139.5 86.5v-269q-78 -45 -160 -65.5t-182 -20.5q-258 0 -406 156q-145 153 -145 432z " />
<glyph unicode="d" d="M90 559q0 287 107 436q109 152 307 152q90 0 162 -47q68 -45 125 -139v595h292v-1556h-292v166q-45 -94 -121 -146q-74 -49 -176 -49q-190 0 -297 154q-107 151 -107 434zM383 557q0 -166 53 -254q55 -92 149.5 -92t150 92t55.5 254t-55.5 254t-149.5 92t-150 -92 q-53 -88 -53 -254z" />
<glyph unicode="e" d="M92 555q0 274 144 432q145 160 389 160q249 0 387 -148q137 -145 137 -415v-119h-760q0 -129 80 -197q78 -66 229 -65q96 0 199 28q96 27 205 93v-269q-98 -41 -207 -63q-102 -20 -225 -21q-283 0 -430.5 149.5t-147.5 434.5zM393 684h461q-4 121 -59 176q-59 59 -170 60 q-98 0 -160 -62q-60 -59 -72 -174z" />
<glyph unicode="f" d="M174 895v225h272v78q0 203 84 280.5t312 77.5h241v-225h-229q-66 0 -90 -24q-20 -20 -25 -88v-99h344v-225h-344v-895h-293v895h-272z" />
<glyph unicode="g" d="M98 571q0 266 113 422t303 156q98 0 170 -45q78 -49 119 -127v143h293v-1036q0 -270 -121 -389t-395 -119q-78 0 -183 14q-84 12 -182 41v269q82 -45 170 -68q90 -23 176 -22q123 0 182.5 59t59.5 182v121q-41 -78 -115 -119q-70 -39 -172 -39q-193 0 -305.5 149.5 t-112.5 407.5zM391 577.5q0 -149.5 58 -241.5q55 -90 147 -90q90 0 149 90q57 88 57.5 241.5t-57.5 241.5q-59 90 -149 90q-92 0 -147 -90q-58 -92 -58 -241.5z" />
<glyph unicode="h" d="M172 0v1556h291v-604q29 88 106 144q72 51 181 51q160 0 239 -105q82 -106 82 -315v-727h-291v682q0 119 -34.5 172t-112.5 53t-125 -71q-45 -70 -45 -195v-641h-291z" />
<glyph unicode="i" d="M143 0v225h365v670h-287v225h580v-895h364v-225h-1022zM508 1323v342h293v-342h-293z" />
<glyph unicode="j" d="M143 -199h234q98 0 139 56q41 57 41 186v852h-297v225h590v-1077q0 -252 -90 -360q-88 -106 -301 -107h-316v225zM557 1323v342h293v-342h-293z" />
<glyph unicode="k" d="M174 0v1556h293v-817l352 381h355l-424 -418l448 -702h-324l-307 524l-100 -96v-428h-293z" />
<glyph unicode="l" d="M90 1331v225h590v-1089q0 -129 41 -186q41 -55 139 -56h234v-225h-316q-209 0 -301 109q-90 104 -90 358v864h-297z" />
<glyph unicode="m" d="M82 0v1120h213v-116q25 65 80 104q53 39 123 39q68 0 125 -41q55 -40 67 -98q35 72 84 104q53 35 125 35q145 0 200.5 -100.5t55.5 -415.5v-631h-240v719q0 125 -18 168q-18 41 -70 41q-49 0 -69 -43q-20 -41 -21 -166v-719h-237v719q0 125 -21 166q-20 43 -69.5 43 t-67.5 -41q-20 -47 -20 -168v-719h-240z" />
<glyph unicode="n" d="M172 0v1120h291v-168q29 88 106 144q72 51 181 51q160 0 239 -105q82 -106 82 -315v-727h-291v682q0 121 -34.5 174t-112.5 53t-125 -71q-45 -70 -45 -197v-641h-291z" />
<glyph unicode="o" d="M98 559q0 272 139.5 430t379 158t379 -158t139.5 -430t-139.5 -430t-379 -158t-379 158t-139.5 430zM391 559q0 -170 60 -258q61 -92 165.5 -92t165.5 92q59 88 59.5 258t-59.5 258q-61 92 -165.5 92t-165.5 -92q-60 -88 -60 -258z" />
<glyph unicode="p" d="M150 -426v1546h292v-168q45 94 121 146q74 49 176 49q190 0 297 -154q106 -152 107 -434q0 -287 -107 -436q-109 -152 -307 -152q-90 0 -161.5 47.5t-125.5 139.5v-584h-292zM442 561q0 -162 55.5 -254t149.5 -92t150 92q53 88 53 254t-53 254q-55 92 -149.5 92t-150 -92 t-55.5 -254z" />
<glyph unicode="q" d="M90 559q0 283 107 434q106 154 297 154q102 0 176 -49q76 -51 121 -146v168h292v-1546h-292v584q-53 -92 -125 -139.5t-162 -47.5q-199 0 -307 152q-107 149 -107 436zM383 561q0 -166 53 -254q55 -92 149.5 -92t150 92t55.5 254t-55.5 254t-149.5 92t-150 -92 q-53 -88 -53 -254z" />
<glyph unicode="r" d="M291 0v1120h293v-174q43 94 133 147.5t207 53.5q63 0 118.5 -14.5t108.5 -42.5v-279q-51 45 -113 66q-68 23 -141 22q-94 0 -162 -33q-74 -35 -108 -94q-23 -35 -33 -92q-10 -61 -10 -164v-516h-293z" />
<glyph unicode="s" d="M172 805q0 163 117 252q119 90 329 90q86 0 189 -17q100 -16 184 -45v-256q-72 47 -168 78q-82 27 -176 27q-96 0 -147 -28.5t-51 -84.5q0 -82 215 -131l10 -2l84 -20q162 -37 235.5 -123t73.5 -228q0 -174 -113 -260q-115 -86 -342 -86q-111 0 -206 17q-100 16 -216 53 v256q104 -59 197 -84q104 -29 195 -29q106 0 155 29q53 31 54 88q0 55 -37 86q-35 29 -179 64l-81 18q-164 35 -244 119q-78 82 -78 217z" />
<glyph unicode="t" d="M111 895v225h286v318h293v-318h383v-225h-383v-530q0 -74 37 -107q35 -33 121 -33h225v-225h-246q-254 0 -342 80t-88 299v516h-286z" />
<glyph unicode="u" d="M160 391v729h293v-684q0 -121 34 -174q33 -51 113 -51t123 70q45 74 45 196v643h293v-1120h-293v166q-29 -88 -106 -143q-72 -51 -179 -52q-160 0 -241.5 106.5t-81.5 313.5z" />
<glyph unicode="v" d="M80 1120h297l239 -874l240 874h297l-356 -1120h-361z" />
<glyph unicode="w" d="M0 1120h244l133 -858l121 565h237l119 -565l135 858h244l-203 -1120h-278l-136 582l-135 -582h-278z" />
<glyph unicode="x" d="M55 0l414 584l-381 536h342l186 -334l187 334h342l-377 -536l410 -584h-342l-220 377l-219 -377h-342z" />
<glyph unicode="y" d="M59 1120h308l256 -727l245 727h308l-465 -1241q-59 -158 -142 -231q-80 -72 -200 -72h-242v223h119q90 0 133 31q41 29 84 141l22 60z" />
<glyph unicode="z" d="M162 0v229l590 672h-566v219h895v-229l-589 -672h589v-219h-919z" />
<glyph unicode="{" d="M176 516v191h62q143 0 194 57q53 59 53 209v215q0 223 84 295q86 74 334 73h150v-190h-123q-106 0 -139 -43q-35 -45 -35 -184v-209q0 -164 -49.5 -231.5t-174.5 -86.5q125 -20 175 -90q49 -68 49 -231v-205q0 -141 35 -186q33 -43 139 -43h123v-191h-150q-248 0 -334 74 q-84 72 -84 295v215q0 150 -53 209q-51 57 -194 57h-62z" />
<glyph unicode="|" d="M502 -483v2048h227v-2048h-227z" />
<glyph unicode="}" d="M180 -143h121q102 0 139 43t37 186v205q0 164 49 231q49 70 174 90q-125 18 -174 86t-49 232v209q0 143 -35 184q-37 43 -141 43h-121v190h150q249 0 332 -73q84 -74 83 -295v-215q0 -154 54 -209q55 -57 196 -57h62v-191h-62q-141 0 -196 -57q-53 -55 -54 -209v-215 q0 -221 -83 -295t-332 -74h-150v191z" />
<glyph unicode="~" d="M88 465v229q74 59 152 88q72 27 155 27q61 0 103 -10q55 -14 125 -43q10 -4 32 -15q117 -55 209 -55q72 0 140 31q70 33 141 94v-233q-66 -55 -146 -86q-74 -29 -151 -29q-92 0 -203 51q-6 2 -13 5t-11.5 6t-8.5 3q-72 31 -129 45q-53 12 -102 13q-74 0 -148 -29 q-71 -29 -145 -92z" />
<glyph unicode="&#xa0;" />
<glyph unicode="&#xa1;" d="M483 0v655l33 357h199l35 -357v-655h-267zM483 1210v283h267v-283h-267z" />
<glyph unicode="&#xa2;" d="M147 561q0 255 136 412q135 156 372 172v287h142v-287q70 -6 121 -20.5t118 -47.5v-268q-49 39 -116 65q-70 27 -123 33v-692q72 6 123 29q66 27 116 67v-268q-49 -27 -112 -45q-53 -16 -127 -23v-288h-142v288q-238 23 -372 179q-136 157 -136 407zM418 561 q0 -158 63 -248q66 -92 174 -98v692q-115 -16 -176 -104q-61 -90 -61 -242z" />
<glyph unicode="&#xa3;" d="M119 0v260h235v334h-198v225h198v197q0 260 113 381q115 123 344 123q88 0 154 -15q76 -16 137 -43v-274q-66 45 -121 63q-61 20 -135 21q-109 0 -156 -66q-49 -68 -49 -211v-176h336v-225h-336v-334h481v-260h-1003z" />
<glyph unicode="&#xa4;" d="M186 305l170 170q-25 51 -34 84q-10 35 -11 82q0 55 11 88q12 41 36 78l-172 170l131 131l166 -172q35 20 82 35q43 12 88 12q47 0 80 -10t86 -35l172 170l127 -129l-170 -170q20 -37 33 -82q12 -43 12 -86q0 -47 -12 -88q-14 -43 -35 -76l172 -170l-131 -131l-170 172 q-33 -20 -76 -35q-41 -12 -88 -12q-35 0 -82 10q-29 6 -86 33l-170 -168zM479 643q0 -70 51 -125q49 -51 123 -51t123 51q51 55 51 125q0 72 -51 123q-49 49 -122.5 49t-123.5 -49q-51 -51 -51 -123z" />
<glyph unicode="&#xa5;" d="M8 1493h318l290 -600l291 600h318l-273 -528h224v-187h-322l-86 -151h408v-189h-412v-438h-295v438h-412v189h408l-86 151h-322v187h224z" />
<glyph unicode="&#xa6;" d="M502 -350v758h227v-758h-227zM502 674v758h227v-758h-227z" />
<glyph unicode="&#xa7;" d="M170 688q0 94 51 164q51 68 150 102q-72 51 -103 111q-33 66 -32 141q0 141 104 227.5t276 86.5q78 0 152 -15q84 -16 162 -45v-225q-76 27 -152 45q-59 14 -119 14q-74 0 -118 -28q-43 -29 -43 -82q0 -76 202 -180l29 -15q215 -111 272 -180q59 -72 60 -172 q0 -88 -47 -154q-45 -63 -150 -110q68 -47 103 -111q33 -59 32 -143q0 -147 -104 -230q-106 -84 -291 -84q-96 0 -176 15q-82 14 -170 43v229q80 -29 166 -45t154 -16q78 0 118.5 28.5t40.5 81.5q0 71 -215 185l-10 6l-27 14q-315 168 -315 342zM414 711q0 -55 49 -99 q53 -47 248 -139q57 37 80 70q25 35 24 78q0 80 -264 219l-33 16q-57 -37 -80 -70q-24 -32 -24 -75z" />
<glyph unicode="&#xa8;" d="M301 1339v246h236v-246h-236zM696 1339v246h236v-246h-236z" />
<glyph unicode="&#xa9;" d="M0 741q0 127 45 236q43 102 137 201q88 88 199 135q104 45 235.5 45t235.5 -45q111 -47 199 -135q94 -98 137 -201q45 -109 45 -236q0 -129 -45 -233q-47 -111 -137 -201q-92 -90 -199 -137q-104 -45 -236 -45q-129 0 -233 45q-111 47 -201 137t-137 201q-45 104 -45 233 zM131 741q0 -98 37 -184t106 -156q74 -74 156 -108q86 -37 186.5 -37t186.5 37q82 35 155.5 108.5t108.5 155.5t35 184q0 104 -35 187q-37 86 -109 157q-68 70 -157 109q-82 35 -184.5 35t-184.5 -35q-86 -37 -158 -109q-68 -68 -106 -157q-37 -87 -37 -187zM266 741 q0 156 101 248q104 94 270 94q61 0 108 -8q53 -10 103 -26v-168q-49 29 -98 45q-43 14 -93 14q-100 0 -151 -51q-53 -53 -53 -147.5t53 -147.5q51 -51 151 -51q55 0 101 14q47 14 90 45v-168q-47 -16 -109 -26q-47 -8 -102 -9q-169 0 -270 93q-101 91 -101 249z" />
<glyph unicode="&#xaa;" d="M256 952q0 133 92 201q90 66 281 66h157v26q0 49 -45 73.5t-137 24.5q-78 0 -153 -16q-63 -14 -136 -51v188q61 23 148 41q70 14 149 15q190 0 278.5 -86t88.5 -269v-448h-193v92q-47 -55 -110 -84q-59 -27 -139 -27q-127 0 -205 68q-76 67 -76 186zM293 428v170h688 v-170h-688zM475 971q0 -49 31 -76q33 -29 84 -29q88 0 141 52q55 53 55 131v30h-102q-106 0 -160 -26q-49 -25 -49 -82z" />
<glyph unicode="&#xab;" d="M119 535v131l469 393v-238l-277 -221l277 -221v-238zM573 535v131l469 393v-238l-276 -221l276 -221v-238z" />
<glyph unicode="&#xac;" d="M88 662v237h1057v-537h-238v300h-819z" />
<glyph unicode="&#xad;" d="M301 444v291h631v-291h-631z" />
<glyph unicode="&#xae;" d="M0 741q0 127 45 236q43 102 137 201q88 88 199 135q104 45 235.5 45t235.5 -45q111 -47 199 -135q94 -98 137 -201q45 -109 45 -236q0 -129 -45 -233q-47 -111 -137 -201q-92 -90 -199 -137q-104 -45 -236 -45q-129 0 -233 45q-111 47 -201 137t-137 201q-45 104 -45 233 zM131 741q0 -98 37 -184q37 -84 106 -158q68 -68 158 -106q86 -37 184 -37t185 37q90 39 157 106q74 78 109 158q35 82 35 184q0 104 -35 187q-37 86 -109 157q-68 70 -157 109q-82 35 -184.5 35t-184.5 -35q-86 -37 -158 -109q-68 -68 -106 -157q-37 -87 -37 -187zM360 430 v625h246q132 0 197 -43q66 -43 65 -135q0 -66 -39 -107q-40 -43 -110 -55q43 -18 65 -41q25 -25 52 -78l79 -166h-172l-63 133q-27 57 -55 82q-25 20 -70 25h-31v-240h-164zM524 780h64q59 0 86 21q29 23 28 59q0 41 -28 64q-27 20 -86 20h-64v-164z" />
<glyph unicode="&#xaf;" d="M301 1368v188h631v-188h-631z" />
<glyph unicode="&#xb0;" d="M283 1185.5q0 141.5 96 238t237 96.5q66 0 127 -25q63 -25 109 -74q49 -49 72 -106q25 -61 24 -129q0 -66 -24 -127q-23 -57 -72 -107q-57 -53 -109 -73q-61 -25 -129 -25q-141 0 -235 94q-96 96 -96 237.5zM444 1186q0 -72 49.5 -121t121 -49t120.5 49q51 51 51 121 q0 74 -49 123t-121 49q-74 0 -123 -49t-49 -123z" />
<glyph unicode="&#xb1;" d="M88 0v238h1057v-238h-1057zM88 694v236h410v354h237v-354h410v-236h-410v-354h-237v354h-410z" />
<glyph unicode="&#xb2;" d="M274 668v141l142 119q313 260 313 340q0 51 -43 81.5t-119 30.5q-55 0 -123 -18q-76 -20 -145 -51v164q82 25 145 34q59 10 138 11q170 0 262 -62q94 -63 94 -174q0 -127 -354 -405l-84 -66h440v-145h-666z" />
<glyph unicode="&#xb3;" d="M287 694v154q59 -25 143 -41q72 -14 156 -14t133 32q47 31 47 88q0 61 -49 95q-51 35 -135 34h-111v146h111q74 0 116.5 24.5t42.5 69.5t-39 70q-43 27 -110 26q-70 0 -137 -12q-80 -14 -138 -33v152q61 16 138 26q63 8 137 9q164 0 254 -58q92 -58 92 -159 q0 -72 -53 -119q-55 -49 -150 -64q111 -14 170 -71q57 -55 58 -148q0 -119 -97 -184q-94 -63 -280 -64q-68 0 -150 11q-77 10 -149 30z" />
<glyph unicode="&#xb4;" d="M469 1262l283 376h282l-368 -376h-197z" />
<glyph unicode="&#xb5;" d="M174 -428v1548h287v-680q0 -113 41 -172q39 -57 123 -57q82 0 120 57q41 59 41 172v680h289v-776q0 -72 12.5 -102.5t45.5 -30.5q14 0 26 6q23 10 29 16v-217q-49 -25 -80 -35t-72 -10q-74 0 -118 37q-43 35 -72 121q-39 -80 -92.5 -119t-124.5 -39q-61 0 -101 23 q-45 25 -67 72l2 -494h-289z" />
<glyph unicode="&#xb6;" d="M70 1071q0 186 131 305q129 117 344 117h520v-1690h-191v1543h-190v-1543h-188v846q-205 25 -315.5 135.5t-110.5 286.5z" />
<glyph unicode="&#xb7;" d="M449 530v365h333v-365h-333z" />
<glyph unicode="&#xb8;" d="M707 0q53 -55 84 -115q29 -53 28 -100q0 -95 -61 -141q-59 -45 -189 -45q-49 0 -98 6q-37 4 -104 20v156q41 -16 88 -27q39 -8 77 -8q55 0 91 23q33 20 32 63q0 29 -20 68q-20 37 -68 100h140z" />
<glyph unicode="&#xb9;" d="M313 668v145h226v543l-220 -43v149l222 41h194v-690h226v-145h-648z" />
<glyph unicode="&#xba;" d="M274 1108q0 190 98.5 301t264.5 111t264 -111t98 -301q0 -188 -98 -299t-264 -111t-264.5 111t-98.5 299zM293 428v170h688v-170h-688zM479 1108q0 -111 43 -172.5t115 -61.5t115 61.5t43 172.5q0 108 -43 172q-43 63 -115 63t-115 -63q-43 -64 -43 -172z" />
<glyph unicode="&#xbb;" d="M193 141v238l276 221l-276 221v238l469 -393v-131zM647 141v238l277 221l-277 221v238l469 -393v-131z" />
<glyph unicode="&#xbc;" d="M823 383l-250 -330h250v330zM805 565h204v-512h109v-143h-109v-180h-186v180h-393v162zM55 824v145h226v543l-220 -43v149l222 41h194v-690h226v-145h-648zM84 500l-37 118l1059 263l37 -119z" />
<glyph unicode="&#xbd;" d="M55 824v145h226v543l-220 -43v149l222 41h194v-690h226v-145h-648zM84 500l-37 118l1059 263l37 -119zM475 -270v141l142 119q313 260 313 340q0 51 -43 81.5t-119 30.5q-55 0 -123 -18q-76 -20 -145 -51v164q82 25 145 34q59 10 138 11q170 0 262 -62q94 -63 94 -174 q0 -127 -354 -405l-84 -66h440v-145h-666z" />
<glyph unicode="&#xbe;" d="M823 383l-250 -330h250v330zM805 565h204v-512h109v-143h-109v-180h-186v180h-393v162zM60 850v154q59 -25 143 -41q72 -14 156 -14t133 32q47 31 47 88q0 61 -49 95q-51 35 -135 34h-111v146h111q74 0 116.5 24.5t42.5 69.5t-39 70q-43 27 -110 26q-70 0 -137 -12 q-80 -14 -138 -33v152q61 16 138 26q63 8 137 9q164 0 254 -58q92 -58 92 -159q0 -72 -53 -119q-55 -49 -150 -64q111 -14 170 -71q57 -55 58 -148q0 -119 -97 -184q-94 -63 -280 -64q-68 0 -150 11q-77 10 -149 30zM84 500l-37 118l1059 263l37 -119z" />
<glyph unicode="&#xbf;" d="M176 326q0 76 35 141q37 70 127 158l88 86q70 72 86 106q18 43 18 105v6q0 6 1 20.5t1 20.5v123h267v-154q0 -98 -31 -170q-31 -71 -111 -147l-90 -89q-61 -57 -84 -100q-23 -41 -22 -84q0 -66 47 -100.5t137 -34.5t174 35q90 37 187 106v-268q-102 -57 -199 -84 q-104 -29 -201 -29q-203 0 -315 95q-115 96 -115 258zM532 1210v283h267v-283h-267z" />
<glyph unicode="&#xc0;" d="M33 0l403 1493h361l403 -1493h-295l-92 369h-395l-90 -369h-295zM477 612h279l-140 611zM567 1899l199 -264h-197l-286 264h284z" />
<glyph unicode="&#xc1;" d="M33 0l403 1493h361l403 -1493h-295l-92 369h-395l-90 -369h-295zM477 612h279l-140 611zM668 1899h284l-286 -264h-197z" />
<glyph unicode="&#xc2;" d="M33 0l403 1493h361l403 -1493h-295l-92 369h-395l-90 -369h-295zM477 612h279l-140 611zM461 1899h309l223 -264h-178l-199 161l-198 -161h-178z" />
<glyph unicode="&#xc3;" d="M33 0l403 1493h361l403 -1493h-295l-92 369h-395l-90 -369h-295zM477 612h279l-140 611zM618 1684l-55 35q-4 2 -10 6q-49 27 -74 26q-29 0 -51 -30q-20 -29 -20 -80v-6h-140v30q0 109 54 170q55 66 143 66q37 0 74 -12q41 -14 75 -37l60 -39q18 -12 41 -21q25 -8 35 -8 q37 0 55 31q20 35 20 86h140v-15q0 -4 -1 -9t-1 -7q0 -104 -53.5 -169.5t-141.5 -65.5q-35 0 -72 12q-43 14 -78 37z" />
<glyph unicode="&#xc4;" d="M33 0l403 1493h361l403 -1493h-295l-92 369h-395l-90 -369h-295zM477 612h279l-140 611zM696 1899h236v-246h-236v246zM301 1899h236v-246h-236v246z" />
<glyph unicode="&#xc5;" d="M33 0l385 1421q-45 39 -65.5 86t-20.5 109q0 117 84 201t200.5 84t200.5 -84t84 -201q0 -66 -20 -109q-23 -49 -66 -86l385 -1421h-295l-92 369h-395l-90 -369h-295zM477 612h279l-140 611zM485 1616q0 -53 39 -92t92.5 -39t92.5 39t39 92t-39 92t-92.5 39t-92.5 -39 t-39 -92z" />
<glyph unicode="&#xc6;" d="M0 0l358 1493h803v-260h-291v-311h260v-260h-260v-402h310v-260h-564v362h-282l-86 -362h-248zM389 598h227v635h-79z" />
<glyph unicode="&#xc7;" d="M824 0q53 -55 84 -115q29 -53 28 -100q0 -95 -61 -141q-59 -45 -189 -45q-49 0 -98 6q-37 4 -104 20v156q41 -16 88 -27q39 -8 77 -8q55 0 91 23q33 20 32 63q0 29 -20 68q-20 37 -68 100h140zM152 745.5q0 376.5 159.5 575.5t460.5 199q88 0 164 -19q86 -20 145 -53 v-328q-72 66 -147 103q-68 33 -148 32q-163 0 -245 -129q-82 -127 -82 -380.5t82 -380.5q83 -129 245 -129q80 0 148 32q76 37 147 103v-328q-63 -33 -147 -53q-78 -18 -162 -19q-301 0 -460.5 199t-159.5 575.5z" />
<glyph unicode="&#xc8;" d="M168 0v1493h930v-260h-635v-322h575v-260h-575v-391h635v-260h-930zM598 1899l199 -264h-197l-286 264h284z" />
<glyph unicode="&#xc9;" d="M168 0v1493h930v-260h-635v-322h575v-260h-575v-391h635v-260h-930zM699 1899h284l-286 -264h-197z" />
<glyph unicode="&#xca;" d="M168 0v1493h930v-260h-635v-322h575v-260h-575v-391h635v-260h-930zM492 1899h309l223 -264h-178l-199 161l-198 -161h-178z" />
<glyph unicode="&#xcb;" d="M168 0v1493h930v-260h-635v-322h575v-260h-575v-391h635v-260h-930zM727 1899h236v-246h-236v246zM332 1899h236v-246h-236v246z" />
<glyph unicode="&#xcc;" d="M172 0v260h297v973h-297v260h889v-260h-297v-973h297v-260h-889zM567 1899l199 -264h-197l-286 264h284z" />
<glyph unicode="&#xcd;" d="M172 0v260h297v973h-297v260h889v-260h-297v-973h297v-260h-889zM668 1899h284l-286 -264h-197z" />
<glyph unicode="&#xce;" d="M172 0v260h297v973h-297v260h889v-260h-297v-973h297v-260h-889zM461 1899h309l223 -264h-178l-199 161l-198 -161h-178z" />
<glyph unicode="&#xcf;" d="M172 0v260h297v973h-297v260h889v-260h-297v-973h297v-260h-889zM696 1899h236v-246h-236v246zM301 1899h236v-246h-236v246z" />
<glyph unicode="&#xd0;" d="M0 664v237h137v592h316q369 0 528 -174q160 -175 160 -571.5t-160 -571.5q-160 -176 -528 -176h-316v664h-137zM432 266h80q176 0 248 109q74 111 74 373q0 264 -74 370q-74 109 -248 109h-80v-326h211v-237h-211v-398z" />
<glyph unicode="&#xd1;" d="M119 0v1493h317l416 -1085v1085h260v-1493h-315l-418 1085v-1085h-260zM618 1684l-55 35q-4 2 -10 6q-49 27 -74 26q-29 0 -51 -30q-20 -29 -20 -80v-6h-140v30q0 109 54 170q55 66 143 66q37 0 74 -12q41 -14 75 -37l60 -39q18 -12 41 -21q25 -8 35 -8q37 0 55 31 q20 35 20 86h140v-15q0 -4 -1 -9t-1 -7q0 -104 -53.5 -169.5t-141.5 -65.5q-35 0 -72 12q-43 14 -78 37z" />
<glyph unicode="&#xd2;" d="M92 745.5q0 378.5 133 577.5q131 197 391.5 197t391.5 -197q133 -199 133 -577.5t-133 -577.5q-131 -197 -391.5 -197t-391.5 197q-133 199 -133 577.5zM399 745.5q0 -272.5 52 -389.5q53 -121 165.5 -120.5t165.5 120.5q51 117 51.5 389.5t-51.5 389.5 q-53 121 -165.5 120.5t-165.5 -120.5q-52 -117 -52 -389.5zM567 1899l199 -264h-197l-286 264h284z" />
<glyph unicode="&#xd3;" d="M92 745.5q0 378.5 133 577.5q131 197 391.5 197t391.5 -197q133 -199 133 -577.5t-133 -577.5q-131 -197 -391.5 -197t-391.5 197q-133 199 -133 577.5zM399 745.5q0 -272.5 52 -389.5q53 -121 165.5 -120.5t165.5 120.5q51 117 51.5 389.5t-51.5 389.5 q-53 121 -165.5 120.5t-165.5 -120.5q-52 -117 -52 -389.5zM668 1899h284l-286 -264h-197z" />
<glyph unicode="&#xd4;" d="M92 745.5q0 378.5 133 577.5q131 197 391.5 197t391.5 -197q133 -199 133 -577.5t-133 -577.5q-131 -197 -391.5 -197t-391.5 197q-133 199 -133 577.5zM399 745.5q0 -272.5 52 -389.5q53 -121 165.5 -120.5t165.5 120.5q51 117 51.5 389.5t-51.5 389.5 q-53 121 -165.5 120.5t-165.5 -120.5q-52 -117 -52 -389.5zM461 1899h309l223 -264h-178l-199 161l-198 -161h-178z" />
<glyph unicode="&#xd5;" d="M92 745.5q0 378.5 133 577.5q131 197 391.5 197t391.5 -197q133 -199 133 -577.5t-133 -577.5q-131 -197 -391.5 -197t-391.5 197q-133 199 -133 577.5zM399 745.5q0 -272.5 52 -389.5q53 -121 165.5 -120.5t165.5 120.5q51 117 51.5 389.5t-51.5 389.5 q-53 121 -165.5 120.5t-165.5 -120.5q-52 -117 -52 -389.5zM618 1684l-55 35q-4 2 -10 6q-49 27 -74 26q-29 0 -51 -30q-20 -29 -20 -80v-6h-140v30q0 109 54 170q55 66 143 66q37 0 74 -12q41 -14 75 -37l60 -39q18 -12 41 -21q25 -8 35 -8q37 0 55 31q20 35 20 86h140v-15 q0 -4 -1 -9t-1 -7q0 -104 -53.5 -169.5t-141.5 -65.5q-35 0 -72 12q-43 14 -78 37z" />
<glyph unicode="&#xd6;" d="M92 745.5q0 378.5 133 577.5q131 197 391.5 197t391.5 -197q133 -199 133 -577.5t-133 -577.5q-131 -197 -391.5 -197t-391.5 197q-133 199 -133 577.5zM399 745.5q0 -272.5 52 -389.5q53 -121 165.5 -120.5t165.5 120.5q51 117 51.5 389.5t-51.5 389.5 q-53 121 -165.5 120.5t-165.5 -120.5q-52 -117 -52 -389.5zM696 1899h236v-246h-236v246zM301 1899h236v-246h-236v246z" />
<glyph unicode="&#xd7;" d="M119 313l330 330l-330 328l168 168l327 -328l330 328l168 -168l-330 -328l330 -330l-168 -166l-330 328l-327 -328z" />
<glyph unicode="&#xd8;" d="M-6 51l168 238q-35 94 -53 203q-16 100 -17 253q0 379 133 578q131 197 391 197q104 0 186.5 -31t143.5 -92l113 162l162 -115l-158 -223q43 -100 59 -213q18 -119 19 -263q0 -379 -133 -577q-131 -197 -392 -197q-106 0 -190 33q-82 33 -150 100l-120 -167zM399 629 l373 524q-23 49 -65.5 75.5t-90.5 26.5q-113 0 -165 -120q-51 -117 -52 -379v-127zM451 354q25 -57 67.5 -87.5t97.5 -30.5q113 0 166 120q51 117 52 389v60q0 14 -5 84z" />
<glyph unicode="&#xd9;" d="M106 551v942h295v-1016q0 -113 57.5 -176t158 -63t157.5 63.5t57 175.5v1016h295v-942q0 -303 -120 -442q-119 -137 -390 -138q-266 0 -389 138q-121 135 -121 442zM567 1899l199 -264h-197l-286 264h284z" />
<glyph unicode="&#xda;" d="M106 551v942h295v-1016q0 -113 57.5 -176t158 -63t157.5 63.5t57 175.5v1016h295v-942q0 -303 -120 -442q-119 -137 -390 -138q-266 0 -389 138q-121 135 -121 442zM668 1899h284l-286 -264h-197z" />
<glyph unicode="&#xdb;" d="M106 551v942h295v-1016q0 -113 57.5 -176t158 -63t157.5 63.5t57 175.5v1016h295v-942q0 -303 -120 -442q-119 -137 -390 -138q-266 0 -389 138q-121 135 -121 442zM461 1899h309l223 -264h-178l-199 161l-198 -161h-178z" />
<glyph unicode="&#xdc;" d="M106 551v942h295v-1016q0 -113 57.5 -176t158 -63t157.5 63.5t57 175.5v1016h295v-942q0 -303 -120 -442q-119 -137 -390 -138q-266 0 -389 138q-121 135 -121 442zM696 1899h236v-246h-236v246zM301 1899h236v-246h-236v246z" />
<glyph unicode="&#xdd;" d="M8 1493h318l290 -600l291 600h318l-461 -905v-588h-295v588zM668 1899h284l-286 -264h-197z" />
<glyph unicode="&#xde;" d="M162 0v1493h295v-238h110q309 0 444.5 -110.5t135.5 -356.5q0 -242 -137 -348q-139 -109 -443 -108h-110v-332h-295zM457 575h121q147 0 204.5 49.5t57.5 168.5q0 123 -57.5 172t-204.5 49h-121v-439z" />
<glyph unicode="&#xdf;" d="M127 0v1126q0 209 121 320q120 111 350 110q223 0 329.5 -118.5t106.5 -364.5v-14q-127 -6 -190.5 -51t-63.5 -127q0 -65 117 -154q16 -12 18 -14l97 -74q82 -61 123 -139q39 -76 39 -170q0 -166 -111 -262q-113 -96 -307 -97q-61 0 -123 12.5t-129 36.5v250 q63 -35 114 -47q61 -16 113 -16q74 0 115 33q43 34 43 92q0 70 -115 160l-45 34l-86 68q-59 49 -88 111q-31 65 -31 141q0 125 74 211t211 117q-10 74 -57 110q-49 37 -142 37q-90 0 -141 -51q-49 -49 -49 -148v-1122h-293z" />
<glyph unicode="&#xe0;" d="M94 354q0 197 127 289q129 94 393 94h203v49q0 70 -51 107q-53 37 -152 37q-111 0 -204 -27q-104 -29 -205 -84v250q104 43 196 59q102 18 213 19q272 0 383 -110.5t111 -397.5v-639h-291v125q-53 -76 -135 -115q-80 -39 -184 -39q-190 0 -297 100.5t-107 282.5zM406 340 q0 -76 45 -121t122 -45q115 0 181 88q63 84 63 244v20h-117q-164 0 -229 -43t-65 -143zM199 1638h282l283 -376h-197z" />
<glyph unicode="&#xe1;" d="M94 354q0 197 127 289q129 94 393 94h203v49q0 70 -51 107q-53 37 -152 37q-111 0 -204 -27q-104 -29 -205 -84v250q104 43 196 59q102 18 213 19q272 0 383 -110.5t111 -397.5v-639h-291v125q-53 -76 -135 -115q-80 -39 -184 -39q-190 0 -297 100.5t-107 282.5zM406 340 q0 -76 45 -121t122 -45q115 0 181 88q63 84 63 244v20h-117q-164 0 -229 -43t-65 -143zM469 1262l283 376h282l-368 -376h-197z" />
<glyph unicode="&#xe2;" d="M94 354q0 197 127 289q129 94 393 94h203v49q0 70 -51 107q-53 37 -152 37q-111 0 -204 -27q-104 -29 -205 -84v250q104 43 196 59q102 18 213 19q272 0 383 -110.5t111 -397.5v-639h-291v125q-53 -76 -135 -115q-80 -39 -184 -39q-190 0 -297 100.5t-107 282.5zM406 340 q0 -76 45 -121t122 -45q115 0 181 88q63 84 63 244v20h-117q-164 0 -229 -43t-65 -143zM240 1262l256 376h241l256 -376h-178l-199 225l-198 -225h-178z" />
<glyph unicode="&#xe3;" d="M94 354q0 197 127 289q129 94 393 94h203v49q0 70 -51 107q-53 37 -152 37q-111 0 -204 -27q-104 -29 -205 -84v250q104 43 196 59q102 18 213 19q272 0 383 -110.5t111 -397.5v-639h-291v125q-53 -76 -135 -115q-80 -39 -184 -39q-190 0 -297 100.5t-107 282.5zM406 340 q0 -76 45 -121t122 -45q115 0 181 88q63 84 63 244v20h-117q-164 0 -229 -43t-65 -143zM268 1309q0 139 51 211q53 74 146 73q29 0 72 -14q39 -12 77 -43l62 -43q14 -10 39 -23q16 -8 35 -8q37 0 55 31q20 35 20 90v8h140q0 -139 -52 -211q-53 -74 -145 -73q-35 0 -70 12 q-31 10 -80 45l-55 37l-4 2q-4 2 -8 6q-45 29 -70 29q-37 0 -55 -31t-18 -90v-8h-140z" />
<glyph unicode="&#xe4;" d="M94 354q0 197 127 289q129 94 393 94h203v49q0 70 -51 107q-53 37 -152 37q-111 0 -204 -27q-104 -29 -205 -84v250q104 43 196 59q102 18 213 19q272 0 383 -110.5t111 -397.5v-639h-291v125q-53 -76 -135 -115q-80 -39 -184 -39q-190 0 -297 100.5t-107 282.5zM406 340 q0 -76 45 -121t122 -45q115 0 181 88q63 84 63 244v20h-117q-164 0 -229 -43t-65 -143zM301 1339v246h236v-246h-236zM696 1339v246h236v-246h-236z" />
<glyph unicode="&#xe5;" d="M94 354q0 197 127 289q129 94 393 94h203v49q0 70 -51 107q-53 37 -152 37q-111 0 -204 -27q-104 -29 -205 -84v250q104 43 196 59q102 18 213 19q272 0 383 -110.5t111 -397.5v-639h-291v125q-53 -76 -135 -115q-80 -39 -184 -39q-190 0 -297 100.5t-107 282.5zM406 340 q0 -76 45 -121t122 -45q115 0 181 88q63 84 63 244v20h-117q-164 0 -229 -43t-65 -143zM332 1534q0 117 84 201t200.5 84t200.5 -84t84 -201t-84 -201t-200.5 -84t-200.5 84t-84 201zM485 1534q0 -55 39 -92q43 -39 92 -39q53 0 92.5 39t39.5 92t-39 92t-92.5 39t-92.5 -39 t-39 -92z" />
<glyph unicode="&#xe6;" d="M14 326q0 184 101 276q102 92 305 92h76v51q0 94 -39 140q-41 47 -115 47q-59 0 -125 -27q-70 -29 -141 -82v246q78 43 143 59q71 18 135 19q98 0 160 -31q66 -33 98 -96q27 59 95 94q63 33 157 33q176 0 250 -119t74 -422v-127h-451q0 -143 49.5 -219t145.5 -76 q63 0 121 29q61 31 118 88v-244q-49 -43 -112 -65q-59 -20 -146 -21q-109 0 -178 41q-74 43 -117 123q-41 -84 -106 -125q-63 -39 -164 -39q-162 0 -248 92.5t-86 262.5zM240 330q0 -70 32 -109q31 -37 93 -37q63 0 93.5 43t30.5 131v43v82h-73q-90 0 -131 -39 q-45 -40 -45 -114zM737 690h226v23q0 126 -25 172q-25 47 -88.5 47t-87.5 -47q-25 -46 -25 -172v-23z" />
<glyph unicode="&#xe7;" d="M779 0q53 -55 84 -115q29 -53 28 -100q0 -95 -61 -141q-59 -45 -189 -45q-49 0 -98 6q-37 4 -104 20v156q41 -16 88 -27q39 -8 77 -8q55 0 91 23q33 20 32 63q0 29 -20 68q-20 37 -68 100h140zM168 559q0 276 147 434q147 156 406 156q94 0 174 -20.5t166 -65.5v-268 q-59 51 -141 84q-76 31 -158 30q-143 0 -219 -92q-78 -94 -78 -258q0 -168 78 -258t219 -90q84 0 159.5 28.5t139.5 86.5v-269q-78 -45 -160 -65.5t-182 -20.5q-258 0 -406 156q-145 153 -145 432z" />
<glyph unicode="&#xe8;" d="M92 555q0 274 144 432q145 160 389 160q249 0 387 -148q137 -145 137 -415v-119h-760q0 -129 80 -197q78 -66 229 -65q96 0 199 28q96 27 205 93v-269q-98 -41 -207 -63q-102 -20 -225 -21q-283 0 -430.5 149.5t-147.5 434.5zM393 684h461q-4 121 -59 176q-59 59 -170 60 q-98 0 -160 -62q-60 -59 -72 -174zM238 1638h282l283 -376h-197z" />
<glyph unicode="&#xe9;" d="M92 555q0 274 144 432q145 160 389 160q249 0 387 -148q137 -145 137 -415v-119h-760q0 -129 80 -197q78 -66 229 -65q96 0 199 28q96 27 205 93v-269q-98 -41 -207 -63q-102 -20 -225 -21q-283 0 -430.5 149.5t-147.5 434.5zM393 684h461q-4 121 -59 176q-59 59 -170 60 q-98 0 -160 -62q-60 -59 -72 -174zM508 1262l283 376h282l-368 -376h-197z" />
<glyph unicode="&#xea;" d="M92 555q0 274 144 432q145 160 389 160q249 0 387 -148q137 -145 137 -415v-119h-760q0 -129 80 -197q78 -66 229 -65q96 0 199 28q96 27 205 93v-269q-98 -41 -207 -63q-102 -20 -225 -21q-283 0 -430.5 149.5t-147.5 434.5zM393 684h461q-4 121 -59 176q-59 59 -170 60 q-98 0 -160 -62q-60 -59 -72 -174zM279 1262l256 376h241l256 -376h-178l-199 225l-198 -225h-178z" />
<glyph unicode="&#xeb;" d="M92 555q0 274 144 432q145 160 389 160q249 0 387 -148q137 -145 137 -415v-119h-760q0 -129 80 -197q78 -66 229 -65q96 0 199 28q96 27 205 93v-269q-98 -41 -207 -63q-102 -20 -225 -21q-283 0 -430.5 149.5t-147.5 434.5zM393 684h461q-4 121 -59 176q-59 59 -170 60 q-98 0 -160 -62q-60 -59 -72 -174zM340 1339v246h236v-246h-236zM735 1339v246h236v-246h-236z" />
<glyph unicode="&#xec;" d="M221 1120h580v-895h364v-225h-1022v225h365v670h-287v225zM199 1638h282l283 -376h-197z" />
<glyph unicode="&#xed;" d="M221 1120h580v-895h364v-225h-1022v225h365v670h-287v225zM469 1262l283 376h282l-368 -376h-197z" />
<glyph unicode="&#xee;" d="M221 1120h580v-895h364v-225h-1022v225h365v670h-287v225zM240 1262l256 376h241l256 -376h-178l-199 225l-198 -225h-178z" />
<glyph unicode="&#xef;" d="M221 1120h580v-895h364v-225h-1022v225h365v670h-287v225zM301 1339v246h236v-246h-236zM696 1339v246h236v-246h-236z" />
<glyph unicode="&#xf0;" d="M98 537q0 236 129 376q127 139 348 140q41 0 72 -6q29 -6 58 -19l-160 219l-312 -119l-55 117l283 109l-158 202h293l92 -116l297 127l66 -123l-277 -117l166 -227q100 -135 143 -264q43 -126 43 -277q0 -272 -137 -432q-135 -156 -377 -156q-237 0 -374 154 q-140 156 -140 412zM389 545q0 -156 59.5 -246t163.5 -90q106 0 166 90q57 88 58 264q0 45 -7 94q-6 45 -18 103q-41 23 -98 41q-45 14 -97 14q-106 0 -165 -72q-62 -73 -62 -198z" />
<glyph unicode="&#xf1;" d="M172 0v1120h291v-168q29 88 106 144q72 51 181 51q160 0 239 -105q82 -106 82 -315v-727h-291v682q0 121 -34.5 174t-112.5 53t-125 -71q-45 -70 -45 -197v-641h-291zM268 1309q0 139 51 211q53 74 146 73q29 0 72 -14q39 -12 77 -43l62 -43q14 -10 39 -23q16 -8 35 -8 q37 0 55 31q20 35 20 90v8h140q0 -139 -52 -211q-53 -74 -145 -73q-35 0 -70 12q-31 10 -80 45l-55 37l-4 2q-4 2 -8 6q-45 29 -70 29q-37 0 -55 -31t-18 -90v-8h-140z" />
<glyph unicode="&#xf2;" d="M195 1640h282l283 -376h-197zM98 559q0 272 139.5 430t379 158t379 -158t139.5 -430t-139.5 -430t-379 -158t-379 158t-139.5 430zM391 559q0 -170 60 -258q61 -92 165.5 -92t165.5 92q59 88 59.5 258t-59.5 258q-61 92 -165.5 92t-165.5 -92q-60 -88 -60 -258z" />
<glyph unicode="&#xf3;" d="M471 1262l283 376h282l-368 -376h-197zM98 559q0 272 139.5 430t379 158t379 -158t139.5 -430t-139.5 -430t-379 -158t-379 158t-139.5 430zM391 559q0 -170 60 -258q61 -92 165.5 -92t165.5 92q59 88 59.5 258t-59.5 258q-61 92 -165.5 92t-165.5 -92q-60 -88 -60 -258z " />
<glyph unicode="&#xf4;" d="M240 1262l256 376h241l256 -376h-178l-199 225l-198 -225h-178zM98 559q0 272 139.5 430t379 158t379 -158t139.5 -430t-139.5 -430t-379 -158t-379 158t-139.5 430zM391 559q0 -170 60 -258q61 -92 165.5 -92t165.5 92q59 88 59.5 258t-59.5 258q-61 92 -165.5 92 t-165.5 -92q-60 -88 -60 -258z" />
<glyph unicode="&#xf5;" d="M268 1276q0 139 51 211q53 74 146 73q29 0 72 -14q39 -12 77 -43l62 -43q14 -10 39 -23q16 -8 35 -8q37 0 55 31q20 35 20 90v8h140q0 -139 -52 -211q-53 -74 -145 -73q-35 0 -70 12q-31 10 -80 45l-55 37l-4 2q-4 2 -8 6q-45 29 -70 29q-37 0 -55 -31t-18 -90v-8h-140z M98 559q0 272 139.5 430t379 158t379 -158t139.5 -430t-139.5 -430t-379 -158t-379 158t-139.5 430zM391 559q0 -170 60 -258q61 -92 165.5 -92t165.5 92q59 88 59.5 258t-59.5 258q-61 92 -165.5 92t-165.5 -92q-60 -88 -60 -258z" />
<glyph unicode="&#xf6;" d="M301 1314v246h236v-246h-236zM696 1314v246h236v-246h-236zM98 559q0 272 139.5 430t379 158t379 -158t139.5 -430t-139.5 -430t-379 -158t-379 158t-139.5 430zM391 559q0 -170 60 -258q61 -92 165.5 -92t165.5 92q59 88 59.5 258t-59.5 258q-61 92 -165.5 92 t-165.5 -92q-60 -88 -60 -258z" />
<glyph unicode="&#xf7;" d="M66 524v238h1099v-238h-1099zM461 86v309h309v-309h-309zM461 889v309h309v-309h-309z" />
<glyph unicode="&#xf8;" d="M25 2l163 197q-47 74 -67 161q-23 94 -23 199q0 272 139.5 430t378.5 158q88 0 158 -21q74 -22 141 -67l148 176l139 -121l-160 -188q45 -74 70 -168q23 -84 23 -199q0 -272 -139.5 -430t-379.5 -158q-80 0 -159 23q-72 20 -142 67l-151 -178zM391 559q0 -43 2 -59l6 -51 l346 411q-23 23 -57 37q-31 12 -70 12q-106 0 -167 -92q-60 -88 -60 -258zM483 262q33 -31 64 -41q35 -12 71 -12q100 0 164 94q59 90 60 256q0 39 -2 57q-4 45 -9 60z" />
<glyph unicode="&#xf9;" d="M160 391v729h293v-684q0 -121 34 -174q33 -51 113 -51t123 70q45 74 45 196v643h293v-1120h-293v166q-29 -88 -106 -143q-72 -51 -179 -52q-160 0 -241.5 106.5t-81.5 313.5zM199 1638h282l283 -376h-197z" />
<glyph unicode="&#xfa;" d="M160 391v729h293v-684q0 -121 34 -174q33 -51 113 -51t123 70q45 74 45 196v643h293v-1120h-293v166q-29 -88 -106 -143q-72 -51 -179 -52q-160 0 -241.5 106.5t-81.5 313.5zM469 1262l283 376h282l-368 -376h-197z" />
<glyph unicode="&#xfb;" d="M160 391v729h293v-684q0 -121 34 -174q33 -51 113 -51t123 70q45 74 45 196v643h293v-1120h-293v166q-29 -88 -106 -143q-72 -51 -179 -52q-160 0 -241.5 106.5t-81.5 313.5zM240 1262l256 376h241l256 -376h-178l-199 225l-198 -225h-178z" />
<glyph unicode="&#xfc;" d="M160 391v729h293v-684q0 -121 34 -174q33 -51 113 -51t123 70q45 74 45 196v643h293v-1120h-293v166q-29 -88 -106 -143q-72 -51 -179 -52q-160 0 -241.5 106.5t-81.5 313.5zM301 1339v246h236v-246h-236zM696 1339v246h236v-246h-236z" />
<glyph unicode="&#xfd;" d="M59 1120h308l256 -727l245 727h308l-465 -1241q-59 -158 -142 -231q-80 -72 -200 -72h-242v223h119q90 0 133 31q41 29 84 141l22 60zM469 1262l283 376h282l-368 -376h-197z" />
<glyph unicode="&#xfe;" d="M150 -426v1982h292v-604q45 94 121 146q74 49 176 49q190 0 297 -154q106 -152 107 -434q0 -287 -107 -436q-109 -152 -307 -152q-90 0 -161.5 47.5t-125.5 139.5v-584h-292zM442 561q0 -162 55.5 -254t149.5 -92t150 92q53 88 53 254t-53 254q-55 92 -149.5 92t-150 -92 t-55.5 -254z" />
<glyph unicode="&#xff;" d="M59 1120h308l256 -727l245 727h308l-465 -1241q-59 -158 -142 -231q-80 -72 -200 -72h-242v223h119q90 0 133 31q41 29 84 141l22 60zM301 1339v246h236v-246h-236zM696 1339v246h236v-246h-236z" />
<glyph unicode="&#x131;" d="M221 1120h580v-895h364v-225h-1022v225h365v670h-287v225z" />
<glyph unicode="&#x152;" d="M68 745q0 434 120 592q119 156 445 156h573v-260h-332v-311h302v-260h-302v-402h343v-260h-584q-326 0 -445 156q-120 157 -120 589zM354 745q0 -315 45 -399q47 -86 170 -86h52v973h-52q-125 0 -170 -88.5t-45 -399.5z" />
<glyph unicode="&#x153;" d="M14 559q0 319 84 451q88 137 275 137q104 0 162 -29q61 -31 102 -96q27 57 92 92q63 33 158 33q176 0 249.5 -119t73.5 -422v-127h-450q0 -143 49 -219t145 -76q61 0 119 29q59 29 121 88v-244q-51 -45 -110.5 -65.5t-147.5 -20.5q-96 0 -168 37q-74 39 -119 111 q-43 -76 -110 -113q-63 -35 -166 -35q-188 0 -275 138q-84 135 -84 450zM248 559q0 -246 28 -309q31 -66 109 -66t107 68q29 70 28 307q0 240 -28 309q-27 66 -107 66q-78 0 -109 -66q-28 -63 -28 -309zM760 690h225v35q0 115 -24.5 162t-88 47t-88 -47t-24.5 -174v-23z" />
<glyph unicode="&#x178;" d="M8 1493h318l290 -600l291 600h318l-461 -905v-588h-295v588zM696 1899h236v-246h-236v246zM301 1899h236v-246h-236v246z" />
<glyph unicode="&#x2c6;" d="M240 1262l256 376h241l256 -376h-178l-199 225l-198 -225h-178z" />
<glyph unicode="&#x2da;" d="M332 1534q0 117 84 201t200.5 84t200.5 -84t84 -201t-84 -201t-200.5 -84t-200.5 84t-84 201zM485 1534q0 -55 39 -92q43 -39 92 -39q53 0 92.5 39t39.5 92t-39 92t-92.5 39t-92.5 -39t-39 -92z" />
<glyph unicode="&#x2dc;" d="M268 1309q0 139 51 211q53 74 146 73q29 0 72 -14q39 -12 77 -43l62 -43q14 -10 39 -23q16 -8 35 -8q37 0 55 31q20 35 20 90v8h140q0 -139 -52 -211q-53 -74 -145 -73q-35 0 -70 12q-31 10 -80 45l-55 37l-4 2q-4 2 -8 6q-45 29 -70 29q-37 0 -55 -31t-18 -90v-8h-140z " />
<glyph unicode="&#x300;" d="M199 1638h282l283 -376h-197z" />
<glyph unicode="&#x301;" d="M469 1262l283 376h282l-368 -376h-197z" />
<glyph unicode="&#x327;" d="M707 0q53 -55 84 -115q29 -53 28 -100q0 -95 -61 -141q-59 -45 -189 -45q-49 0 -98 6q-37 4 -104 20v156q41 -16 88 -27q39 -8 77 -8q55 0 91 23q33 20 32 63q0 29 -20 68q-20 37 -68 100h140z" />
<glyph unicode="&#x2000;" horiz-adv-x="948" />
<glyph unicode="&#x2001;" horiz-adv-x="1900" />
<glyph unicode="&#x2002;" horiz-adv-x="948" />
<glyph unicode="&#x2003;" horiz-adv-x="1900" />
<glyph unicode="&#x2004;" horiz-adv-x="632" />
<glyph unicode="&#x2005;" horiz-adv-x="473" />
<glyph unicode="&#x2006;" horiz-adv-x="315" />
<glyph unicode="&#x2007;" horiz-adv-x="315" />
<glyph unicode="&#x2008;" horiz-adv-x="235" />
<glyph unicode="&#x2009;" horiz-adv-x="378" />
<glyph unicode="&#x200a;" horiz-adv-x="104" />
<glyph unicode="&#x2010;" d="M301 444v291h631v-291h-631z" />
<glyph unicode="&#x2011;" d="M301 444v291h631v-291h-631z" />
<glyph unicode="&#x2012;" d="M301 444v291h631v-291h-631z" />
<glyph unicode="&#x2013;" d="M0 444v246h1233v-246h-1233z" />
<glyph unicode="&#x2014;" d="M0 444v246h1233v-246h-1233z" />
<glyph unicode="&#x2018;" d="M432 903v271l197 382h215l-99 -382v-271h-313z" />
<glyph unicode="&#x2019;" d="M432 903l98 383v270h314v-270l-197 -383h-215z" />
<glyph unicode="&#x201a;" d="M362 -287l99 383v271h313v-271l-196 -383h-216z" />
<glyph unicode="&#x201c;" d="M152 903v271l196 382h215l-98 -382v-271h-313zM672 903v271l196 382h213l-96 -382v-271h-313z" />
<glyph unicode="&#x201d;" d="M150 903l98 383v270h313v-270l-196 -383h-215zM670 903l98 383v270h313v-270l-196 -383h-215z" />
<glyph unicode="&#x201e;" d="M150 -287l98 383v271h313v-271l-196 -383h-215zM670 -287l98 383v271h313v-271l-196 -383h-215z" />
<glyph unicode="&#x2022;" d="M256 762q0 78 27 139q29 66 79 115q53 51 117 78q61 27 137 26.5t138 -26.5q68 -29 116 -78q52 -52 80 -117q27 -61 27 -137q0 -78 -27 -139q-28 -65 -80 -117t-116 -80q-61 -27 -140 -27q-76 0 -137 27q-65 28 -117 80q-51 53 -77 117q-27 61 -27 139z" />
<glyph unicode="&#x2026;" d="M57 0v367h295v-367h-295zM469 0v367h295v-367h-295zM881 0v367h295v-367h-295z" />
<glyph unicode="&#x202f;" horiz-adv-x="378" />
<glyph unicode="&#x2039;" d="M346 535v131l469 393v-238l-276 -221l276 -221v-238z" />
<glyph unicode="&#x203a;" d="M420 141v238l278 221l-278 221v238l469 -393v-131z" />
<glyph unicode="&#x205f;" horiz-adv-x="473" />
<glyph unicode="&#x2074;" d="M639 1321l-250 -330h250v330zM621 1503h204v-512h109v-143h-109v-180h-186v180h-393v162z" />
<glyph unicode="&#x20ac;" d="M6 483l84 187h96q0 6 -1 16t-1 14v45v46q0 4 1 14t1 16h-180l84 189h119q43 252 190.5 381t380.5 129q82 0 156 -19q80 -20 141 -53v-328q-76 80 -143.5 115t-147.5 35q-106 0 -178 -66q-70 -63 -100 -194h442l-84 -189h-383q-2 -10 -2 -35v-53v-31q0 -4 1 -15t1 -17h316 l-84 -187h-207q25 -127 96.5 -194.5t179.5 -67.5q80 0 148 35q72 37 145 115v-328q-57 -33 -139 -53q-74 -18 -158 -19q-236 0 -381 131q-147 132 -190 381h-203z" />
<glyph unicode="&#x2122;" d="M0 1360v133h438v-133h-141v-445h-156v445h-141zM522 915v578h207l100 -227l89 227h208v-578h-153v437l-107 -256h-75l-117 256v-437h-152z" />
<glyph unicode="&#xe000;" horiz-adv-x="1120" d="M0 1120h1120v-1120h-1120v1120z" />
<glyph unicode="&#xfb01;" d="M12 895v225h189v78q0 203 84 280.5t311 77.5h80v-225h-68q-66 0 -90 -24.5t-24 -87.5v-99h604v-1120h-293v895h-311v-895h-293v895h-189zM805 1264v292h293v-292h-293z" />
<glyph unicode="&#xfb02;" d="M12 895v225h189v78q0 203 84 280.5t311 77.5h502v-1556h-293v1331h-197q-66 0 -90 -24.5t-24 -87.5v-99h188v-225h-188v-895h-293v895h-189z" />
<glyph unicode="&#xfb03;" horiz-adv-x="3698" d="M2609 0v225h365v670h-287v225h580v-895h364v-225h-1022zM2974 1323v342h293v-342h-293zM1407 895v225h272v78q0 203 84 280.5t312 77.5h241v-225h-229q-66 0 -90 -24q-20 -20 -25 -88v-99h344v-225h-344v-895h-293v895h-272zM174 895v225h272v78q0 203 84 280.5t312 77.5 h241v-225h-229q-66 0 -90 -24q-20 -20 -25 -88v-99h344v-225h-344v-895h-293v895h-272z" />
<glyph unicode="&#xfb04;" horiz-adv-x="3698" d="M2556 1331v225h590v-1089q0 -129 41 -186q41 -55 139 -56h234v-225h-316q-209 0 -301 109q-90 104 -90 358v864h-297zM1407 895v225h272v78q0 203 84 280.5t312 77.5h241v-225h-229q-66 0 -90 -24q-20 -20 -25 -88v-99h344v-225h-344v-895h-293v895h-272zM174 895v225 h272v78q0 203 84 280.5t312 77.5h241v-225h-229q-66 0 -90 -24q-20 -20 -25 -88v-99h344v-225h-344v-895h-293v895h-272z" />
<glyph d="M696 1526h236v-246h-236v246zM301 1526h236v-246h-236v246z" />
<glyph d="M668 1526h284l-286 -264h-197z" />
<glyph d="M618 1311l-55 35q-4 2 -10 6q-49 27 -74 26q-29 0 -51 -30q-20 -29 -20 -80v-6h-140v30q0 109 54 170q55 66 143 66q37 0 74 -12q41 -14 75 -37l60 -39q18 -12 41 -21q25 -8 35 -8q37 0 55 31q20 35 20 86h140v-15q0 -4 -1 -9t-1 -7q0 -104 -53.5 -169.5t-141.5 -65.5 q-35 0 -72 12q-43 14 -78 37z" />
<glyph d="M567 1526l199 -264h-197l-286 264h284z" />
<glyph d="M461 1526h309l223 -264h-178l-199 161l-198 -161h-178z" />
<glyph d="M84 500l-37 118l1059 263l37 -119z" />
</font>
</defs>
</svg>
