<?xml version="1.0" standalone="no"?>
<!DOCTYPE svg PUBLIC "-//W3C//DTD SVG 1.1//EN" "http://www.w3.org/Graphics/SVG/1.1/DTD/svg11.dtd" >
<svg xmlns="http://www.w3.org/2000/svg">
<metadata>
This is a custom SVG webfont generated by Font Squirrel.
Copyright   : Copyright c 2003 by Bitstream Inc All Rights ReservedDejaVu changes are in public domain
Foundry     : DejaVu fonts team
Foundry URL : httpdejavusourceforgenet
</metadata>
<defs>
<font id="webfontA4fD3JE8" horiz-adv-x="1171" >
<font-face units-per-em="2048" ascent="1556" descent="-492" />
<missing-glyph horiz-adv-x="583" />
<glyph unicode=" "  horiz-adv-x="583" />
<glyph unicode="&#x09;" horiz-adv-x="583" />
<glyph unicode="&#xa0;" horiz-adv-x="583" />
<glyph unicode="!" horiz-adv-x="739" d="M252 104q0 55 32.5 94.5t86.5 39.5q51 0 84 -39q35 -41 34.5 -94.5t-34.5 -94.5q-33 -39 -84 -39q-53 0 -86 39t-33 94zM256 1493h231l-61 -821v-252h-111v252z" />
<glyph unicode="&#x22;" horiz-adv-x="845" d="M180 938v555h144v-555h-144zM524 938v555h144v-555h-144z" />
<glyph unicode="#" horiz-adv-x="1542" d="M141 414v153h314l73 334h-282v154h317l94 415h154l-92 -415h254l94 415h154l-95 -415h277v-154h-311l-74 -334h282v-153h-317l-92 -414h-156l94 414h-254l-94 -414h-153l92 414h-279zM608 567h256l74 334h-254z" />
<glyph unicode="$" d="M158 922q0 160 98 258q96 96 274 108v268h91v-268q98 -10 176 -33q80 -25 164 -65v-262h-99q-12 115 -74 182q-63 70 -167 78v-453q223 -68 311 -153.5t88 -231.5q0 -166 -105 -266q-102 -98 -294 -115v-270h-91v270q-90 4 -178 27q-86 23 -194 76v276h98q2 -135 72 -207 q68 -71 202 -73v485q-209 66 -290.5 148t-81.5 221zM336 987q0 -80 47 -133q46 -52 147 -86v420q-90 -6 -143 -60q-51 -51 -51 -141zM621 68q102 10 155 65q53 57 53 150q0 82 -53 145q-53 61 -155 92v-452z" />
<glyph unicode="%" horiz-adv-x="1748" d="M102 1114q0 182 84 295q84 111 226 111q143 0 227 -108.5t84 -297.5q0 -195 -84 -299q-86 -109 -227 -108q-144 0 -228 110q-82 109 -82 297zM246 1112.5q0 -149.5 45 -231.5q47 -84 123 -84q78 0 121 84q45 86 45 231t-45 231q-43 84 -121 84q-82 0 -125 -84 q-43 -81 -43 -230.5zM387 -29l842 1549h135l-840 -1549h-137zM1028 377q0 184 84 297q83 111 227 110q143 0 228 -110q84 -113 84 -297q0 -186 -86 -297q-84 -109 -226 -109q-145 0 -227 109q-84 113 -84 297zM1174 377q0 -147 45 -230q47 -84 120 -84q80 0 123 84 q43 82 43 229.5t-43 233.5q-41 84 -123 84q-80 0 -122 -84q-43 -82 -43 -233z" />
<glyph unicode="&#x26;" horiz-adv-x="1638" d="M131 461q0 127 70 248q68 115 209 217q-47 63 -68 121q-23 63 -23 127q0 162 104.5 254t281.5 92q68 0 139 -17q90 -20 184 -51v-258h-100q-12 109 -72 164q-57 55 -156 55q-88 0 -149 -57q-59 -55 -59 -146q0 -61 30 -123q27 -53 129 -172l463 -544q61 80 98 172 q35 88 45 198h-161v107h426v-107h-156q-14 -127 -59 -243q-41 -109 -119 -209l153 -183h211v-106h-360l-123 145q-94 -88 -200.5 -131t-231.5 -43q-236 0 -369 131q-137 134 -137 359zM315 483q0 -168 103 -278q104 -113 260 -113q94 0 172 35q80 35 145 104l-524 613 q-74 -70 -117 -168q-39 -87 -39 -193z" />
<glyph unicode="'" horiz-adv-x="505" d="M180 938v555h144v-555h-144z" />
<glyph unicode="(" horiz-adv-x="718" d="M145 618.5q0 350.5 113 591.5q111 238 330 346v-98q-137 -106 -198.5 -298.5t-61.5 -541.5q0 -347 61 -540t199 -299v-98q-219 109 -330 346q-113 241 -113 591.5z" />
<glyph unicode=")" horiz-adv-x="718" d="M129 -221q141 109 201 299q61 194 61 540q0 348 -61 541q-59 190 -201 299v98q219 -106 332 -346q113 -242 112.5 -592t-112.5 -591q-113 -240 -332 -346v98z" />
<glyph unicode="*" horiz-adv-x="919" d="M31 870l352 183l-352 184l67 119l314 -217l-13 381h123l-12 -381l313 217l70 -119l-352 -182l352 -185l-70 -118l-313 217l12 -381h-123l13 381l-314 -217z" />
<glyph unicode="+" horiz-adv-x="1542" d="M195 561v162h505v561h144v-561h506v-162h-506v-561h-144v561h-505z" />
<glyph unicode="," horiz-adv-x="583" d="M68 -199q82 66 122 162q39 90 39 227v37h179q-10 -174 -72 -293q-66 -125 -197 -213z" />
<glyph unicode="-" horiz-adv-x="620" d="M82 471v156h461v-156h-461z" />
<glyph unicode="." horiz-adv-x="583" d="M174 104q0 53 35 95q33 39 84 39q53 0 86 -39q35 -41 35 -94.5t-35 -94.5q-33 -39 -86 -39q-51 0 -84 39q-35 41 -35 94z" />
<glyph unicode="/" horiz-adv-x="620" d="M0 -190l477 1683h144l-478 -1683h-143z" />
<glyph unicode="0" d="M123 745.5q0 372.5 121 571.5q123 203 342 203t342 -203t123 -571.5t-123 -571.5t-342 -203t-342 203q-121 199 -121 571.5zM311 745.5q0 -339.5 67.5 -507.5t207 -168t207 168t67.5 507.5t-67.5 507.5t-207 168t-207 -168t-67.5 -507.5z" />
<glyph unicode="1" d="M225 1153v131l328 236h125v-1414h233v-106h-649v106h234v1242z" />
<glyph unicode="2" d="M125 0v109l407 452q135 150 193 275q57 123 57 264q0 152 -69 235q-70 86 -195 86q-127 0 -198.5 -71.5t-83.5 -212.5h-101v266q90 55 195 88q92 29 190 29q211 0 332 -113t121 -307q0 -223 -275 -525q-23 -23 -32 -34l-340 -377h561v184h104v-348h-866z" />
<glyph unicode="3" d="M139 72v290h103q10 -150 86 -219q80 -74 221 -73q137 0 217 88t80 243q0 178 -82 267q-84 90 -240 90h-86v102h45q158 0 236 72q80 74 80 219q0 129 -66 201q-63 70 -186 69.5t-189 -63.5q-66 -61 -77 -191h-103v263q121 49 203 67q102 23 180 23q201 0 309 -95 q111 -94 111 -262q0 -137 -76 -225q-80 -92 -217 -123q162 -25 256 -133q92 -109 92 -279q0 -211 -127 -321.5t-364 -110.5q-102 0 -205 25q-107 27 -201 76z" />
<glyph unicode="4" d="M57 399v109l588 1012h178v-1014h256v-107h-256v-293h217v-106h-612v106h215v293h-586zM184 506h459v794z" />
<glyph unicode="5" d="M158 72v290h100q10 -145 82 -217q76 -76 205 -75q143 0 219 104q78 106 78 299q0 190 -78 297q-76 104 -219 104q-76 0 -142 -32q-61 -31 -110 -99h-78v750h713v-164h-617v-428q41 33 109 53q61 18 141 19q217 0 342 -133q127 -137 127 -367q0 -236 -127 -369t-358 -133 q-90 0 -189 25q-100 25 -198 76z" />
<glyph unicode="6" d="M123 698q0 389 145 607q145 215 410 215q76 0 147 -15q82 -16 160 -45v-246h-100q-12 102 -70 154q-59 53 -158 53q-174 0 -260 -147q-84 -145 -88 -453q63 76 139 113t175 37q203 0 317 -133q117 -135 117 -366.5t-125 -365.5q-125 -135 -336 -135q-227 0 -350 188.5 t-123 538.5zM340 483q0 -200 68 -307q68 -106 194 -106q129 0 196.5 104.5t67.5 297t-67.5 296.5t-196.5 104t-196 -100q-66 -99 -66 -289z" />
<glyph unicode="7" d="M156 1145v348h884v-102l-526 -1391h-133l500 1329h-621v-184h-104z" />
<glyph unicode="8" d="M123 408q0 162 86 262q88 104 240 125q-133 27 -209 114q-72 84 -72 224q0 180 111 284q109 102 307 102.5t307 -102.5q111 -104 111 -284q0 -135 -72 -224q-72 -86 -207 -114q150 -20 238 -125q86 -100 86 -262q0 -209 -121 -324q-119 -113 -342.5 -113t-341.5 113 q-121 115 -121 324zM313 407.5q0 -159.5 72 -249.5q70 -88 201 -88q133 0 202.5 88t69.5 249.5t-69.5 249.5t-202.5 88q-131 0 -201 -88q-72 -90 -72 -249.5zM350 1132.5q0 -137.5 61.5 -213t174 -75.5t174 75.5t61.5 213t-61.5 213t-174 75.5t-174 -75.5t-61.5 -213z" />
<glyph unicode="9" d="M117 1020q0 231 125 364q127 135 336 136q225 0 348 -188.5t123 -538.5q0 -389 -146 -607q-145 -215 -407 -215q-76 0 -150 15q-80 14 -160 45v248h101q12 -96 71 -154q59 -55 156 -55q174 0 260 147q86 145 88 453q-66 -78 -139 -113q-80 -37 -176 -37 q-201 0 -315.5 133.5t-114.5 366.5zM305 1020q0 -188 70 -297q68 -104 194 -105q129 0 197 100.5t68 289.5q0 200 -68 307q-68 106 -197 106q-127 0 -194 -104q-70 -109 -70 -297z" />
<glyph unicode=":" horiz-adv-x="620" d="M193 104q0 53 34 95q33 39 84 39q53 0 86 -39t33 -94.5t-32.5 -94.5t-86 -39t-86 39t-32.5 94zM193 756q0 53 34 94q33 39 84 39q52 0 86 -37q33 -35 33 -96q0 -59 -33 -94q-35 -39 -86 -39t-84 39q-34 41 -34 94z" />
<glyph unicode=";" horiz-adv-x="620" d="M68 -199q82 66 122 162q39 90 39 227v37h179q-10 -174 -72 -293q-66 -125 -197 -213zM195 756q0 53 34 94q33 39 86 39q51 0 84 -39q35 -41 35 -94.5t-35 -93.5q-33 -39 -84 -39q-53 0 -86 39q-34 41 -34 94z" />
<glyph unicode="&#x3c;" horiz-adv-x="1542" d="M195 559v166l1155 465v-170l-934 -379l934 -377v-170z" />
<glyph unicode="=" horiz-adv-x="1542" d="M195 358v160h1155v-160h-1155zM195 766v160h1155v-160h-1155z" />
<glyph unicode="&#x3e;" horiz-adv-x="1542" d="M195 94v170l935 377l-935 379v170l1155 -465v-166z" />
<glyph unicode="?" horiz-adv-x="987" d="M125 1167v260q104 51 180 70q90 23 164 23q201 0 315.5 -106.5t114.5 -289.5q0 -186 -100 -305q-96 -115 -299 -168v-254h-111v328q160 43 240 143q80 101 80 258q0 133 -66 215q-65 80 -178 80q-102 0 -168 -65.5t-84 -188.5h-88zM324 104q0 53 34 95q33 39 86 39 q51 0 84 -39q35 -41 35 -94.5t-35 -94.5q-33 -39 -84 -39q-53 0 -86 39q-34 41 -34 94z" />
<glyph unicode="@" horiz-adv-x="1841" d="M123 543q0 190 59 348q61 164 174 289t271 194q154 68 329 68q195 0 352.5 -82t266.5 -240q63 -92 102 -213q35 -106 35 -239q0 -270 -145.5 -424t-401.5 -158v162q-49 -78 -121 -121q-70 -41 -147 -41q-160 0 -258 125q-96 123 -96 325.5t96 325.5q98 125 258 125 q78 0 147 -41q72 -43 121 -121v142h140v-772q152 37 237 161q84 123 84 314q0 119 -29 211q-31 100 -92 182q-96 133 -231 203q-139 72 -299 71q-80 0 -160 -18q-78 -18 -158 -59q-180 -92 -282 -281q-100 -186 -101 -436q0 -170 45 -307q45 -139 132 -244 q100 -123 231 -182q135 -61 291 -62q111 0 217 39q102 37 186 113l49 -70q-100 -94 -221 -139q-125 -47 -270 -47q-163 0 -313 67q-154 70 -265 189q-115 123 -174 290t-59 353zM702 536.5q0 -159.5 62 -245.5q63 -88 170 -88q104 0 167.5 77.5t63.5 204.5v105 q0 125 -65.5 202.5t-167.5 77.5q-104 0 -168 -88q-62 -86 -62 -245.5z" />
<glyph unicode="A" horiz-adv-x="1329" d="M-10 0v106h116l480 1387h151l480 -1387h133v-106h-490v106h150l-113 328h-565l-113 -328h148v-106h-377zM369 541h493l-246 710z" />
<glyph unicode="B" horiz-adv-x="1353" d="M102 0v106h170v1280h-170v107h664q201 0 305 -92q102 -90 103 -277q0 -131 -72 -213q-70 -78 -207 -96q170 -25 258 -121t88 -262q0 -223 -125 -328q-126 -104 -393 -104h-621zM455 106h270q162 0 236 78q76 80 75 248q0 166 -75 246q-74 78 -236 78h-270v-650zM455 862 h229q150 0 215 64q70 66 70 198q0 135 -70 198.5t-215 63.5h-229v-524z" />
<glyph unicode="C" horiz-adv-x="1409" d="M104 745q0 350 181 562q182 213 477 213q106 0 233 -31q106 -27 269 -98v-344h-103q-35 190 -133 276q-102 90 -283 90q-215 0 -325 -170q-111 -169 -111 -497.5t111 -497.5q111 -170 325 -170q150 0 248.5 80t141.5 237h165q-61 -213 -200 -317q-139 -106 -355 -107 q-131 0 -243 49q-111 47 -201 148q-96 104 -147 254q-50 141 -50 323z" />
<glyph unicode="D" horiz-adv-x="1476" d="M102 0v106h170v1280h-170v107h535q347 0 541 -197q195 -199 194.5 -549t-195 -548.5t-540.5 -198.5h-535zM455 106h168q260 0 401 166t141 476q0 311 -139 474.5t-403 163.5h-168v-1280z" />
<glyph unicode="E" horiz-adv-x="1343" d="M102 0v106h170v1280h-170v107h1082v-332h-111v209h-618v-500h442v187h109v-496h-109v187h-442v-625h632v209h111v-332h-1096z" />
<glyph unicode="F" horiz-adv-x="1277" d="M102 0v106h170v1280h-170v107h1100v-332h-110v209h-637v-500h458v187h111v-496h-111v187h-458v-642h215v-106h-568z" />
<glyph unicode="G" horiz-adv-x="1470" d="M104 745.5q0 354.5 183 563.5q184 211 493 211q125 0 240 -29q131 -33 260 -90v-354h-100q-31 184 -131 276q-100 90 -279 90q-233 0 -346 -166q-115 -168 -115 -502q0 -326 119 -497q117 -170 346 -170q98 0 195 28q92 27 176 84v385h-252v107h434v-557 q-115 -74 -258 -115q-135 -39 -295 -39q-303 0 -487 211q-183 209 -183 563.5z" />
<glyph unicode="H" horiz-adv-x="1605" d="M102 0v106h170v1280h-170v107h525v-107h-172v-516h696v516h-170v107h524v-107h-170v-1280h170v-106h-524v106h170v642h-696v-642h172v-106h-525z" />
<glyph unicode="I" horiz-adv-x="727" d="M102 0v106h170v1280h-170v107h525v-107h-172v-1280h172v-106h-525z" />
<glyph unicode="J" horiz-adv-x="737" d="M-156 -123h105q4 -100 41 -147q39 -49 119 -49q104 0 149 75q43 74 43 293v1337h-209v107h561v-107h-170v-1345q0 -244 -90 -356q-90 -111 -287 -111q-72 0 -129 16q-78 23 -133 52v235z" />
<glyph unicode="K" horiz-adv-x="1376" d="M102 0v106h170v1280h-170v107h525v-107h-172v-565l579 565h-145v107h446v-107h-151l-578 -563l645 -717h154v-106h-311l-639 709v-603h172v-106h-525z" />
<glyph unicode="L" horiz-adv-x="1222" d="M102 0v106h170v1280h-170v107h525v-107h-172v-1263h614v250h111v-373h-1078z" />
<glyph unicode="M" horiz-adv-x="1886" d="M92 1386v107h391l471 -1063l471 1063h369v-107h-178v-1280h170v-106h-524v106h170v1154l-461 -1041h-127l-461 1041v-1154h172v-106h-453v106h170v1280h-180z" />
<glyph unicode="N" horiz-adv-x="1611" d="M90 0v106h180v1280h-180v107h344l805 -1178v1071h-178v107h471v-107h-180v-1415h-111l-858 1258v-1123h178v-106h-471z" />
<glyph unicode="O" horiz-adv-x="1509" d="M104 745q0 182 50 324q51 150 147 254q89 98 202.5 147.5t252.5 49.5q291 0 473 -213q180 -211 180 -562q0 -180 -49 -323q-47 -141 -152 -254q-90 -100 -200 -148q-114 -49 -252.5 -49t-252 49.5t-202.5 147.5q-96 104 -147 254q-50 141 -50 323zM309 745.5 q0 -331.5 113 -499.5t334 -168t333.5 168t112.5 499.5t-112.5 499.5t-333.5 168t-334 -168t-113 -499.5z" />
<glyph unicode="P" horiz-adv-x="1239" d="M102 0v106h170v1280h-170v107h635q205 0 320 -113q117 -114 117 -307t-117 -305q-119 -115 -320 -115h-282v-547h209v-106h-562zM455 760h237q135 0 205 80q72 82 72 233.5t-72 233.5q-70 80 -205 79h-237v-626z" />
<glyph unicode="Q" horiz-adv-x="1509" d="M104 745q0 182 50 324q51 150 147 254q89 98 202.5 147.5t252.5 49.5q291 0 473 -213q180 -211 180 -562q0 -295 -135 -497q-135 -201 -373 -260q49 -68 119 -99q76 -33 168 -32h26v-185q-154 10 -260 82q-109 74 -176 217q-311 0 -491 211q-183 213 -183 563zM309 745.5 q0 -331.5 113 -499.5t334 -168t333.5 168t112.5 499.5t-112.5 499.5t-333.5 168t-334 -168t-113 -499.5z" />
<glyph unicode="R" horiz-adv-x="1386" d="M102 0v106h170v1280h-170v107h680q197 0 303.5 -104.5t106.5 -294.5q0 -152 -78 -242q-76 -88 -231 -111q59 -16 108 -65q45 -45 82 -127l195 -443h164v-106h-318l-209 475q-61 138 -110 178q-51 41 -140 41h-200v-588h190v-106h-543zM455 801h266q135 0 201 71 q63 70 63 221.5t-63 221.5q-66 72 -201 71h-266v-585z" />
<glyph unicode="S" horiz-adv-x="1261" d="M156 1120q0 193 120 295q123 104 340 105q90 0 207 -23q106 -20 238 -65v-318h-103q-16 160 -94 229.5t-243 69.5q-139 0 -215 -65.5t-76 -186.5q0 -106 55 -168q51 -57 238 -121l165 -55q186 -61 263 -155q78 -96 77 -254q0 -215 -124 -326q-127 -111 -373 -111 q-111 0 -225 25q-123 27 -236 76v340h104q6 -170 88 -252t256 -82q158 0 246 72q84 70 84 204q0 109 -51 166.5t-215 112.5l-176 59q-193 63 -273 162q-77 96 -77 266z" />
<glyph unicode="T" horiz-adv-x="1228" d="M18 1141v352h1192v-352h-108v233h-395v-1268h172v-106h-527v106h172v1268h-395v-233h-111z" />
<glyph unicode="U" horiz-adv-x="1552" d="M86 1386v107h526v-107h-172v-772q0 -285 84 -399q82 -113 289 -113q211 0 293 113q84 115 84 399v772h-172v107h452v-107h-170v-792q0 -338 -118 -481q-117 -141 -402 -142q-281 0 -401 142q-121 143 -121 481v792h-172z" />
<glyph unicode="V" horiz-adv-x="1329" d="M-18 1386v107h489v-107h-149l397 -1146l395 1146h-149v107h393v-107h-129l-481 -1386h-154l-477 1386h-135z" />
<glyph unicode="W" horiz-adv-x="1892" d="M8 1386v107h492v-107h-168l280 -1103l306 1210h147l309 -1223l283 1116h-156v107h387v-107h-131l-352 -1386h-148l-307 1214l-309 -1214h-147l-353 1386h-133z" />
<glyph unicode="X" horiz-adv-x="1310" d="M10 0v106h156l387 627l-393 653h-144v107h533v-107h-158l289 -481l295 481h-172v107h438v-107h-149l-357 -575l424 -705h144v-106h-533v106h162l-322 533l-327 -533h172v-106h-445z" />
<glyph unicode="Y" horiz-adv-x="1214" d="M-20 1386v107h499v-107h-157l335 -604l336 604h-151v107h391v-107h-127l-404 -724v-556h172v-106h-526v106h172v537l-416 743h-124z" />
<glyph unicode="Z" horiz-adv-x="1280" d="M84 0v72l836 1298h-695v-223h-110v346h1061v-72l-836 -1298h760v209h108v-332h-1124z" />
<glyph unicode="[" horiz-adv-x="718" d="M158 -270v1826h420v-106h-248v-1614h248v-106h-420z" />
<glyph unicode="\" horiz-adv-x="620" d="M0 1493h143l478 -1683h-144z" />
<glyph unicode="]" horiz-adv-x="718" d="M141 -164h248v1614h-248v106h420v-1826h-420v106z" />
<glyph unicode="^" horiz-adv-x="1542" d="M195 936l489 557h176l490 -557h-140l-438 381l-438 -381h-139z" />
<glyph unicode="_" horiz-adv-x="919" d="M0 -403h922v-80h-922v80z" />
<glyph unicode="`" horiz-adv-x="919" d="M154 1636h176l233 -376h-104z" />
<glyph unicode="a" horiz-adv-x="1097" d="M92 319q0 164 107 256q104 90 303 91h231v73q0 121 -65 187q-68 68 -187 67q-96 0 -157 -51q-55 -47 -72 -147h-86v215q88 41 168 61.5t158 20.5q201 0 303 -109q104 -111 104 -319v-558h148v-106h-314v115q-55 -74 -127 -109q-74 -35 -168 -35q-160 0 -252 95 q-94 97 -94 253zM276 319q0 -111 61.5 -176t166.5 -65q100 0 166 72q63 70 63 184v225h-213q-121 0 -184 -59q-60 -58 -60 -181z" />
<glyph unicode="b" horiz-adv-x="1177" d="M53 0v106h160v1344h-160v106h326v-659q49 101 123 147q76 47 186 48q176 0 287 -154q113 -156 112 -406q0 -246 -112 -405q-111 -156 -287 -156q-111 0 -186 47q-74 46 -123 148v-166h-326zM379 479q0 -190 65 -293q63 -100 192.5 -100t192.5 113q66 115 66 334 t-65.5 331.5t-192.5 112.5q-129 0 -193 -100q-66 -102 -65 -293v-105z" />
<glyph unicode="c" horiz-adv-x="1030" d="M92 532.5q0 251.5 127 407.5q125 152 336 152q98 0 180 -23q94 -27 180 -72v-272h-96q-18 141 -81.5 204.5t-182.5 63.5q-133 0 -201 -116q-70 -121 -69 -345q0 -229 67.5 -345.5t202.5 -116.5q108 0 172 61q63 61 86 188h135q-35 -172 -135 -260t-258 -88 q-211 0 -336 154q-127 156 -127 407.5z" />
<glyph unicode="d" horiz-adv-x="1177" d="M92 532q0 252 110.5 406t289.5 154q111 0 186.5 -47.5t124.5 -147.5v553h-158v106h324v-1450h157v-106h-323v166q-49 -100 -125 -147.5t-186 -47.5q-176 0 -287 156q-113 159 -113 405zM285 532.5q0 -219.5 65 -333.5q63 -113 195 -113q127 0 190 100q68 106 68 293v105 q0 186 -68 293q-63 100 -190 100q-129 0 -194.5 -112.5t-65.5 -332z" />
<glyph unicode="e" horiz-adv-x="1089" d="M92 532q0 254 125 406q127 154 328 154q217 0 334 -148q115 -145 120 -432h-714v-8q0 -213 73.5 -323.5t214.5 -110.5q109 0 179 63q72 66 98 189h133q-39 -172 -147 -263q-106 -88 -281 -88q-211 0 -336 154q-127 155 -127 407zM285 618h520q-6 184 -72 281 q-63 94 -188 94q-115 0 -180.5 -96.5t-79.5 -278.5z" />
<glyph unicode="f" horiz-adv-x="681" d="M68 0v106h157v850h-157v107h157v133q0 174 84 268q84 92 244 92q59 0 121 -12q59 -12 119 -37v-202h-86q0 72 -39 114q-37 39 -109 39q-92 0 -131 -57q-37 -55 -37 -201v-137h266v-107h-266v-850h211v-106h-534z" />
<glyph unicode="g" horiz-adv-x="1177" d="M92 532q0 252 110.5 406t289.5 154q111 0 186.5 -47.5t124.5 -147.5v166h323v-107h-157v-933q0 -225 -115 -353q-113 -125 -324 -125q-94 0 -180 19q-78 16 -166 57v223h86q14 -100 78 -151q61 -49 172 -49q145 0 213 92q70 94 70 287v143q-49 -100 -125 -147.5 t-186 -47.5q-176 0 -287 156q-113 159 -113 405zM285 532.5q0 -219.5 65 -333.5q63 -113 195 -113q127 0 190 100q68 106 68 293v105q0 186 -68 293q-63 100 -190 100q-129 0 -194.5 -112.5t-65.5 -332z" />
<glyph unicode="h" horiz-adv-x="1185" d="M68 1450v106h323v-682q45 106 119 162t170 56q160 0 233 -101q74 -102 74 -315v-570h150v-106h-457v106h141v512q0 197 -43 267q-43 72 -151 71q-113 0 -176 -94q-59 -88 -60 -270v-486h144v-106h-459v106h149v1344h-157z" />
<glyph unicode="i" horiz-adv-x="587" d="M68 0v106h157v850h-157v107h323v-957h156v-106h-479zM178 1393q0 46 31 80q31 35 74 34q39 0 69 -34q31 -34 31 -80q0 -49 -29 -80q-31 -33 -71 -33q-43 0 -74 33q-31 34 -31 80z" />
<glyph unicode="j" horiz-adv-x="569" d="M-176 -170h84q6 -96 45 -141t113 -45q82 0 120 61q39 59 39 191v1060h-157v107h323v-1167q0 -168 -88 -258q-90 -92 -242 -93q-63 0 -124 17q-57 14 -113 49v219zM184 1393q0 46 31 80q31 35 72 34.5t71 -34.5q31 -34 31 -80q0 -49 -29 -80q-31 -33 -73 -33q-41 0 -72 33 q-31 34 -31 80z" />
<glyph unicode="k" horiz-adv-x="1114" d="M53 1450v106h326v-1013l401 413h-137v107h432v-107h-162l-284 -292l362 -558h139v-106h-473v106h138l-287 437l-129 -135v-302h147v-106h-463v106h150v1344h-160z" />
<glyph unicode="l" horiz-adv-x="587" d="M53 0v106h160v1344h-160v106h326v-1450h156v-106h-482z" />
<glyph unicode="m" horiz-adv-x="1746" d="M68 958v105h323v-189q45 106 117 162q70 55 162 56q111 0 184 -62q76 -63 100 -174q49 119 123 176q76 59 172 60q154 0 226 -103q74 -104 73 -313v-570h150v-106h-461v106h145v549q0 164 -43 232q-45 70 -143 69q-111 0 -170 -94q-57 -90 -57 -270v-486h143v-106h-453 v106h146v556q0 156 -45 227q-43 68 -144 67q-109 0 -167 -94q-57 -90 -58 -270v-486h144v-106h-459v106h149v852h-157z" />
<glyph unicode="n" horiz-adv-x="1185" d="M68 956v107h323v-189q45 106 119 162t170 56q160 0 233 -101q74 -102 74 -315v-570h150v-106h-457v106h141v512q0 193 -43 266.5t-151 73.5q-113 0 -176 -94q-59 -90 -60 -272v-486h144v-106h-459v106h149v850h-157z" />
<glyph unicode="o" horiz-adv-x="1107" d="M92 532q0 250 127 406q125 154 336 154t336 -154q127 -156 127 -406q0 -252 -127 -407q-125 -154 -336 -154t-336 154q-127 155 -127 407zM285 532q0 -225 69 -346q68 -117 201 -116.5t200.5 117t67.5 345.5q0 227 -67.5 344t-200.5 117q-135 0 -202.5 -117t-67.5 -344z " />
<glyph unicode="p" horiz-adv-x="1177" d="M53 -319h160v1275h-160v107h326v-166q49 101 123 147q76 47 186 48q176 0 287 -154q113 -156 112 -406q0 -246 -112 -405q-111 -156 -287 -156q-111 0 -186 47q-74 46 -123 148v-485h156v-107h-482v107zM379 479q0 -190 65 -293q63 -100 192.5 -100t192.5 113 q66 115 66 334t-65.5 331.5t-192.5 112.5q-129 0 -193 -100q-66 -102 -65 -293v-105z" />
<glyph unicode="q" horiz-adv-x="1177" d="M92 532q0 252 110.5 406t289.5 154q111 0 186.5 -47.5t124.5 -147.5v166h323v-107h-157v-1275h157v-107h-481v107h158v485q-49 -100 -125 -147.5t-186 -47.5q-176 0 -287 156q-113 159 -113 405zM285 532.5q0 -219.5 65 -333.5q63 -113 195 -113q127 0 190 100 q68 106 68 293v105q0 186 -68 293q-63 100 -190 100q-129 0 -194.5 -112.5t-65.5 -332z" />
<glyph unicode="r" horiz-adv-x="880" d="M68 958v105h323v-189q51 113 125 164q78 53 186 54q39 0 84 -7q27 -4 95 -20v-266h-95q-6 78 -41 119q-33 39 -102 38q-123 0 -186 -94q-66 -96 -66 -270v-486h191v-106h-506v106h149v852h-157z" />
<glyph unicode="s" horiz-adv-x="944" d="M104 59v248h95q3 -120 67 -178q66 -59 189 -59q109 0 168 47t59 135q0 70 -43 113t-180 92l-119 45q-123 43 -180 110q-55 63 -56 168q0 145 97 230q94 82 268 82q72 0 158 -23q92 -25 174 -63v-232h-96q-2 102 -66 162q-59 57 -166 57q-104 0 -157.5 -41t-53.5 -123 q0 -68 41 -108q37 -37 162 -82l131 -45q137 -47 195 -117q61 -74 61 -182q0 -152 -104.5 -238t-286.5 -86q-86 0 -180 23q-81 20 -177 65z" />
<glyph unicode="t" horiz-adv-x="739" d="M53 956v107h146v330h166v-330h313v-107h-313v-675q0 -135 24 -172q27 -39 86 -39q63 0 94 43q27 39 31 137h125q-6 -145 -70 -211q-66 -68 -194 -68q-145 0 -203 70q-59 72 -59 240v675h-146z" />
<glyph unicode="u" horiz-adv-x="1185" d="M49 956v107h316v-619q0 -195 43 -266.5t153 -71.5q113 0 174.5 94.5t61.5 272.5v483h-146v107h312v-957h155v-106h-321v188q-45 -106 -119 -161.5t-170 -55.5q-160 0 -234 101q-76 104 -75 315v569h-150z" />
<glyph unicode="v" horiz-adv-x="1040" d="M-4 956v107h438v-107h-151l268 -731l268 731h-141v107h358v-107h-106l-352 -956h-123l-351 956h-108z" />
<glyph unicode="w" horiz-adv-x="1576" d="M31 956v107h432v-107h-156l215 -723l246 830h117l245 -830l216 723h-140v107h346v-107h-104l-285 -956h-139l-236 795l-235 -795h-133l-283 956h-106z" />
<glyph unicode="x" horiz-adv-x="1038" d="M23 956v107h428v-107h-115l201 -307l200 307h-129v107h369v-107h-127l-256 -393l299 -457h125v-106h-443v106h121l-207 318l-208 -318h122v-106h-362v106h127l262 404l-291 446h-116z" />
<glyph unicode="y" horiz-adv-x="1040" d="M-4 956v107h438v-107h-151l268 -731l268 731h-141v107h358v-107h-106l-441 -1196q-43 -125 -98 -170q-53 -45 -155 -45q-45 0 -86 9q-55 12 -91 22v203h84q6 -68 31 -98q23 -29 82 -29q47 0 78 31q29 29 63 122l64 177l-357 974h-108z" />
<glyph unicode="z" horiz-adv-x="970" d="M74 0v86l600 870h-475v-184h-95v291h783v-86l-600 -871h520v193h96v-299h-829z" />
<glyph unicode="{" d="M229 559v105h56q127 0 176 59t49 207v258q0 221 76 295q77 74 301 73h55v-104h-61q-126 0 -166 -43q-37 -39 -37 -186v-287q0 -160 -45 -225q-45 -68 -164 -99q121 -35 164 -100q45 -72 45 -225v-287q0 -145 37 -184q41 -45 166 -45h61v-105h-55q-224 0 -301 74 q-76 74 -76 295v258q0 151 -49 209q-49 57 -176 57h-56z" />
<glyph unicode="|" horiz-adv-x="620" d="M238 -483v2048h145v-2048h-145z" />
<glyph unicode="}" d="M229 -229h64q125 0 164 43q39 41 39 186v287q0 154 45 225q41 66 161 100q-119 31 -161 99q-45 72 -45 225v287q0 145 -39 186q-39 43 -164 43h-64v104h58q221 0 299 -73q76 -74 76 -295v-258q0 -147 49 -206.5t176 -59.5h55v-105h-55q-127 0 -176 -57q-49 -58 -49 -209 v-258q0 -221 -76 -295q-78 -74 -299 -74h-58v105z" />
<glyph unicode="~" horiz-adv-x="1542" d="M195 477v152q90 88 170 127q82 41 165.5 41t243.5 -66l8 -4q12 -4 29 -12q127 -57 217 -58q84 0 164 37q78 37 158 113v-148q-84 -84 -172 -131q-76 -41 -164 -41q-84 0 -244 66l-8 4l-31 12q-129 57 -217 58q-84 0 -162 -37q-81 -39 -157 -113z" />
<glyph unicode="&#xa1;" horiz-adv-x="739" d="M252 1389q0 55 32.5 94t86.5 39q51 0 84 -39q35 -41 34.5 -94.5t-34.5 -94.5q-33 -39 -84 -39q-53 0 -86 39.5t-33 94.5zM256 0l59 821v252h111v-252l61 -821h-231z" />
<glyph unicode="&#xa2;" d="M139 532.5q0 239.5 115 391.5q111 147 311 166v266h90v-266q83 -9 160 -31t148 -62v-272h-97q-18 129 -67 188q-53 66 -144 78v-919q82 12 133 75q53 66 72 172h133q-31 -156 -116.5 -241.5t-221.5 -104.5v-270h-90v270q-199 18 -311 168q-115 152 -115 391.5zM334 532 q0 -217 57 -329q59 -117 174 -131v919q-115 -14 -174 -131q-57 -113 -57 -328z" />
<glyph unicode="&#xa3;" d="M123 0v106h174v594h-174v107h174v295q0 207 102 311q104 106 303 107q76 0 150 -13q70 -12 139 -37v-245h-94q-8 94 -59.5 145t-137.5 51q-113 0 -168 -77.5t-55 -241.5v-295h371v-107h-371v-579h430v227h105v-348h-889z" />
<glyph unicode="&#xa4;" d="M94 186l185 207q-37 61 -55.5 123t-18.5 125q0 71 18 129q18 55 60 117l-189 207l86 94l187 -207q57 47 104 66q53 20 117 20q61 0 114 -20q59 -23 109 -62l188 207l84 -94l-186 -209q39 -63 55 -121q18 -61 19 -127q0 -72 -18.5 -129t-57.5 -115l184 -207l-86 -94 l-186 205q-51 -45 -102 -65q-49 -20 -117 -21q-61 0 -115 21q-55 22 -111 61l-184 -205zM346 643q0 -117 70 -192q72 -78 172 -78q102 0 171.5 77.5t69.5 192.5q0 113 -69 188q-72 78 -172.5 78t-171.5 -78q-70 -75 -70 -188z" />
<glyph unicode="&#xa5;" d="M-14 1386v107h497v-107h-157l309 -604l305 604h-152v107h390v-107h-127l-256 -497h245v-105h-299l-63 -122v-84h362v-105h-362v-367h170v-106h-524v106h172v367h-365v105h365v65l-74 141h-291v105h238l-258 497h-125z" />
<glyph unicode="&#xa6;" horiz-adv-x="620" d="M238 -350v758h145v-758h-145zM238 674v758h145v-758h-145z" />
<glyph unicode="&#xa7;" horiz-adv-x="919" d="M84 719q0 94 51 160q51 68 152 98q-72 47 -109 112.5t-37 141.5q0 129 90 209q89 80 240 80q76 0 139 -15q78 -18 135 -41v-202h-81q0 70 -50 114q-43 41 -125 41q-92 0 -143 -49t-51 -131q0 -94 221 -233q12 -8 20.5 -14.5t14.5 -8.5q172 -106 231 -184q57 -76 58 -174 q0 -88 -49 -158q-45 -61 -150 -107q71 -46 104 -110q33 -63 33 -154q0 -131 -92 -211q-90 -78 -248 -78q-82 0 -153 13q-63 10 -142 43v209h84q4 -84 49 -121q51 -41 145.5 -41t149.5 49q53 47 54 133q0 115 -205 240q-10 6 -17.5 10t-11.5 8q-199 127 -252 197 q-55 74 -55 174zM229 754q0 -129 328 -334l29 -19q49 35 78 86q27 47 26 105q0 74 -61 141q-59 66 -287 203q-63 -47 -86 -88q-27 -47 -27 -94z" />
<glyph unicode="&#xa8;" horiz-adv-x="919" d="M180 1452q0 45 33 82q31 35 72 35q45 0 75.5 -35t30.5 -82q0 -51 -30.5 -84t-75.5 -33q-43 0 -74 33t-31 84zM530 1452q0 47 31 82t76 35q43 0 73.5 -35t30.5 -82q0 -51 -30.5 -84t-73.5 -33q-45 0 -76 33t-31 84z" />
<glyph unicode="&#xa9;" horiz-adv-x="1841" d="M256 741q0 158 47 285q49 132 148 240q102 113 215 164q121 55 256 55t254 -55q117 -53 217 -164q98 -108 147 -240q47 -127 47 -285q0 -160 -47 -282q-51 -135 -147 -240q-100 -111 -217 -164q-119 -55 -254.5 -55t-255.5 55q-113 51 -215 164q-96 104 -148 240 q-47 122 -47 282zM346 741q0 -131 43 -243q41 -109 127 -207q82 -94 186.5 -141.5t219.5 -47.5q117 0 221 47.5t186 141.5q80 90 125 207q43 113 43 243q0 132 -43 246q-45 117 -125 207q-82 94 -186.5 141t-220.5 47q-115 0 -219.5 -47t-186.5 -141q-84 -94 -127 -207 q-43 -114 -43 -246zM555 741q0 203 100 322q102 121 269 121q71 0 141 -19q74 -20 147 -57v-213h-73q-15 108 -68 160q-51 51 -145 51q-106 0 -161.5 -92t-55.5 -273q0 -184 55 -272q55 -90 160 -90q86 0 137 47t69 147h107q-25 -135 -104 -202q-82 -70 -209 -70 q-166 0 -269 121q-100 118 -100 319z" />
<glyph unicode="&#xaa;" horiz-adv-x="874" d="M113 979q0 114 86 178q84 63 237 64h185v45q0 86 -52 131q-53 47 -147 47q-76 0 -123 -35t-59 -104h-70v157q63 27 135 43q59 14 123 15q162 0 244 -76t82 -225v-379h71v-84h-204v80q-39 -47 -99 -74q-55 -25 -135 -25q-125 0 -201 66q-73 65 -73 176zM150 535v104h628 v-104h-628zM260 987q0 -80 45 -123q47 -43 133 -43q84 0 133.5 49.5t49.5 126.5v148h-168q-96 0 -144 -39q-49 -41 -49 -119z" />
<glyph unicode="&#xab;" horiz-adv-x="1126" d="M141 559v82l422 418v-115l-266 -344l266 -344v-115zM532 559v82l422 418v-115l-266 -344l266 -344v-115z" />
<glyph unicode="&#xac;" horiz-adv-x="1542" d="M195 700v162h1155v-575h-146v413h-1009z" />
<glyph unicode="&#xad;" horiz-adv-x="620" d="M82 471v156h461v-156h-461z" />
<glyph unicode="&#xae;" horiz-adv-x="1841" d="M256 741q0 158 47 285q49 132 148 240q102 113 215 164q121 55 256 55t254 -55q117 -53 217 -164q98 -108 147 -240q47 -127 47 -285q0 -160 -47 -282q-51 -135 -147 -240q-100 -111 -217 -164q-119 -55 -254.5 -55t-255.5 55q-113 51 -215 164q-96 104 -148 240 q-47 122 -47 282zM346 741q0 -131 43 -243q41 -109 127 -207q82 -94 186.5 -141.5t219.5 -47.5q117 0 221 47.5t186 141.5q80 90 125 207q43 113 43 243q0 132 -43 246q-45 117 -125 207q-82 94 -186.5 141t-220.5 47q-115 0 -219.5 -47t-186.5 -141q-84 -94 -127 -207 q-43 -114 -43 -246zM596 352v68h74v672h-74v67h373q117 0 174 -55q59 -55 59 -166q0 -83 -43 -129q-43 -45 -133 -55q41 -16 65.5 -39t45.5 -66l102 -229h70v-68h-170l-119 254q-29 68 -59 94q-25 23 -72 23h-82v-303h74v-68h-285zM807 791h111q74 0 112 38q37 37 37 113 t-37 113t-112 37h-111v-301z" />
<glyph unicode="&#xaf;" horiz-adv-x="919" d="M193 1378v148h536v-148h-536z" />
<glyph unicode="&#xb0;" horiz-adv-x="919" d="M176 1200q0 137 82 227q83 92 203 93q58 0 110 -25q59 -27 93 -70q39 -41 61 -102q20 -55 20 -123q0 -133 -81 -223q-82 -92 -205 -92t-203 90t-80 225zM299 1200q0 -74 47 -127q45 -51 114.5 -51t114.5 51q47 53 48 127q0 80 -48 129q-49 53 -114 53q-68 0 -115 -53 t-47 -129z" />
<glyph unicode="&#xb1;" horiz-adv-x="1542" d="M195 0v160h1155v-160h-1155zM195 731v162h505v391h144v-391h506v-162h-506v-391h-144v391h-505z" />
<glyph unicode="&#xb2;" horiz-adv-x="737" d="M82 668v75l256 254q78 78 110.5 137.5t32.5 127.5q0 86 -43 135t-119 49q-70 0 -112 -37q-41 -35 -53 -113h-64v158q58 31 123 49q57 16 125 17q123 0 200.5 -65.5t77.5 -170.5q0 -121 -176 -297l-16 -16l-213 -215h344v108h68v-196h-541z" />
<glyph unicode="&#xb3;" horiz-adv-x="737" d="M90 709v170h64q6 -72 49 -113q41 -39 125 -39q86 0 131 43q47 43 47 127q0 94 -47 141t-137 47h-48v74h25q88 0 131 37q45 39 45 111q0 66 -37 102.5t-104 36.5q-70 0 -113 -33q-39 -31 -45 -96h-63v151q78 29 125 39q61 12 114 13q125 0 191 -54q68 -55 67 -153 q0 -70 -47 -121q-45 -49 -135 -68q104 -14 162 -75q55 -58 55 -160q0 -115 -78 -174q-80 -61 -225 -62q-72 0 -129 15q-72 18 -123 41z" />
<glyph unicode="&#xb4;" horiz-adv-x="919" d="M354 1262l232 376h180l-307 -376h-105z" />
<glyph unicode="&#xb5;" horiz-adv-x="1196" d="M53 -319h160v1275h-150v107h316v-619q0 -195 43 -266.5t151 -71.5q113 0 174.5 94.5t61.5 272.5v483h-143v107h309v-959h155v-104h-321v188q-45 -102 -113 -161q-66 -55 -147 -56q-51 0 -94 19q-45 18 -76 53v-362h156v-107h-482v107z" />
<glyph unicode="&#xb6;" d="M141 1071q0 188 117 305t311 117h486v-107h-107v-1583h-96v1583h-209v-1583h-96v846q-193 18 -299.5 127t-106.5 295z" />
<glyph unicode="&#xb7;" horiz-adv-x="583" d="M170 711q0 53 35 94q33 39 88 39q51 0 84 -39q35 -41 35 -94.5t-35 -94.5q-33 -39 -84 -38q-53 0 -88 39t-35 94z" />
<glyph unicode="&#xb8;" horiz-adv-x="919" d="M262 -240q35 -18 72 -26q33 -8 67 -8q53 0 82 26.5t29 71.5q0 31 -20 72q-29 57 -60 104h88q57 -63 86 -120.5t29 -104.5q0 -80 -57.5 -125t-157.5 -45q-39 0 -78 6q-40 6 -80 18v131z" />
<glyph unicode="&#xb9;" horiz-adv-x="737" d="M131 1280v94l217 129h92v-751h156v-84h-438v84h155v634z" />
<glyph unicode="&#xba;" horiz-adv-x="864" d="M86 1128.5q0 178.5 94 285t252 106.5q160 0 254 -106.5t94 -285t-94 -285t-254 -106.5q-158 0 -252 106.5t-94 285zM123 535v104h618v-104h-618zM242 1128q0 -160 47 -235q49 -80 143 -80t143.5 80t49.5 235.5t-49.5 235.5t-143.5 80q-92 0 -141 -80t-49 -236z" />
<glyph unicode="&#xbb;" horiz-adv-x="1126" d="M174 141v115l266 344l-266 344v115l422 -418v-82zM563 141v115l268 344l-268 344v115l422 -418v-82z" />
<glyph unicode="&#xbc;" horiz-adv-x="1785" d="M1453 303v407l-277 -407h277zM1713 0h-392v84h132v137h-359v84l361 530h127v-532h147v-82h-147v-137h131v-84zM131 1280v94l217 129h92v-751h156v-84h-438v84h155v634zM1249 1520h135l-848 -1549h-135z" />
<glyph unicode="&#xbd;" horiz-adv-x="1785" d="M131 1280v94l217 129h92v-751h156v-84h-438v84h155v634zM1249 1520h135l-848 -1549h-135zM1129 0v75l256 254q78 78 110.5 137.5t32.5 127.5q0 86 -43 135t-119 49q-70 0 -112 -37q-41 -35 -53 -113h-64v158q58 31 123 49q57 16 125 17q123 0 200.5 -65.5t77.5 -170.5 q0 -121 -176 -297l-16 -16l-213 -215h344v108h68v-196h-541z" />
<glyph unicode="&#xbe;" horiz-adv-x="1785" d="M1453 303v407l-277 -407h277zM1713 0h-392v84h132v137h-359v84l361 530h127v-532h147v-82h-147v-137h131v-84zM90 709v170h64q6 -72 49 -113q41 -39 125 -39q86 0 131 43q47 43 47 127q0 94 -47 141t-137 47h-48v74h25q88 0 131 37q45 39 45 111q0 66 -37 102.5 t-104 36.5q-70 0 -113 -33q-39 -31 -45 -96h-63v151q78 29 125 39q61 12 114 13q125 0 191 -54q68 -55 67 -153q0 -70 -47 -121q-45 -49 -135 -68q104 -14 162 -75q55 -58 55 -160q0 -115 -78 -174q-80 -61 -225 -62q-72 0 -129 15q-72 18 -123 41zM1249 1520h135 l-848 -1549h-135z" />
<glyph unicode="&#xbf;" horiz-adv-x="987" d="M125 369q0 190 100.5 304.5t300.5 168.5v254h111v-328q-164 -43 -242 -143q-80 -101 -80 -258q0 -133 66 -215q66 -80 180 -80q100 0 166 65q68 68 86 189h86v-260q-104 -51 -180 -70q-90 -23 -164 -23q-199 0 -313 107q-117 108 -117 289zM461 1388.5q0 53.5 35 94.5 q33 39 84 39q53 0 86 -39q35 -41 34.5 -94.5t-34.5 -94.5q-33 -39 -86 -39q-51 0 -84 39q-35 41 -35 94.5z" />
<glyph unicode="&#xc0;" horiz-adv-x="1329" d="M-10 0v106h116l480 1387h151l480 -1387h133v-106h-490v106h150l-113 328h-565l-113 -328h148v-106h-377zM369 541h493l-246 710zM602 1899l166 -264h-107l-235 264h176z" />
<glyph unicode="&#xc1;" horiz-adv-x="1329" d="M-10 0v106h116l480 1387h151l480 -1387h133v-106h-490v106h150l-113 328h-565l-113 -328h148v-106h-377zM369 541h493l-246 710zM723 1899h176l-236 -264h-104z" />
<glyph unicode="&#xc2;" horiz-adv-x="1329" d="M-10 0v106h116l480 1387h151l480 -1387h133v-106h-490v106h150l-113 328h-565l-113 -328h148v-106h-377zM369 541h493l-246 710zM585 1899h158l209 -264h-105l-182 161l-182 -161h-105z" />
<glyph unicode="&#xc3;" horiz-adv-x="1329" d="M-10 0v106h116l480 1387h151l480 -1387h133v-106h-490v106h150l-113 328h-565l-113 -328h148v-106h-377zM369 541h493l-246 710zM655 1714l-45 29q-25 16 -37 21q-18 6 -33 6q-35 0 -59 -29q-23 -27 -27 -74h-86q4 104 47 160q47 59 123 59q29 0 60 -10q33 -10 77 -39 l45 -26q29 -16 41 -21q18 -6 35 -6q37 0 57.5 26.5t20.5 75.5h88q-2 -102 -49 -161q-45 -57 -129 -58q-63 0 -127 45z" />
<glyph unicode="&#xc4;" horiz-adv-x="1329" d="M-10 0v106h116l480 1387h151l480 -1387h133v-106h-490v106h150l-113 328h-565l-113 -328h148v-106h-377zM369 541h493l-246 710zM489 1884q45 0 76 -34.5t31 -81.5q0 -51 -31 -84t-76 -33q-43 0 -73.5 32.5t-30.5 84.5q0 47 30.5 81.5t73.5 34.5zM841 1884q41 0 72 -34 q33 -37 33 -82q0 -51 -31 -84t-74 -33q-45 0 -75.5 32.5t-30.5 84.5q0 47 30.5 81.5t75.5 34.5z" />
<glyph unicode="&#xc5;" horiz-adv-x="1329" d="M-10 0v106h116l441 1278q-65 37 -98 99q-33 59 -33 143q0 113 71 195q70 80 175 80q100 0 173.5 -80t73.5 -195q0 -78 -35 -143q-33 -63 -100 -99l443 -1278h133v-106h-490v106h150l-113 328h-565l-113 -328h148v-106h-377zM369 541h491l-244 710zM526 1626 q0 -66 39 -106q41 -45 96.5 -45t96.5 45t41 106.5t-41 106.5t-96.5 45t-96.5 -43q-39 -41 -39 -109z" />
<glyph unicode="&#xc6;" horiz-adv-x="1843" d="M-33 0v106h119l530 1280h-192v107h1311v-332h-111v209h-620v-500h444v187h111v-496h-111v187h-444v-625h634v209h111v-332h-1098v106h172v328h-483l-137 -328h147v-106h-383zM383 541h440v845h-90z" />
<glyph unicode="&#xc7;" horiz-adv-x="1409" d="M104 745q0 350 181 562q182 213 477 213q106 0 233 -31q106 -27 269 -98v-344h-103q-35 190 -133 276q-102 90 -283 90q-215 0 -325 -170q-111 -169 -111 -497.5t111 -497.5q111 -170 325 -170q150 0 248.5 80t141.5 237h165q-61 -213 -200 -317q-139 -106 -355 -107 q-131 0 -243 49q-111 47 -201 148q-96 104 -147 254q-50 141 -50 323zM561 -240q35 -18 72 -26q33 -8 67 -8q53 0 82 26.5t29 71.5q0 31 -20 72q-29 57 -60 104h88q57 -63 86 -120.5t29 -104.5q0 -80 -57.5 -125t-157.5 -45q-39 0 -78 6q-40 6 -80 18v131z" />
<glyph unicode="&#xc8;" horiz-adv-x="1343" d="M102 0v106h170v1280h-170v107h1082v-332h-111v209h-618v-500h442v187h109v-496h-109v187h-442v-625h632v209h111v-332h-1096zM611 1899l166 -264h-107l-235 264h176z" />
<glyph unicode="&#xc9;" horiz-adv-x="1343" d="M102 0v106h170v1280h-170v107h1082v-332h-111v209h-618v-500h442v187h109v-496h-109v187h-442v-625h632v209h111v-332h-1096zM732 1899h176l-236 -264h-104z" />
<glyph unicode="&#xca;" horiz-adv-x="1343" d="M102 0v106h170v1280h-170v107h1082v-332h-111v209h-618v-500h442v187h109v-496h-109v187h-442v-625h632v209h111v-332h-1096zM594 1899h158l209 -264h-105l-182 161l-182 -161h-105z" />
<glyph unicode="&#xcb;" horiz-adv-x="1343" d="M102 0v106h170v1280h-170v107h1082v-332h-111v209h-618v-500h442v187h109v-496h-109v187h-442v-625h632v209h111v-332h-1096zM498 1884q45 0 76 -34.5t31 -81.5q0 -51 -31 -84t-76 -33q-43 0 -73.5 32.5t-30.5 84.5q0 47 30.5 81.5t73.5 34.5zM850 1884q41 0 72 -34 q33 -37 33 -82q0 -51 -31 -84t-74 -33q-45 0 -75.5 32.5t-30.5 84.5q0 47 30.5 81.5t75.5 34.5z" />
<glyph unicode="&#xcc;" horiz-adv-x="727" d="M102 0v106h170v1280h-170v107h525v-107h-172v-1280h172v-106h-525zM301 1899l166 -264h-107l-235 264h176z" />
<glyph unicode="&#xcd;" horiz-adv-x="727" d="M102 0v106h170v1280h-170v107h525v-107h-172v-1280h172v-106h-525zM422 1899h176l-236 -264h-104z" />
<glyph unicode="&#xce;" horiz-adv-x="727" d="M102 0v106h170v1280h-170v107h525v-107h-172v-1280h172v-106h-525zM284 1899h158l209 -264h-105l-182 161l-182 -161h-105z" />
<glyph unicode="&#xcf;" horiz-adv-x="727" d="M102 0v106h170v1280h-170v107h525v-107h-172v-1280h172v-106h-525zM188 1884q45 0 76 -34.5t31 -81.5q0 -51 -31 -84t-76 -33q-43 0 -73.5 32.5t-30.5 84.5q0 47 30.5 81.5t73.5 34.5zM540 1884q41 0 72 -34q33 -37 33 -82q0 -51 -31 -84t-74 -33q-45 0 -75.5 32.5 t-30.5 84.5q0 47 30.5 81.5t75.5 34.5z" />
<glyph unicode="&#xd0;" horiz-adv-x="1486" d="M102 719v125h181v542h-172v107h534q350 0 543 -197q193 -195 192 -548q0 -350 -194.5 -549t-540.5 -199h-534v106h172v613h-181zM463 106h170q260 0 401 166q139 164 139.5 475.5t-139 475t-401.5 163.5h-170v-542h303v-125h-303v-613z" />
<glyph unicode="&#xd1;" horiz-adv-x="1611" d="M90 0v106h180v1280h-180v107h344l805 -1178v1071h-178v107h471v-107h-180v-1415h-111l-858 1258v-1123h178v-106h-471zM797 1714l-45 29q-25 16 -37 21q-18 6 -33 6q-35 0 -59 -29q-23 -27 -27 -74h-86q4 104 47 160q47 59 123 59q29 0 60 -10q33 -10 77 -39l45 -26 q29 -16 41 -21q18 -6 35 -6q37 0 57.5 26.5t20.5 75.5h88q-2 -102 -49 -161q-45 -57 -129 -58q-63 0 -127 45z" />
<glyph unicode="&#xd2;" horiz-adv-x="1509" d="M104 745q0 182 50 324q51 150 147 254q89 98 202.5 147.5t252.5 49.5q291 0 473 -213q180 -211 180 -562q0 -180 -49 -323q-47 -141 -152 -254q-90 -100 -200 -148q-114 -49 -252.5 -49t-252 49.5t-202.5 147.5q-96 104 -147 254q-50 141 -50 323zM309 745.5 q0 -331.5 113 -499.5t334 -168t333.5 168t112.5 499.5t-112.5 499.5t-333.5 168t-334 -168t-113 -499.5zM693 1899l166 -264h-107l-235 264h176z" />
<glyph unicode="&#xd3;" horiz-adv-x="1509" d="M104 745q0 182 50 324q51 150 147 254q89 98 202.5 147.5t252.5 49.5q291 0 473 -213q180 -211 180 -562q0 -180 -49 -323q-47 -141 -152 -254q-90 -100 -200 -148q-114 -49 -252.5 -49t-252 49.5t-202.5 147.5q-96 104 -147 254q-50 141 -50 323zM309 745.5 q0 -331.5 113 -499.5t334 -168t333.5 168t112.5 499.5t-112.5 499.5t-333.5 168t-334 -168t-113 -499.5zM814 1899h176l-236 -264h-104z" />
<glyph unicode="&#xd4;" horiz-adv-x="1509" d="M104 745q0 182 50 324q51 150 147 254q89 98 202.5 147.5t252.5 49.5q291 0 473 -213q180 -211 180 -562q0 -180 -49 -323q-47 -141 -152 -254q-90 -100 -200 -148q-114 -49 -252.5 -49t-252 49.5t-202.5 147.5q-96 104 -147 254q-50 141 -50 323zM309 745.5 q0 -331.5 113 -499.5t334 -168t333.5 168t112.5 499.5t-112.5 499.5t-333.5 168t-334 -168t-113 -499.5zM676 1899h158l209 -264h-105l-182 161l-182 -161h-105z" />
<glyph unicode="&#xd5;" horiz-adv-x="1509" d="M104 745q0 182 50 324q51 150 147 254q89 98 202.5 147.5t252.5 49.5q291 0 473 -213q180 -211 180 -562q0 -180 -49 -323q-47 -141 -152 -254q-90 -100 -200 -148q-114 -49 -252.5 -49t-252 49.5t-202.5 147.5q-96 104 -147 254q-50 141 -50 323zM309 745.5 q0 -331.5 113 -499.5t334 -168t333.5 168t112.5 499.5t-112.5 499.5t-333.5 168t-334 -168t-113 -499.5zM746 1714l-45 29q-25 16 -37 21q-18 6 -33 6q-35 0 -59 -29q-23 -27 -27 -74h-86q4 104 47 160q47 59 123 59q29 0 60 -10q33 -10 77 -39l45 -26q29 -16 41 -21 q18 -6 35 -6q37 0 57.5 26.5t20.5 75.5h88q-2 -102 -49 -161q-45 -57 -129 -58q-63 0 -127 45z" />
<glyph unicode="&#xd6;" horiz-adv-x="1509" d="M104 745q0 182 50 324q51 150 147 254q89 98 202.5 147.5t252.5 49.5q291 0 473 -213q180 -211 180 -562q0 -180 -49 -323q-47 -141 -152 -254q-90 -100 -200 -148q-114 -49 -252.5 -49t-252 49.5t-202.5 147.5q-96 104 -147 254q-50 141 -50 323zM309 745.5 q0 -331.5 113 -499.5t334 -168t333.5 168t112.5 499.5t-112.5 499.5t-333.5 168t-334 -168t-113 -499.5zM580 1884q45 0 76 -34.5t31 -81.5q0 -51 -31 -84t-76 -33q-43 0 -73.5 32.5t-30.5 84.5q0 47 30.5 81.5t73.5 34.5zM932 1884q41 0 72 -34q33 -37 33 -82 q0 -51 -31 -84t-74 -33q-45 0 -75.5 32.5t-30.5 84.5q0 47 30.5 81.5t75.5 34.5z" />
<glyph unicode="&#xd7;" horiz-adv-x="1542" d="M256 180l414 461l-414 463l100 113l416 -461l416 461l102 -113l-416 -463l416 -461l-102 -112l-416 460l-416 -460z" />
<glyph unicode="&#xd8;" horiz-adv-x="1509" d="M90 12l168 207q-80 111 -117 236q-37 129 -37 290q0 346 181 560q182 215 471 215q129 0 235 -43q111 -45 195 -125l160 198l71 -71l-166 -203q77 -108 117 -240q41 -135 41 -291q0 -346 -180 -559q-181 -215 -473 -215q-126 0 -234 43q-106 43 -198 129l-164 -200z M309 745q0 -127 15 -215q16 -104 45 -178l725 887q-55 86 -144 131q-82 43 -194 43q-221 0 -334 -168t-113 -500zM418 256q61 -92 141 -133q90 -45 197 -45q221 0 333.5 168t112.5 499q0 123 -14 215.5t-47 180.5z" />
<glyph unicode="&#xd9;" horiz-adv-x="1552" d="M86 1386v107h526v-107h-172v-772q0 -285 84 -399q82 -113 289 -113q211 0 293 113q84 115 84 399v772h-172v107h452v-107h-170v-792q0 -338 -118 -481q-117 -141 -402 -142q-281 0 -401 142q-121 143 -121 481v792h-172zM750 1899l166 -264h-107l-235 264h176z" />
<glyph unicode="&#xda;" horiz-adv-x="1552" d="M86 1386v107h526v-107h-172v-772q0 -285 84 -399q82 -113 289 -113q211 0 293 113q84 115 84 399v772h-172v107h452v-107h-170v-792q0 -338 -118 -481q-117 -141 -402 -142q-281 0 -401 142q-121 143 -121 481v792h-172zM871 1899h176l-236 -264h-104z" />
<glyph unicode="&#xdb;" horiz-adv-x="1552" d="M86 1386v107h526v-107h-172v-772q0 -285 84 -399q82 -113 289 -113q211 0 293 113q84 115 84 399v772h-172v107h452v-107h-170v-792q0 -338 -118 -481q-117 -141 -402 -142q-281 0 -401 142q-121 143 -121 481v792h-172zM733 1899h158l209 -264h-105l-182 161l-182 -161 h-105z" />
<glyph unicode="&#xdc;" horiz-adv-x="1552" d="M86 1386v107h526v-107h-172v-772q0 -285 84 -399q82 -113 289 -113q211 0 293 113q84 115 84 399v772h-172v107h452v-107h-170v-792q0 -338 -118 -481q-117 -141 -402 -142q-281 0 -401 142q-121 143 -121 481v792h-172zM637 1884q45 0 76 -34.5t31 -81.5q0 -51 -31 -84 t-76 -33q-43 0 -73.5 32.5t-30.5 84.5q0 47 30.5 81.5t73.5 34.5zM989 1884q41 0 72 -34q33 -37 33 -82q0 -51 -31 -84t-74 -33q-45 0 -75.5 32.5t-30.5 84.5q0 47 30.5 81.5t75.5 34.5z" />
<glyph unicode="&#xdd;" horiz-adv-x="1214" d="M-20 1386v107h499v-107h-157l335 -604l336 604h-151v107h391v-107h-127l-404 -724v-556h172v-106h-526v106h172v537l-416 743h-124zM666 1899h176l-236 -264h-104z" />
<glyph unicode="&#xde;" horiz-adv-x="1243" d="M102 0v106h170v1280h-170v107h562v-107h-209v-219h282q201 0 320 -114q117 -115 117 -305q0 -194 -117 -308q-119 -115 -320 -114h-282v-220h209v-106h-562zM455 434h237q135 0 205 80q72 82 72 233.5t-72 233.5q-70 80 -205 80h-237v-627z" />
<glyph unicode="&#xdf;" horiz-adv-x="1230" d="M53 0v106h160v1080q0 176 102 272q104 98 291 98q193 0 293 -104q98 -100 111 -315h-21q-131 0 -205 -54q-76 -55 -75 -147q0 -51 24.5 -90t89.5 -86l80 -55q141 -100 193 -185q55 -90 55 -198q0 -154 -104.5 -252.5t-270.5 -98.5q-77 0 -153 19q-68 16 -146 53v233h98 q2 -100 54 -153q49 -53 141 -53q98 0 158 61q57 59 57 164q0 86 -37 143q-39 59 -141 131l-78 54q-92 61 -133 129q-41 66 -41 147q0 121 78 205q76 82 213 106q-6 115 -70 183q-61 66 -170 65q-119 0 -174 -65q-53 -61 -53 -203v-1190h-326z" />
<glyph unicode="&#xe0;" horiz-adv-x="1097" d="M92 319q0 164 107 256q104 90 303 91h231v73q0 121 -65 187q-68 68 -187 67q-96 0 -157 -51q-55 -47 -72 -147h-86v215q88 41 168 61.5t158 20.5q201 0 303 -109q104 -111 104 -319v-558h148v-106h-314v115q-55 -74 -127 -109q-74 -35 -168 -35q-160 0 -252 95 q-94 97 -94 253zM276 319q0 -111 61.5 -176t166.5 -65q100 0 166 72q63 70 63 184v225h-213q-121 0 -184 -59q-60 -58 -60 -181zM205 1636h176l233 -376h-104z" />
<glyph unicode="&#xe1;" horiz-adv-x="1097" d="M92 319q0 164 107 256q104 90 303 91h231v73q0 121 -65 187q-68 68 -187 67q-96 0 -157 -51q-55 -47 -72 -147h-86v215q88 41 168 61.5t158 20.5q201 0 303 -109q104 -111 104 -319v-558h148v-106h-314v115q-55 -74 -127 -109q-74 -35 -168 -35q-160 0 -252 95 q-94 97 -94 253zM276 319q0 -111 61.5 -176t166.5 -65q100 0 166 72q63 70 63 184v225h-213q-121 0 -184 -59q-60 -58 -60 -181zM405 1262l232 376h180l-307 -376h-105z" />
<glyph unicode="&#xe2;" horiz-adv-x="1097" d="M92 319q0 164 107 256q104 90 303 91h231v73q0 121 -65 187q-68 68 -187 67q-96 0 -157 -51q-55 -47 -72 -147h-86v215q88 41 168 61.5t158 20.5q201 0 303 -109q104 -111 104 -319v-558h148v-106h-314v115q-55 -74 -127 -109q-74 -35 -168 -35q-160 0 -252 95 q-94 97 -94 253zM276 319q0 -111 61.5 -176t166.5 -65q100 0 166 72q63 70 63 184v225h-213q-121 0 -184 -59q-60 -58 -60 -181zM225 1262l211 376h152l211 -376h-105l-182 260l-182 -260h-105z" />
<glyph unicode="&#xe3;" horiz-adv-x="1097" d="M92 319q0 164 107 256q104 90 303 91h231v73q0 121 -65 187q-68 68 -187 67q-96 0 -157 -51q-55 -47 -72 -147h-86v215q88 41 168 61.5t158 20.5q201 0 303 -109q104 -111 104 -319v-558h148v-106h-314v115q-55 -74 -127 -109q-74 -35 -168 -35q-160 0 -252 95 q-94 97 -94 253zM276 319q0 -111 61.5 -176t166.5 -65q100 0 166 72q63 70 63 184v225h-213q-121 0 -184 -59q-60 -58 -60 -181zM215 1309q4 139 47 209q46 74 129 73q37 0 63 -14q33 -18 62 -47l51 -55q25 -25 35 -31q14 -8 35 -8q39 0 61 41q20 39 25 114h86 q-4 -139 -47 -209q-46 -74 -129 -73q-37 0 -64 14q-33 18 -61 47l-51 55q-25 25 -39 31q-20 8 -31 8q-39 0 -60 -39q-20 -37 -26 -116h-86z" />
<glyph unicode="&#xe4;" horiz-adv-x="1097" d="M92 319q0 164 107 256q104 90 303 91h231v73q0 121 -65 187q-68 68 -187 67q-96 0 -157 -51q-55 -47 -72 -147h-86v215q88 41 168 61.5t158 20.5q201 0 303 -109q104 -111 104 -319v-558h148v-106h-314v115q-55 -74 -127 -109q-74 -35 -168 -35q-160 0 -252 95 q-94 97 -94 253zM276 319q0 -111 61.5 -176t166.5 -65q100 0 166 72q63 70 63 184v225h-213q-121 0 -184 -59q-60 -58 -60 -181zM231 1452q0 45 33 82q31 35 72 35q45 0 75.5 -35t30.5 -82q0 -51 -30.5 -84t-75.5 -33q-43 0 -74 33t-31 84zM581 1452q0 47 31 82t76 35 q43 0 73.5 -35t30.5 -82q0 -51 -30.5 -84t-73.5 -33q-45 0 -76 33t-31 84z" />
<glyph unicode="&#xe5;" horiz-adv-x="1097" d="M92 319q0 164 107 256q104 90 303 91h231v73q0 121 -65 187q-68 68 -187 67q-96 0 -157 -51q-55 -47 -72 -147h-86v215q88 41 168 61.5t158 20.5q201 0 303 -109q104 -111 104 -319v-558h148v-106h-314v115q-55 -74 -127 -109q-74 -35 -168 -35q-160 0 -252 95 q-94 97 -94 253zM276 319q0 -111 61.5 -176t166.5 -65q100 0 166 72q63 70 63 184v225h-213q-121 0 -184 -59q-60 -58 -60 -181zM758 1524q0 -113 -72 -195q-70 -80 -174.5 -80t-175.5 80q-72 82 -72 194.5t72 194.5q72 80 176 80t174 -80q72 -81 72 -194zM649 1524 q0 61 -41 106t-96 45q-58 0 -99 -43q-39 -41 -38.5 -108.5t38.5 -108.5q40 -43 99 -43q55 0 96 43q41 46 41 109z" />
<glyph unicode="&#xe6;" horiz-adv-x="1730" d="M92 319q0 164 107 256q104 90 303 91h231v73q0 121 -63 187q-63 68 -181 67q-104 0 -163 -49q-57 -49 -74 -149h-86v215q88 41 168 61.5t158 20.5q129 0 215 -43t135 -134q66 88 153 132q90 45 193 45q215 0 332 -150q119 -152 120 -430h-712v-8q0 -217 71 -324 q74 -111 215 -110q109 0 179 63q72 66 98 189h133q-39 -174 -145.5 -262.5t-280.5 -88.5q-113 0 -203 45q-96 49 -164 134q-74 -92 -166 -135.5t-202 -43.5q-182 0 -275 90q-96 92 -96 258zM276 319q0 -111 61.5 -176t166.5 -65q100 0 166 72q63 70 63 184v225h-213 q-121 0 -184 -59q-60 -58 -60 -181zM928 618h518q-6 184 -72 281q-63 94 -186 94q-115 0 -182 -96q-66 -93 -78 -279z" />
<glyph unicode="&#xe7;" horiz-adv-x="1030" d="M92 532.5q0 251.5 127 407.5q125 152 336 152q98 0 180 -23q94 -27 180 -72v-272h-96q-18 141 -81.5 204.5t-182.5 63.5q-133 0 -201 -116q-70 -121 -69 -345q0 -229 67.5 -345.5t202.5 -116.5q108 0 172 61q63 61 86 188h135q-35 -172 -135 -260t-258 -88 q-211 0 -336 154q-127 156 -127 407.5zM352 -240q35 -18 72 -26q33 -8 67 -8q53 0 82 26.5t29 71.5q0 31 -20 72q-29 57 -60 104h88q57 -63 86 -120.5t29 -104.5q0 -80 -57.5 -125t-157.5 -45q-39 0 -78 6q-40 6 -80 18v131z" />
<glyph unicode="&#xe8;" horiz-adv-x="1089" d="M92 532q0 254 125 406q127 154 328 154q217 0 334 -148q115 -145 120 -432h-714v-8q0 -213 73.5 -323.5t214.5 -110.5q109 0 179 63q72 66 98 189h133q-39 -172 -147 -263q-106 -88 -281 -88q-211 0 -336 154q-127 155 -127 407zM285 618h520q-6 184 -72 281 q-63 94 -188 94q-115 0 -180.5 -96.5t-79.5 -278.5zM240 1636h176l233 -376h-104z" />
<glyph unicode="&#xe9;" horiz-adv-x="1089" d="M92 532q0 254 125 406q127 154 328 154q217 0 334 -148q115 -145 120 -432h-714v-8q0 -213 73.5 -323.5t214.5 -110.5q109 0 179 63q72 66 98 189h133q-39 -172 -147 -263q-106 -88 -281 -88q-211 0 -336 154q-127 155 -127 407zM285 618h520q-6 184 -72 281 q-63 94 -188 94q-115 0 -180.5 -96.5t-79.5 -278.5zM440 1262l232 376h180l-307 -376h-105z" />
<glyph unicode="&#xea;" horiz-adv-x="1089" d="M92 532q0 254 125 406q127 154 328 154q217 0 334 -148q115 -145 120 -432h-714v-8q0 -213 73.5 -323.5t214.5 -110.5q109 0 179 63q72 66 98 189h133q-39 -172 -147 -263q-106 -88 -281 -88q-211 0 -336 154q-127 155 -127 407zM285 618h520q-6 184 -72 281 q-63 94 -188 94q-115 0 -180.5 -96.5t-79.5 -278.5zM260 1262l211 376h152l211 -376h-105l-182 260l-182 -260h-105z" />
<glyph unicode="&#xeb;" horiz-adv-x="1089" d="M92 532q0 254 125 406q127 154 328 154q217 0 334 -148q115 -145 120 -432h-714v-8q0 -213 73.5 -323.5t214.5 -110.5q109 0 179 63q72 66 98 189h133q-39 -172 -147 -263q-106 -88 -281 -88q-211 0 -336 154q-127 155 -127 407zM285 618h520q-6 184 -72 281 q-63 94 -188 94q-115 0 -180.5 -96.5t-79.5 -278.5zM266 1452q0 45 33 82q31 35 72 35q45 0 75.5 -35t30.5 -82q0 -51 -30.5 -84t-75.5 -33q-43 0 -74 33t-31 84zM616 1452q0 47 31 82t76 35q43 0 73.5 -35t30.5 -82q0 -51 -30.5 -84t-73.5 -33q-45 0 -76 33t-31 84z" />
<glyph unicode="&#xec;" horiz-adv-x="587" d="M391 106h156v-106h-479v106h157v850h-157v107h323v-957zM-12 1636h176l233 -376h-104z" />
<glyph unicode="&#xed;" horiz-adv-x="587" d="M391 106h156v-106h-479v106h157v850h-157v107h323v-957zM188 1262l232 376h180l-307 -376h-105z" />
<glyph unicode="&#xee;" horiz-adv-x="587" d="M391 106h156v-106h-479v106h157v850h-157v107h323v-957zM8 1262l211 376h152l211 -376h-105l-182 260l-182 -260h-105z" />
<glyph unicode="&#xef;" horiz-adv-x="587" d="M391 106h156v-106h-479v106h157v850h-157v107h323v-957zM14 1452q0 45 33 82q31 35 72 35q45 0 75.5 -35t30.5 -82q0 -51 -30.5 -84t-75.5 -33q-43 0 -74 33t-31 84zM364 1452q0 47 31 82t76 35q43 0 73.5 -35t30.5 -82q0 -51 -30.5 -84t-73.5 -33q-45 0 -76 33t-31 84z " />
<glyph unicode="&#xf0;" horiz-adv-x="1107" d="M92 518q0 236 127 381t332 145q20 0 65 -4q53 -4 80 -10q-27 68 -53 107q-43 68 -78 108l-289 -149l-32 78l264 135q-53 57 -127 98q-78 45 -156 63l17 86q92 -20 200 -73q88 -43 176 -115l291 150l33 -78l-258 -133q168 -168 250 -363q84 -199 84 -412q0 -252 -127 -407 q-125 -154 -336 -154q-207 0 -336 152q-127 147 -127 395zM285 508q0 -209 71.5 -323.5t198.5 -114.5t199 114q70 113 69 328q0 117 -20 217q-23 113 -64 199q-53 12 -77 14q-49 4 -72 4q-156 0 -230 -106q-75 -111 -75 -332z" />
<glyph unicode="&#xf1;" horiz-adv-x="1185" d="M68 956v107h323v-189q45 106 119 162t170 56q160 0 233 -101q74 -102 74 -315v-570h150v-106h-457v106h141v512q0 193 -43 266.5t-151 73.5q-113 0 -176 -94q-59 -90 -60 -272v-486h144v-106h-459v106h149v850h-157zM295 1309q4 139 47 209q46 74 129 73q37 0 63 -14 q33 -18 62 -47l51 -55q25 -25 35 -31q14 -8 35 -8q39 0 61 41q20 39 25 114h86q-4 -139 -47 -209q-46 -74 -129 -73q-37 0 -64 14q-33 18 -61 47l-51 55q-25 25 -39 31q-20 8 -31 8q-39 0 -60 -39q-20 -37 -26 -116h-86z" />
<glyph unicode="&#xf2;" horiz-adv-x="1107" d="M92 532q0 250 127 406q125 154 336 154t336 -154q127 -156 127 -406q0 -252 -127 -407q-125 -154 -336 -154t-336 154q-127 155 -127 407zM285 532q0 -225 69 -346q68 -117 201 -116.5t200.5 117t67.5 345.5q0 227 -67.5 344t-200.5 117q-135 0 -202.5 -117t-67.5 -344z M248 1636h176l233 -376h-104z" />
<glyph unicode="&#xf3;" horiz-adv-x="1107" d="M92 532q0 250 127 406q125 154 336 154t336 -154q127 -156 127 -406q0 -252 -127 -407q-125 -154 -336 -154t-336 154q-127 155 -127 407zM285 532q0 -225 69 -346q68 -117 201 -116.5t200.5 117t67.5 345.5q0 227 -67.5 344t-200.5 117q-135 0 -202.5 -117t-67.5 -344z M448 1262l232 376h180l-307 -376h-105z" />
<glyph unicode="&#xf4;" horiz-adv-x="1107" d="M92 532q0 250 127 406q125 154 336 154t336 -154q127 -156 127 -406q0 -252 -127 -407q-125 -154 -336 -154t-336 154q-127 155 -127 407zM285 532q0 -225 69 -346q68 -117 201 -116.5t200.5 117t67.5 345.5q0 227 -67.5 344t-200.5 117q-135 0 -202.5 -117t-67.5 -344z M268 1262l211 376h152l211 -376h-105l-182 260l-182 -260h-105z" />
<glyph unicode="&#xf5;" horiz-adv-x="1107" d="M92 532q0 250 127 406q125 154 336 154t336 -154q127 -156 127 -406q0 -252 -127 -407q-125 -154 -336 -154t-336 154q-127 155 -127 407zM285 532q0 -225 69 -346q68 -117 201 -116.5t200.5 117t67.5 345.5q0 227 -67.5 344t-200.5 117q-135 0 -202.5 -117t-67.5 -344z M258 1309q4 139 47 209q46 74 129 73q37 0 63 -14q33 -18 62 -47l51 -55q25 -25 35 -31q14 -8 35 -8q39 0 61 41q20 39 25 114h86q-4 -139 -47 -209q-46 -74 -129 -73q-37 0 -64 14q-33 18 -61 47l-51 55q-25 25 -39 31q-20 8 -31 8q-39 0 -60 -39q-20 -37 -26 -116h-86z " />
<glyph unicode="&#xf6;" horiz-adv-x="1107" d="M92 532q0 250 127 406q125 154 336 154t336 -154q127 -156 127 -406q0 -252 -127 -407q-125 -154 -336 -154t-336 154q-127 155 -127 407zM285 532q0 -225 69 -346q68 -117 201 -116.5t200.5 117t67.5 345.5q0 227 -67.5 344t-200.5 117q-135 0 -202.5 -117t-67.5 -344z M274 1452q0 45 33 82q31 35 72 35q45 0 75.5 -35t30.5 -82q0 -51 -30.5 -84t-75.5 -33q-43 0 -74 33t-31 84zM624 1452q0 47 31 82t76 35q43 0 73.5 -35t30.5 -82q0 -51 -30.5 -84t-73.5 -33q-45 0 -76 33t-31 84z" />
<glyph unicode="&#xf7;" horiz-adv-x="1542" d="M195 561v162h1155v-162h-1155zM651 272q0 53 35 95q33 39 86 39q51 0 84 -39q37 -43 37 -94.5t-37 -94.5q-33 -39 -84 -39q-53 0 -86 39q-35 41 -35 94zM651 1012q0 53 35 94q33 39 86 39q51 0 84 -39q37 -43 37 -94t-37 -94q-33 -39 -84 -39t-86 39t-35 94z" />
<glyph unicode="&#xf8;" horiz-adv-x="1107" d="M68 -31l135 178q-53 74 -82 172.5t-29 212.5q0 250 127 406q125 154 336 154q84 0 156 -25q70 -25 131 -76l125 166l67 -63l-131 -172q57 -76 84 -172q31 -109 31 -218q0 -252 -127 -407q-125 -154 -336 -154q-90 0 -158 27q-76 29 -131 80l-129 -172zM285 532 q0 -53 8 -131q6 -59 18 -108l445 586q-33 57 -84 85.5t-117 28.5q-133 0 -201 -116q-69 -122 -69 -345zM352 190q35 -57 86 -90q49 -31 117 -30q131 0 201 118q68 117 67 344q0 74 -6 136q-6 66 -20 112z" />
<glyph unicode="&#xf9;" horiz-adv-x="1185" d="M49 956v107h316v-619q0 -195 43 -266.5t153 -71.5q113 0 174.5 94.5t61.5 272.5v483h-146v107h312v-957h155v-106h-321v188q-45 -106 -119 -161.5t-170 -55.5q-160 0 -234 101q-76 104 -75 315v569h-150zM220 1636h176l233 -376h-104z" />
<glyph unicode="&#xfa;" horiz-adv-x="1185" d="M49 956v107h316v-619q0 -195 43 -266.5t153 -71.5q113 0 174.5 94.5t61.5 272.5v483h-146v107h312v-957h155v-106h-321v188q-45 -106 -119 -161.5t-170 -55.5q-160 0 -234 101q-76 104 -75 315v569h-150zM420 1262l232 376h180l-307 -376h-105z" />
<glyph unicode="&#xfb;" horiz-adv-x="1185" d="M49 956v107h316v-619q0 -195 43 -266.5t153 -71.5q113 0 174.5 94.5t61.5 272.5v483h-146v107h312v-957h155v-106h-321v188q-45 -106 -119 -161.5t-170 -55.5q-160 0 -234 101q-76 104 -75 315v569h-150zM240 1262l211 376h152l211 -376h-105l-182 260l-182 -260h-105z " />
<glyph unicode="&#xfc;" horiz-adv-x="1185" d="M49 956v107h316v-619q0 -195 43 -266.5t153 -71.5q113 0 174.5 94.5t61.5 272.5v483h-146v107h312v-957h155v-106h-321v188q-45 -106 -119 -161.5t-170 -55.5q-160 0 -234 101q-76 104 -75 315v569h-150zM246 1452q0 45 33 82q31 35 72 35q45 0 75.5 -35t30.5 -82 q0 -51 -30.5 -84t-75.5 -33q-43 0 -74 33t-31 84zM596 1452q0 47 31 82t76 35q43 0 73.5 -35t30.5 -82q0 -51 -30.5 -84t-73.5 -33q-45 0 -76 33t-31 84z" />
<glyph unicode="&#xfd;" horiz-adv-x="1040" d="M-4 956v107h438v-107h-151l268 -731l268 731h-141v107h358v-107h-106l-441 -1196q-43 -125 -98 -170q-53 -45 -155 -45q-45 0 -86 9q-55 12 -91 22v203h84q6 -68 31 -98q23 -29 82 -29q47 0 78 31q29 29 63 122l64 177l-357 974h-108zM415 1262l232 376h180l-307 -376 h-105z" />
<glyph unicode="&#xfe;" horiz-adv-x="1177" d="M53 -319h160v1769h-160v106h326v-659q49 101 123 147q76 47 186 48q176 0 287 -154q113 -156 112 -406q0 -246 -112 -405q-111 -156 -287 -156q-111 0 -186 47q-74 46 -123 148v-485h156v-107h-482v107zM379 479q0 -190 65 -293q63 -100 192.5 -100t192.5 113 q66 115 66 334t-65.5 331.5t-192.5 112.5q-129 0 -193 -100q-66 -102 -65 -293v-105z" />
<glyph unicode="&#xff;" horiz-adv-x="1040" d="M-4 956v107h438v-107h-151l268 -731l268 731h-141v107h358v-107h-106l-441 -1196q-43 -125 -98 -170q-53 -45 -155 -45q-45 0 -86 9q-55 12 -91 22v203h84q6 -68 31 -98q23 -29 82 -29q47 0 78 31q29 29 63 122l64 177l-357 974h-108zM241 1452q0 45 33 82q31 35 72 35 q45 0 75.5 -35t30.5 -82q0 -51 -30.5 -84t-75.5 -33q-43 0 -74 33t-31 84zM591 1452q0 47 31 82t76 35q43 0 73.5 -35t30.5 -82q0 -51 -30.5 -84t-73.5 -33q-45 0 -76 33t-31 84z" />
<glyph unicode="&#x131;" horiz-adv-x="587" d="M391 106h156v-106h-479v106h157v850h-157v107h323v-957z" />
<glyph unicode="&#x152;" horiz-adv-x="2095" d="M106 750q0 348 195 546q194 197 541 197h1091v-332h-110v209h-619v-500h445v187h108v-496h-108v187h-445v-625h633v209h111v-332h-1106q-346 0 -541 199t-195 551zM313 750q0 -313 140 -478q141 -166 401 -166h170v1280h-170q-262 0 -401.5 -163.5t-139.5 -472.5z" />
<glyph unicode="&#x153;" horiz-adv-x="1820" d="M92 532q0 250 127 406q125 154 336 154q119 0 211 -50q90 -47 156 -145q63 94 155 145q90 49 201 50q215 0 332 -148q115 -145 121 -432h-713v-8q0 -217 72 -324q74 -111 215 -110q109 0 178 63q72 66 98 189h133q-39 -174 -145.5 -262.5t-280.5 -88.5q-117 0 -209 49 q-98 53 -159 146q-61 -94 -156 -146q-92 -49 -209 -49q-211 0 -336 154q-127 155 -127 407zM285 532q0 -225 69 -346q68 -117 201 -116.5t200.5 117t67.5 345.5q0 227 -67.5 344t-200.5 117q-135 0 -202.5 -117t-67.5 -344zM1018 618h518q-6 184 -72 281q-63 94 -186 94 q-115 0 -180.5 -96.5t-79.5 -278.5z" />
<glyph unicode="&#x178;" horiz-adv-x="1214" d="M-20 1386v107h499v-107h-157l335 -604l336 604h-151v107h391v-107h-127l-404 -724v-556h172v-106h-526v106h172v537l-416 743h-124zM432 1884q45 0 76 -34.5t31 -81.5q0 -51 -31 -84t-76 -33q-43 0 -73.5 32.5t-30.5 84.5q0 47 30.5 81.5t73.5 34.5zM784 1884 q41 0 72 -34q33 -37 33 -82q0 -51 -31 -84t-74 -33q-45 0 -75.5 32.5t-30.5 84.5q0 47 30.5 81.5t75.5 34.5z" />
<glyph unicode="&#x2c6;" horiz-adv-x="919" d="M174 1262l211 376h152l211 -376h-105l-182 260l-182 -260h-105z" />
<glyph unicode="&#x2da;" horiz-adv-x="919" d="M707 1524q0 -113 -72 -195q-70 -80 -174.5 -80t-175.5 80q-72 82 -72 194.5t72 194.5q72 80 176 80t174 -80q72 -81 72 -194zM598 1524q0 61 -41 106t-96 45q-58 0 -99 -43q-39 -41 -38.5 -108.5t38.5 -108.5q40 -43 99 -43q55 0 96 43q41 46 41 109z" />
<glyph unicode="&#x2dc;" horiz-adv-x="919" d="M164 1309q4 139 47 209q46 74 129 73q37 0 63 -14q33 -18 62 -47l51 -55q25 -25 35 -31q14 -8 35 -8q39 0 61 41q20 39 25 114h86q-4 -139 -47 -209q-46 -74 -129 -73q-37 0 -64 14q-33 18 -61 47l-51 55q-25 25 -39 31q-20 8 -31 8q-39 0 -60 -39q-20 -37 -26 -116h-86z " />
<glyph unicode="&#x2000;" horiz-adv-x="948" />
<glyph unicode="&#x2001;" horiz-adv-x="1900" />
<glyph unicode="&#x2002;" horiz-adv-x="948" />
<glyph unicode="&#x2003;" horiz-adv-x="1900" />
<glyph unicode="&#x2004;" horiz-adv-x="632" />
<glyph unicode="&#x2005;" horiz-adv-x="473" />
<glyph unicode="&#x2006;" horiz-adv-x="315" />
<glyph unicode="&#x2007;" horiz-adv-x="315" />
<glyph unicode="&#x2008;" horiz-adv-x="235" />
<glyph unicode="&#x2009;" horiz-adv-x="378" />
<glyph unicode="&#x200a;" horiz-adv-x="104" />
<glyph unicode="&#x2010;" horiz-adv-x="620" d="M82 471v156h461v-156h-461z" />
<glyph unicode="&#x2011;" horiz-adv-x="620" d="M82 471v156h461v-156h-461z" />
<glyph unicode="&#x2012;" horiz-adv-x="620" d="M82 471v156h461v-156h-461z" />
<glyph unicode="&#x2013;" horiz-adv-x="919" d="M82 477v133h760v-133h-760z" />
<glyph unicode="&#x2014;" horiz-adv-x="1841" d="M82 477v133h1679v-133h-1679z" />
<glyph unicode="&#x2018;" horiz-adv-x="583" d="M188 1014q0 170 58 295q55 119 178 211l70 -80q-72 -68 -101 -150q-31 -86 -31 -213v-63h-174z" />
<glyph unicode="&#x2019;" horiz-adv-x="583" d="M129 1067q76 70 104 150q31 86 31 215v61h174q0 -170 -57 -295q-53 -117 -180 -211z" />
<glyph unicode="&#x201a;" horiz-adv-x="583" d="M82 -199q80 63 123 162q41 94 41 227v37h176q-6 -168 -71.5 -292.5t-196.5 -213.5z" />
<glyph unicode="&#x201c;" horiz-adv-x="940" d="M188 1014q0 170 58 295q55 119 178 211l70 -80q-72 -68 -101 -150q-31 -86 -31 -213v-63h-174zM545 1014q0 175 55 295q55 119 178 211l72 -80q-72 -68 -100 -150q-31 -86 -31 -213v-63h-174z" />
<glyph unicode="&#x201d;" horiz-adv-x="940" d="M129 1067q76 70 104 150q31 86 31 215v61h174q0 -170 -57 -295q-53 -117 -180 -211zM489 1067q68 66 99 150q31 86 30 213v63h177q0 -170 -58 -295q-53 -115 -178 -211z" />
<glyph unicode="&#x201e;" horiz-adv-x="952" d="M82 -199q80 63 123 162q41 94 41 227v37h176q-6 -168 -71.5 -292.5t-196.5 -213.5zM436 -199q84 66 125 162q39 90 39 227v37h178q-6 -168 -71 -293q-63 -123 -199 -213z" />
<glyph unicode="&#x2022;" horiz-adv-x="1085" d="M276 762q0 121 78 209q77 86 191 86q111 0 188 -86q78 -88 78 -209q0 -123 -78 -211q-78 -86 -188 -86q-114 0 -191 86q-78 88 -78 211z" />
<glyph unicode="&#x2026;" horiz-adv-x="1841" d="M188 104q0 53 35 95q33 39 84 39q49 0 86 -39q35 -37 35 -94.5t-35 -94.5q-37 -39 -86 -39q-53 0 -86 39t-33 94zM803 104q0 55 32.5 94.5t86.5 39.5q51 0 84 -39q35 -41 34.5 -94.5t-34.5 -94.5q-33 -39 -84 -39q-53 0 -86 39t-33 94zM1415 104q0 53 35 95q33 39 86 39 q51 0 84 -39q35 -41 35 -94.5t-35 -94.5q-33 -39 -84 -39q-53 0 -86 39q-35 41 -35 94z" />
<glyph unicode="&#x202f;" horiz-adv-x="378" />
<glyph unicode="&#x2039;" horiz-adv-x="735" d="M141 559v82l422 418v-115l-266 -344l266 -344v-115z" />
<glyph unicode="&#x203a;" horiz-adv-x="735" d="M174 141v115l266 344l-266 344v115l422 -418v-82z" />
<glyph unicode="&#x2044;" horiz-adv-x="305" d="M510 1520h135l-848 -1549h-135z" />
<glyph unicode="&#x205f;" horiz-adv-x="473" />
<glyph unicode="&#x2074;" horiz-adv-x="737" d="M406 971v407l-277 -407h277zM666 668h-392v84h132v137h-359v84l361 530h127v-532h147v-82h-147v-137h131v-84z" />
<glyph unicode="&#x20ac;" d="M-6 539l39 104h123q0 4 -1 17.5t-1 21.5q-2 33 -2 63v58q0 18 4 47h-162l39 104h131q43 266 164 414q123 152 293 152q89 0 178 -31q88 -31 202 -100v-342h-96q-18 178 -85.5 276t-180.5 98q-121 0 -195 -118q-76 -125 -94 -349h455l-43 -104h-418q0 -4 -1 -16.5 t-1 -20.5v-68v-43v-59h338l-41 -104h-289q20 -229 94 -349q74 -121 195 -120q104 0 172 84q68 82 92 241h121q-37 -203 -143 -315q-102 -109 -260 -109q-170 0 -293 152q-121 147 -164 416h-170z" />
<glyph unicode="&#x2122;" horiz-adv-x="1841" d="M217 1323v170h502v-170h-62v104h-137v-446h78v-66h-258v66h78v446h-142v-104h-59zM797 915v66h77v446h-77v66h209l157 -270l162 270h199v-66h-78v-446h78v-66h-258v66h77v426l-188 -311h-39l-178 311v-426h76v-66h-217z" />
<glyph unicode="&#xe000;" horiz-adv-x="1065" d="M0 1065h1065v-1065h-1065v1065z" />
<glyph unicode="&#xfb01;" horiz-adv-x="1228" d="M68 0v106h157v850h-157v107h157v96q0 197 105 297q102 100 311 100q66 0 162 -14q86 -12 162 -39v-217h-86q-4 86 -58 129q-55 43 -166 43q-135 0 -200 -72q-63 -70 -64 -223v-100h639v-957h158v-106h-481v106h157v850h-473v-850h156v-106h-479z" />
<glyph unicode="&#xfb02;" horiz-adv-x="1228" d="M68 0v106h157v850h-157v107h157v96q0 201 106.5 299t327.5 98h359v-1450h156v-106h-482v106h160v1344h-195q-145 0 -206 -66q-59 -61 -60 -221v-100h264v-107h-264v-850h156v-106h-479z" />
<glyph unicode="&#xfb03;" horiz-adv-x="1892" d="M66 0v106h157v850h-157v107h157v133q0 174 84 268q82 92 244 92q59 0 121 -12q59 -12 119 -37v-202h-86q0 72 -39 114q-37 39 -109 39q-92 0 -131 -57q-37 -55 -37 -201v-137h502v96q0 197 104 297q102 100 312 100q63 0 159 -14q86 -12 162 -39v-217h-84q-4 86 -57 129 q-55 43 -166 43q-135 0 -201 -72q-63 -70 -63 -223v-100h639v-957h155v-106h-481v106h160v850h-473v-850h155v-106h-481v106h160v850h-502v-850h211v-106h-534z" />
<glyph unicode="&#xfb04;" horiz-adv-x="1898" d="M63 0v106h158v850h-158v107h158v133q0 174 84 268q84 92 244 92q59 0 121 -12q59 -12 118 -37v-202h-86q0 72 -38 114q-37 39 -109 39q-90 0 -129 -57.5t-39 -200.5v-137h500v96q0 201 106 299q109 98 328 98h356v-1450h158v-106h-481v106h159v1344h-194q-145 0 -207 -66 q-59 -61 -59 -221v-100h266v-107h-266v-850h155v-106h-481v106h160v850h-500v-850h211v-106h-535z" />
<glyph horiz-adv-x="0" d="M-637 1511q45 0 76 -34.5t31 -81.5q0 -51 -31 -84t-76 -33q-43 0 -73.5 32.5t-30.5 84.5q0 47 30.5 81.5t73.5 34.5zM-285 1511q41 0 72 -34q33 -37 33 -82q0 -51 -31 -84t-74 -33q-45 0 -75.5 32.5t-30.5 84.5q0 47 30.5 81.5t75.5 34.5z" />
<glyph horiz-adv-x="0" d="M-403 1526h176l-236 -264h-104z" />
<glyph horiz-adv-x="0" d="M-471 1341l-45 29q-25 16 -37 21q-18 6 -33 6q-35 0 -59 -29q-23 -27 -27 -74h-86q4 104 47 160q47 59 123 59q29 0 60 -10q33 -10 77 -39l45 -26q29 -16 41 -21q18 -6 35 -6q37 0 57.5 26.5t20.5 75.5h88q-2 -102 -49 -161q-45 -57 -129 -58q-63 0 -127 45z" />
<glyph horiz-adv-x="0" d="M-524 1526l166 -264h-107l-235 264h176z" />
<glyph horiz-adv-x="0" d="M-541 1526h158l209 -264h-105l-182 161l-182 -161h-105z" />
</font>
</defs>
</svg>
