<?xml version="1.0" standalone="no"?>
<!DOCTYPE svg PUBLIC "-//W3C//DTD SVG 1.1//EN" "http://www.w3.org/Graphics/SVG/1.1/DTD/svg11.dtd" >
<svg xmlns="http://www.w3.org/2000/svg">
<metadata>
This is a custom SVG webfont generated by Font Squirrel.
Copyright   : Copyright c 2003 by Bitstream Inc All Rights ReservedDejaVu changes are in public domain
Foundry     : DejaVu fonts team
Foundry URL : httpdejavusourceforgenet
</metadata>
<defs>
<font id="webfontJH4vsdND" horiz-adv-x="1280" >
<font-face units-per-em="2048" ascent="1556" descent="-492" />
<missing-glyph horiz-adv-x="638" />
<glyph unicode=" "  horiz-adv-x="638" />
<glyph unicode="&#x09;" horiz-adv-x="638" />
<glyph unicode="&#xa0;" horiz-adv-x="638" />
<glyph unicode="!" horiz-adv-x="808" d="M133 162q16 80 74 135q59 55 131 55q71 0 111 -55q43 -57 26 -135q-12 -80 -73.5 -135.5t-131.5 -55.5q-71 0 -110 56q-41 57 -27 135zM295 461l33 190l41 842h338l-254 -842l-33 -190h-125z" />
<glyph unicode="&#x22;" horiz-adv-x="958" d="M176 938v555h213v-555h-213zM571 938v555h213v-555h-213z" />
<glyph unicode="#" horiz-adv-x="1542" d="M125 383v215h295l63 274h-254v213h303l86 385h201l-86 -385h238l88 385h198l-88 -385h250v-213h-297l-61 -274h256v-215h-303l-86 -383h-201l86 383h-235l-89 -383h-198l86 383h-252zM621 598h237l64 274h-238z" />
<glyph unicode="$" d="M76 59l51 291h109q-10 -135 49 -200.5t188 -65.5h14l70 405q-217 55 -295 150q-80 94 -51 258q31 178 160 282.5t327 110.5l47 269h109l-47 -269q94 -6 188.5 -28.5t167.5 -59.5l-47 -272h-108q6 117 -51.5 180.5t-170.5 67.5l-63 -373q229 -57 311 -158q80 -98 49 -280 q-31 -184 -164 -287t-344 -109l-47 -270h-108l47 270q-98 3 -197 25q-98 22 -194 63zM485 1022q-12 -70 19 -113q33 -45 114 -71l60 340q-80 -12 -129 -54q-52 -43 -64 -102zM596 84q92 12 147.5 55t67.5 117q12 72 -23 123q-31 45 -126 78z" />
<glyph unicode="%" horiz-adv-x="1748" d="M108.5 1114q34.5 199 143.5 301q111 104 280 105q172 0 246 -105q74 -102 39 -301t-145.5 -303t-280.5 -104t-243.5 104t-39 303zM244 -29l1110 1549h155l-1112 -1549h-153zM338 877q12 -70 72 -70q57 0 94 70q41 78 67 237q29 168 17 236q-12 70 -71.5 69.5t-96.5 -69.5 q-39 -74 -66 -236q-28 -169 -16 -237zM936 379q35 199 143 301q111 104 281 104t244 -104q74 -102 38 -301q-35 -201 -143 -303q-111 -104 -282 -105q-170 0 -244 105q-72 100 -37 303zM1163 141q12 -70 71.5 -69.5t96.5 69.5q39 74 66 238q29 160 16 235q-12 70 -71.5 70 t-96.5 -70q-39 -74 -65 -235q-31 -160 -17 -238z" />
<glyph unicode="&#x26;" horiz-adv-x="1662" d="M12 352q0 41 11 99q27 160 127 278q98 117 278 199q-35 72 -47 129q-6 33 -6 65q0 18 4 52q27 162 168 256q135 90 364 90q68 0 154 -13q72 -10 195 -34l-56 -312h-117q0 6 1.5 14.5t1.5 14.5q0 100 -39 151q-43 57 -138 58q-92 0 -151 -47q-61 -49 -76 -131 q-2 -8 -2 -23q0 -90 115 -252q8 -12 14 -19t8 -9l330 -482q68 72 113 158q47 90 73 201l21 120h287l-23 -120h-158q-39 -145 -100 -258q-63 -119 -143 -201l147 -215h154l-23 -121h-430l-90 131q-106 -82 -221 -121t-246 -39q-272 0 -399 127q-101 98 -101 254zM344 426 q0 -109 55 -188q78 -109 226 -109q68 0 139 25q76 27 145 75l-403 588q-59 -66 -100 -143q-37 -72 -54 -158q-8 -41 -8 -90z" />
<glyph unicode="'" horiz-adv-x="563" d="M176 938v555h213v-555h-213z" />
<glyph unicode="(" horiz-adv-x="870" d="M174 618q61 346 247.5 575.5t518.5 362.5l-20 -120q-160 -94 -256 -285q-94 -184 -156 -533q-61 -344 -31 -532q31 -190 156 -285l-21 -120q-285 127 -391 358q-108 235 -47 579z" />
<glyph unicode=")" horiz-adv-x="870" d="M-70 -319l21 120q158 94 254 285q94 184 155 532q61 344 31 533q-31 193 -153 285l20 120q285 -133 391 -362q109 -231 47 -576q-61 -348 -249.5 -579t-516.5 -358z" />
<glyph unicode="*" horiz-adv-x="962" d="M41 874l324 170l-324 168l88 158l295 -242l-25 392h164l-22 -392l295 242l88 -158l-326 -168l326 -170l-88 -155l-295 239l22 -389h-164l25 389l-295 -239z" />
<glyph unicode="+" horiz-adv-x="1542" d="M195 528v230h475v526h207v-526h473v-230h-473v-526h-207v526h-475z" />
<glyph unicode="," horiz-adv-x="638" d="M-8 -197q109 84 170 189q66 111 88 241l14 86h256l-2 -8q-41 -223 -149 -381q-111 -160 -303 -268z" />
<glyph unicode="-" horiz-adv-x="763" d="M76 414l49 270h563l-47 -270h-565z" />
<glyph unicode="." horiz-adv-x="638" d="M150 162q16 84 73 135q61 55 131 55q71 0 111 -55q43 -57 27 -135q-12 -80 -74 -135.5t-131 -55.5q-71 0 -111 56q-38 53 -26 135z" />
<glyph unicode="/" horiz-adv-x="671" d="M-147 -190l768 1683h198l-768 -1683h-198z" />
<glyph unicode="0" d="M86 745q63 375 244 576q178 199 446 199q270 0 377 -199q109 -201 43 -576q-63 -375 -244 -575q-178 -199 -446 -199q-270 0 -377 199q-109 200 -43 575zM397 197q23 -109 129 -109q109 0 168 109q57 106 135 548q77 436 56 547q-20 111 -127 111q-109 0 -168 -109 q-57 -106 -135 -549q-78 -446 -58 -548z" />
<glyph unicode="1" d="M121 0l20 121h252l211 1208l-311 -184l24 149l377 226h285l-246 -1399h254l-20 -121h-846z" />
<glyph unicode="2" d="M-10 0l43 244l225 153q295 199 399 332q109 141 140 320q31 174 -18.5 264t-172.5 90q-104 0 -182 -72q-76 -70 -117 -207h-108l57 322q119 37 225 55q111 18 221 19q258 0 381 -117t86 -324q-25 -147 -125 -266t-352 -278l-422 -273h635l33 176h123l-78 -438h-993z" />
<glyph unicode="3" d="M6 51l60 328h106q-16 -143 43 -217t182 -74q139 0 226 84q89 86 116 240q27 160 -34 250q-61 88 -205 88h-60l23 120h47q129 0 209 68q78 66 102 203q23 129 -28 194q-51 68 -168 68q-106 0 -179 -64q-74 -66 -108 -188h-109l54 299q135 37 239 53q100 16 219 17 q242 0 357 -97q113 -94 82 -276q-25 -137 -113 -219q-92 -86 -240 -113q172 -31 240 -133q70 -104 39 -279q-37 -211 -207 -321.5t-450 -110.5q-113 0 -216 21q-129 26 -227 59z" />
<glyph unicode="4" d="M10 393l23 115l737 1012h340l-174 -998h229l-22 -129h-232l-47 -272h201l-23 -121h-739l23 121h198l47 272h-561zM195 522h401l125 725z" />
<glyph unicode="5" d="M33 53l55 326h109q-23 -147 30.5 -219t175.5 -72q129 0 213 98q83 98 117 301q35 203 -10 297q-46 98 -172 99q-68 0 -127 -31q-57 -31 -119 -98h-90l131 739h828l-48 -262h-718l-58 -328q70 53 146 78q78 25 159 25q246 0 367 -139.5t78 -379.5q-43 -248 -211 -381 q-168 -135 -426 -135q-115 0 -215 21q-121 24 -215 61z" />
<glyph unicode="6" d="M109 698q71 406 264 615q193 207 504 207q86 0 170 -15q96 -16 190 -45l-45 -264h-109q-2 98 -57 154q-53 53 -154 53q-160 0 -251 -123q-94 -127 -144 -395q70 53 146 78q84 27 161 26q206 0 301 -135q94 -133 54 -367q-43 -244 -201 -381q-156 -135 -397 -135 q-276 0 -387 185q-111 182 -45 542zM424 176q25 -88 115 -88t147 88q57 90 94 303q37 217 13 303q-25 88 -117 88q-90 0 -148 -88q-55 -86 -92 -303t-12 -303z" />
<glyph unicode="7" d="M193 1008l83 485h984l-43 -254l-773 -1239h-182l752 1210h-664l-35 -202h-122z" />
<glyph unicode="8" d="M35 397q27 164 129 267q104 104 266 131q-137 37 -190 120q-53 82 -31 215q33 188 176 289t389 101t354 -101q111 -102 78 -289q-20 -127 -108 -215q-84 -84 -234 -120q156 -27 221 -131q63 -100 37 -267q-37 -207 -194 -315q-160 -111 -424 -111q-262 0 -385 111 q-121 108 -84 315zM393 158q31 -70 131 -70q102 0 157.5 69.5t86.5 256.5q31 188 2 252q-31 70 -131 69q-104 0 -158 -69q-55 -72 -86 -252q-33 -184 -2 -256zM551 911q25 -59 108.5 -59t126.5 59q45 59 72 215q29 160 4 217q-25 59 -106 60q-86 0 -129 -59.5t-72 -217.5 t-4 -215z" />
<glyph unicode="9" d="M43 31l47 264h109q6 -100 59 -153.5t154 -53.5q158 0 250 123q96 127 143 397q-68 -51 -146 -80q-74 -27 -161 -26q-203 0 -299 133q-94 131 -54 369q43 246 199 382q152 133 397 134q276 0 387 -185q109 -182 48 -542q-70 -403 -267 -615q-193 -207 -503 -207 q-86 0 -170 15q-103 18 -193 45zM489 709q25 -88 117 -88q90 0 148 88q57 90 94 303q37 217 12 303q-25 88 -117 88q-90 0 -147 -88q-55 -86 -92 -303q-38 -221 -15 -303z" />
<glyph unicode=":" horiz-adv-x="679" d="M113 162q16 80 73 135q58 55 129 55t111 -55q43 -57 27 -135q-12 -80 -74 -135.5t-129 -55.5q-71 0 -111 56q-40 57 -26 135zM225 813q15 80 74 135q57 55 131 56q71 0 111 -56q39 -55 26 -135q-12 -78 -73.5 -133t-131.5 -55q-71 0 -110 55q-41 57 -27 133z" />
<glyph unicode=";" horiz-adv-x="679" d="M-43 -188q111 86 170 186q61 104 86 242l16 88h256q-39 -223 -151 -387q-109 -162 -303 -271zM252 813q16 84 74 135q61 55 131 56q71 0 110 -56q39 -55 27 -135q-12 -74 -74 -133q-57 -55 -131 -55q-71 0 -110 55t-27 133z" />
<glyph unicode="&#x3c;" horiz-adv-x="1542" d="M195 530v226l1155 463v-240l-881 -338l881 -336v-239z" />
<glyph unicode="=" horiz-adv-x="1542" d="M195 301v227h1155v-227h-1155zM195 756v227h1155v-227h-1155z" />
<glyph unicode="&#x3e;" horiz-adv-x="1542" d="M195 66v239l880 336l-880 338v240l1155 -463v-226z" />
<glyph unicode="?" horiz-adv-x="1079" d="M190 1145l54 307q109 31 221 51q92 16 199 17q225 0 327 -111q104 -113 68 -315q-33 -199 -174 -318q-139 -117 -361 -135l-37 -205h-125l54 299q133 43 207 135q76 94 102 246q25 145 -16 217q-43 74 -150 74q-98 0 -163.5 -65.5t-96.5 -196.5h-109zM207 162 q12 82 72 135q61 55 131 55q74 0 112.5 -55t26.5 -135q-16 -84 -74 -135q-61 -55 -133 -56q-68 0 -109 56q-40 57 -26 135z" />
<glyph unicode="@" horiz-adv-x="1841" d="M119 186q-31 168 2 357q34 190 123 356q88 166 223 291q139 127 295 188.5t344 61.5q160 0 283 -49q125 -51 208 -146q100 -111 135 -254t5 -315q-49 -279 -217 -430q-168 -154 -426 -154h-27l25 148q-55 -76 -123 -111q-72 -37 -152 -37q-172 0 -250 121 q-76 119 -39 330q37 215 154 331q119 119 293 119q76 0 137 -39q57 -37 86 -108l23 125h196l-131 -742q139 41 227 156q90 119 121 293q25 141 -3.5 260t-112.5 213q-68 78 -175 121q-100 41 -231 41q-113 0 -223 -35q-98 -31 -205 -104q-143 -104 -244 -271 q-100 -164 -133 -360q-27 -143 -6 -293q18 -131 82 -238q76 -119 190.5 -180t260.5 -61q109 0 219 34q113 35 213 101l34 -94q-125 -80 -262 -125q-133 -43 -262 -43q-174 0 -307 63q-137 66 -227 189q-92 122 -123 290zM745.5 542.5q-24.5 -151.5 12.5 -235.5 q39 -88 129 -88q92 0 160 78q72 80 92 207l12 76q23 133 -18 208q-41 78 -134 78q-88 0 -159 -88q-70 -84 -94.5 -235.5z" />
<glyph unicode="A" horiz-adv-x="1429" d="M-145 0l20 121h111l745 1372h215l268 -1372h127l-20 -121h-631l23 121h131l-58 305h-505l-164 -305h159l-20 -121h-401zM346 547h418l-109 571z" />
<glyph unicode="B" horiz-adv-x="1556" d="M-43 0l20 121h173l219 1251h-172l20 121h797q244 0 352 -92q84 -72 84 -196q0 -38 -8 -81q-20 -131 -123 -211q-98 -78 -268 -98q199 -20 288 -121q68 -75 68 -188q0 -35 -6 -74q-41 -225 -207 -328q-170 -104 -492 -104h-745zM496 121h129q174 0 268 76q96 78 123 235 q8 47 8 87q0 97 -49 153q-70 78 -242 78h-129zM627 870h116q156 0 242 61.5t109 192.5q5 32 5 61q0 84 -46 128q-63 59 -222 59h-116z" />
<glyph unicode="C" horiz-adv-x="1466" d="M78 745q63 356 296.5 565.5t573.5 209.5q121 0 244 -31q117 -29 258 -98l-66 -367h-112q-4 188 -80 281q-78 94 -227 94q-197 0 -320 -160q-123 -162 -182 -494q-28 -156 -28 -274q0 -135 36 -219q68 -160 266 -160q137 0 234 82q102 86 168 252h180q-96 -231 -252 -342 q-160 -113 -389 -113q-342 0 -502 209q-115 151 -115 379q0 87 17 186z" />
<glyph unicode="D" horiz-adv-x="1597" d="M-43 0l20 121h173l219 1251h-172l20 121h688q362 0 520 -193q114 -139 115 -363q0 -89 -18 -189q-66 -365 -289 -555q-225 -193 -588 -193h-688zM496 121h125q211 0 333 149q125 152 183 478q26 143 25 252q0 138 -40 223q-70 150 -282 149h-125z" />
<glyph unicode="E" horiz-adv-x="1402" d="M-43 0l20 121h173l219 1251h-172l20 121h1208l-61 -352h-125l39 215h-567l-82 -479h352l33 190h123l-90 -516h-125l34 190h-352l-106 -604h581l39 215h123l-61 -352h-1223z" />
<glyph unicode="F" horiz-adv-x="1306" d="M-43 0l20 121h173l219 1251h-172l20 121h1198l-61 -352h-123l37 215h-555l-84 -479h342l33 190h122l-90 -516h-123l33 190h-340l-108 -620h211l-21 -121h-731z" />
<glyph unicode="G" horiz-adv-x="1572" d="M78 745q63 362 297 568q236 207 579 207q144 0 277 -31q127 -29 264 -98l-63 -367h-115q-6 201 -84 287q-80 88 -252 88q-207 0 -334 -158q-125 -156 -184 -496q-28 -159 -28 -279q0 -133 34 -216q63 -158 264 -158q76 0 144 19q61 16 129 57l71 410h-162l21 120h483 l-98 -573q-178 -82 -324 -117q-158 -37 -315 -37q-342 0 -506 207q-117 147 -116 375q0 90 18 192z" />
<glyph unicode="H" horiz-adv-x="1740" d="M-43 0l20 121h173l219 1251h-172l20 121h690l-20 -121h-172l-88 -502h534l88 502h-172l21 121h692l-23 -121h-172l-219 -1251h172l-20 -121h-690l20 121h172l107 612h-535l-106 -612h172l-21 -121h-690z" />
<glyph unicode="I" horiz-adv-x="860" d="M-43 0l20 121h173l219 1251h-172l20 121h690l-20 -121h-172l-219 -1251h172l-21 -121h-690z" />
<glyph unicode="J" horiz-adv-x="870" d="M-291 -358l41 235h117q-4 -28 -4 -51q0 -55 20 -86q29 -45 94 -45q89 0 136 74q47 76 84 280l231 1323h-195l21 121h717l-23 -121h-172l-231 -1331q-43 -242 -174 -354.5t-371 -112.5q-80 0 -145 16q-80 21 -146 52z" />
<glyph unicode="K" horiz-adv-x="1601" d="M-43 0l20 121h173l219 1251h-172l20 121h690l-20 -121h-172l-97 -545l666 545h-143l20 121h502l-23 -121h-178l-563 -461l518 -790h131l-20 -121h-455l-473 725l-104 -604h172l-21 -121h-690z" />
<glyph unicode="L" horiz-adv-x="1294" d="M-43 0l20 121h173l219 1251h-172l20 121h690l-20 -121h-172l-217 -1235h528l43 236h121l-66 -373h-1167z" />
<glyph unicode="M" horiz-adv-x="2039" d="M-53 0l20 121h172l219 1251h-172l23 121h553l217 -958l553 958h553l-23 -121h-172l-217 -1251h170l-20 -121h-690l20 121h170l201 1139l-598 -1041h-230l-231 1041l-201 -1139h172l-20 -121h-469z" />
<glyph unicode="N" horiz-adv-x="1683" d="M-49 0l20 121h172l219 1251h-172l23 121h420l624 -1057l164 936h-170l21 121h471l-23 -121h-172l-239 -1372h-236l-635 1079l-168 -958h170l-20 -121h-469z" />
<glyph unicode="O" horiz-adv-x="1603" d="M78 745q66 362 293 568q231 207 567 207q340 0 496 -205q111 -146 111 -371q0 -93 -19 -199q-66 -369 -291 -569q-229 -205 -569 -205t-496 205q-111 146 -111 371q0 92 19 198zM461 254q55 -162 227 -162q170 0 282.5 162t170.5 491q29 167 29 293q0 120 -27 199 q-55 162 -228 162q-170 0 -282 -162q-111 -160 -170 -492q-29 -166 -30 -290q1 -120 28 -201z" />
<glyph unicode="P" horiz-adv-x="1384" d="M-43 0l20 121h173l219 1251h-172l20 121h764q225 0 336 -119q86 -93 85 -230q0 -42 -7 -87q-33 -199 -189 -320q-152 -119 -377 -119h-247l-86 -497h217l-23 -121h-733zM602 739h103q115 0 200.5 86t110.5 232q8 47 8 87q0 85 -37 142q-55 86 -172 86h-100z" />
<glyph unicode="Q" horiz-adv-x="1603" d="M92 549q0 92 19 196q66 362 292 568q231 207 568 207q340 0 495 -205q111 -147 111 -375q0 -90 -18 -195q-55 -317 -238 -516q-184 -201 -465 -245q35 -57 102 -82q145 -57 271 -58h172l-43 -245h-154q-223 0 -366 114q-100 82 -144 258q-340 6 -493 209 q-109 146 -109 369zM467 455q0 -123 27 -201q55 -162 227 -162q170 0 282.5 162t170.5 491q29 176 28.5 295t-26.5 197q-55 162 -228 162q-170 0 -282 -162q-111 -160 -170 -492q-29 -171 -29 -290z" />
<glyph unicode="R" horiz-adv-x="1529" d="M-43 0l20 121h173l219 1251h-172l20 121h766q238 0 344 -104q84 -81 84 -214q0 -40 -8 -83q-28 -157 -135 -246q-113 -92 -293 -117q78 -12 125 -59t71 -133l123 -416h140l-23 -121h-440l-135 451q-35 133 -76 178q-37 39 -115 39h-53l-96 -547h172l-21 -121h-690z M612 788h117q131 0 209 76q80 78 104 217q8 46 8 85q0 81 -36 130q-57 76 -183 76h-116z" />
<glyph unicode="S" horiz-adv-x="1329" d="M25 72l61 354h115v-12q0 -160 80 -240q82 -82 254 -82q139 0 223 59.5t102 172.5q4 25 4 47q0 59 -28 94q-39 49 -189 92l-192 55q-186 55 -250 156q-41 66 -41 169q0 52 10 114q41 223 194.5 346t393.5 123q113 0 242 -23q117 -20 251 -65l-57 -330h-115q0 158 -73 225 q-78 72 -240 72q-135 0 -211 -51.5t-94 -153.5q-5 -28 -5 -52q0 -56 27 -89q39 -49 211 -101l193 -55q180 -53 244 -162q42 -73 42 -180q0 -56 -12 -123q-39 -227 -200 -344q-160 -117 -435 -117q-129 0 -255.5 25t-249.5 76z" />
<glyph unicode="T" horiz-adv-x="1370" d="M86 1120l66 373h1331l-66 -373h-121l41 236h-370l-215 -1235h178l-21 -121h-706l20 121h180l215 1235h-366l-43 -236h-123z" />
<glyph unicode="U" horiz-adv-x="1605" d="M174 1372l23 121h690l-21 -121h-172l-131 -747q-22 -125 -22 -217q0 -111 32 -172q59 -113 248 -113q186 0 285 113q96 111 145 389l131 747h-172l23 121h467l-21 -121h-172l-135 -768q-61 -346 -219 -487q-162 -145 -471 -146q-313 0 -422 148q-69 95 -69 267 q0 98 22 220l133 766h-172z" />
<glyph unicode="V" horiz-adv-x="1429" d="M98 1372l23 121h629l-21 -121h-131l190 -989l537 989h-160l23 121h399l-20 -121h-115l-745 -1372h-215l-267 1372h-127z" />
<glyph unicode="W" horiz-adv-x="2068" d="M92 1372l23 121h637l-23 -121h-143l96 -917l471 1038h256l111 -1055l426 934h-160l20 121h416l-20 -121h-140l-622 -1372h-232l-114 1087l-496 -1087h-231l-144 1372h-131z" />
<glyph unicode="X" horiz-adv-x="1429" d="M-96 0l20 121h164l455 571l-301 680h-123l20 121h668l-21 -121h-147l186 -420l330 420h-156l23 121h467l-21 -121h-165l-426 -536l315 -715h127l-21 -121h-671l20 121h152l-203 454l-360 -454h165l-20 -121h-477z" />
<glyph unicode="Y" horiz-adv-x="1314" d="M92 1372l23 121h645l-23 -121h-149l203 -569l401 569h-135l20 121h385l-20 -121h-115l-493 -702l-97 -549h181l-21 -121h-711l21 121h180l88 497l-266 754h-117z" />
<glyph unicode="Z" horiz-adv-x="1343" d="M-61 0l22 141l1016 1215h-643l-39 -223h-125l63 360h1168l-25 -141l-1005 -1215h678l36 209h123l-59 -346h-1210z" />
<glyph unicode="[" horiz-adv-x="870" d="M72 -270l317 1826h510l-20 -120h-191l-278 -1586h192l-20 -120h-510z" />
<glyph unicode="\" horiz-adv-x="671" d="M147 1493h199l180 -1683h-200z" />
<glyph unicode="]" horiz-adv-x="870" d="M-29 -270l21 120h190l279 1586h-193l23 120h510l-320 -1826h-510z" />
<glyph unicode="^" horiz-adv-x="1542" d="M186 936l490 557h201l481 -557h-193l-393 315l-393 -315h-193z" />
<glyph unicode="_" horiz-adv-x="919" d="M0 -293h922v-190h-922v190z" />
<glyph unicode="`" horiz-adv-x="919" d="M238 1638h249l166 -376h-147z" />
<glyph unicode="a" horiz-adv-x="1193" d="M63 449q39 223 211 415q206 227 480 228q270 0 309 -62l-158 -909l119 2l-20 -123h-400l23 135q-98 -164 -275 -164q-174 0 -250 127q-52 87 -52 214q0 64 13 137zM356 199q23 -72 111 -72q82 0 135 84q53 86 84 268l72 398q-2 59 -56 59q-121 0 -237 -160 q-55 -74 -98 -321q-19 -112 -19 -182q0 -46 8 -74z" />
<glyph unicode="b" horiz-adv-x="1286" d="M45 0l252 1436h-137l20 120h457l-111 -628q55 84 131 123q78 41 177 41q203 0 294 -150q61 -98 62 -248q0 -70 -16 -162q-47 -264 -189 -411q-143 -150 -348 -150q-98 0 -161.5 41t-88.5 123l-22 -135h-320zM430 309q0 -51 14 -98q29 -84 123 -84q98 0 153.5 88t94.5 317 q27 154 27 230q0 49 -11 86q-25 88 -122 88q-96 0 -154 -82q-53 -76 -88 -270l-18 -105q-19 -102 -19 -170z" />
<glyph unicode="c" horiz-adv-x="1120" d="M61 387q0 74 15 145q47 266 211 412q166 147 409 148q104 0 199 -21q102 -23 197 -63l-52 -295h-102q2 14 2 45q0 100 -37 155q-47 66 -147 66q-133 0 -207 -100q-76 -104 -119 -347q-20 -123 -20 -219q0 -82 16 -125q37 -104 162 -104q94 0 164 63q68 61 102 185h152 q-63 -180 -188.5 -270.5t-303.5 -90.5q-256 0 -371 148q-82 102 -82 268z" />
<glyph unicode="d" horiz-adv-x="1286" d="M20 369q0 80 15 163q45 258 188 410q141 150 346 150q98 0 162 -41t88 -123l90 508h-137l21 120h454l-270 -1556h-320l25 135q-55 -84 -131 -123q-78 -41 -178 -41q-205 0 -293 150q-60 98 -60 248zM367 303q0 -51 10 -88q25 -88 123 -88q92 0 151 84q59 86 90 268 l19 105q16 88 16 170q0 61 -12 100q-27 82 -125 82q-96 0 -154 -88q-53 -84 -94 -316q-24 -141 -24 -229z" />
<glyph unicode="e" horiz-adv-x="1171" d="M61 379q0 76 15 149q47 268 208.5 416t397.5 148q174 0 293 -74t119 -209q0 -31 -7 -57q-59 -326 -677 -353q-6 -34 -7 -104q0 -211 187 -211q104 0 178 61.5t111 176.5h149q-70 -178 -201 -267q-127 -84 -335 -84q-248 0 -357 146q-74 100 -74 262zM430 518h21 q274 0 317 244q6 37 6 69q0 147 -112 148q-86 0 -135.5 -90t-96.5 -371z" />
<glyph unicode="f" horiz-adv-x="790" d="M-109 -389q14 82 21 113q72 0 115 57q41 57 63 186l172 975h-143l22 121h142l22 133q31 174 150 268q117 92 315 92q70 0 148 -10q68 -8 137 -28l-39 -228h-101v29q0 59 -20 88q-27 37 -90 37q-72 0 -115 -58q-45 -61 -65 -186l-25 -137h242l-21 -121h-241l-170 -971 q-37 -209 -148 -270q-172 -90 -371 -90z" />
<glyph unicode="g" horiz-adv-x="1286" d="M43 -389l43 254h102v-17q0 -94 50 -139q51 -51 168 -51q152 0 223 78q76 82 108 278l23 121q-111 -164 -313.5 -164t-292.5 127q-66 92 -66 232q0 56 10 119q49 270 277 466q205 176 504 177q242 0 350 -97l-172 -981q-43 -244 -205 -346q-197 -123 -426 -123 q-88 0 -190 17q-95 14 -193 49zM453 199q29 -72 125 -72q92 0 151 84q59 86 90 268l70 398q-6 59 -64 59q-166 0 -266 -160q-66 -104 -102 -321q-17 -100 -17 -167q0 -57 13 -89z" />
<glyph unicode="h" horiz-adv-x="1339" d="M63 0l250 1436h-141l21 120h460l-112 -643q74 94 155 138q80 41 195 41q160 0 223 -107q41 -70 41 -174q0 -61 -12 -135l-96 -555h137l-23 -121h-454l118 686q14 82 15 119q0 45 -13 69q-20 51 -98 52q-96 0 -154 -78q-59 -82 -90 -250l-104 -598h-318z" />
<glyph unicode="i" horiz-adv-x="698" d="M63 0l164 942h-135l21 121h454l-164 -942h136l-21 -121h-455zM268 1325q0 10 4 39q16 86 74 137q61 55 133 55q70 0 111 -57q31 -41 31 -94q0 -12 -5 -41q-12 -80 -73.5 -135t-130.5 -55q-72 0 -113 55q-31 41 -31 96z" />
<glyph unicode="j" horiz-adv-x="665" d="M-305 -416l39 226h100q-4 -41 -4 -56q0 -37 12 -59q22 -37 80 -37q66 0 101 47q37 49 57 170l186 1067h-137l23 121h452l-207 -1188q-28 -163 -147 -246q-121 -84 -322 -84q-47 0 -112 11q-53 8 -121 28zM299 1325q0 10 4 39q16 82 73.5 137t133.5 55q70 0 111 -57 q31 -43 30 -96q0 -10 -4 -39q-15 -80 -74 -135q-57 -55 -130.5 -55t-112.5 55q-31 41 -31 96z" />
<glyph unicode="k" horiz-adv-x="1275" d="M63 0l250 1436h-135l21 120h454l-174 -999l453 385h-115l23 121h258l-21 -121l-289 -246l302 -575h104l-23 -121h-350l-264 500l-104 -88l-72 -412h-318z" />
<glyph unicode="l" horiz-adv-x="698" d="M63 0l250 1436h-135l21 120h454l-250 -1435h136l-21 -121h-455z" />
<glyph unicode="m" horiz-adv-x="1949" d="M102 0l166 942h-137l23 121h454l-26 -150q70 92 151 136q80 43 178 43q117 0 183 -50q65 -49 86 -153q86 109 170 155q82 47 188 48q166 0 229 -105q39 -63 39 -172q0 -61 -12 -139l-96 -555h137l-23 -121h-454l108 623q23 135 23 198q0 35 -6 53q-18 51 -94 52 q-86 0 -144 -72q-59 -76 -84 -207l-112 -647h-318l109 623q23 135 22 196q0 37 -6 55q-18 51 -92 52q-88 0 -146 -72q-59 -76 -83 -207l-113 -647h-320z" />
<glyph unicode="n" horiz-adv-x="1339" d="M102 0l166 942h-137l23 121h454l-26 -150q72 92 155 138q76 41 195 41q160 0 223 -107q41 -70 41 -174q0 -61 -12 -135l-97 -555h136l-21 -121h-454l118 686q12 72 13 119q0 43 -11 69q-20 51 -98 52q-96 0 -154 -78q-59 -82 -90 -250l-104 -598h-320z" />
<glyph unicode="o" horiz-adv-x="1228" d="M63 393q0 66 13 139q46 264 215 412q168 147 424 148q254 0 370 -148q84 -109 84 -272q0 -53 -14 -140q-46 -261 -215 -411q-168 -150 -422 -150t-371 150q-84 108 -84 272zM403 270q0 -59 9 -90q25 -96 125 -96t159.5 96t102.5 352q29 156 28 267q0 55 -8 86 q-20 94 -125 94q-100 0 -159 -96q-58 -95 -105 -351q-27 -158 -27 -262z" />
<glyph unicode="p" horiz-adv-x="1286" d="M45 -426l242 1368h-137l20 121h455l-23 -135q55 84 131 123q78 41 176 41q203 0 295 -150q61 -98 62 -248q0 -70 -17 -162q-47 -264 -188 -411q-143 -150 -348 -150q-98 0 -162 41t-88 123l-98 -561h-320zM506 309q0 -59 12 -98q29 -84 125 -84q98 0 154 88q57 92 96 317 q23 129 22 230q0 55 -8 86q-25 88 -123 88q-96 0 -153.5 -82t-87.5 -270l-21 -105q-16 -90 -16 -170z" />
<glyph unicode="q" horiz-adv-x="1286" d="M96 449q45 266 277 466q205 176 504 177q242 0 350 -97l-228 -1294l146 -2l-23 -123l-465 -2l99 561q-111 -164 -312 -164q-205 0 -294 127q-65 91 -66 227q0 58 12 124zM451 199q29 -72 124 -72q92 0 152 84q55 80 90 268l70 398q-6 59 -64 59q-164 0 -266 -160 q-61 -98 -102 -321q-17 -100 -17 -167q0 -57 13 -89z" />
<glyph unicode="r" horiz-adv-x="970" d="M102 0l166 942h-145l20 121h465l-33 -189q66 111 152 164q88 53 199 54q14 0 67 -5q37 -2 90 -12l-57 -317h-100q2 14 2 39q0 55 -23 88q-27 41 -96 41q-102 0 -182 -103q-80 -101 -111 -282l-94 -541h-320z" />
<glyph unicode="s" horiz-adv-x="1036" d="M0 31l49 297h103v-29q0 -96 53 -155.5t160 -59.5q209 0 233 145q4 25 4 47q0 25 -22 58q-20 31 -113 55l-125 37q-137 39 -186 106q-45 63 -45 146q0 31 6 72q31 172 153 258q121 84 319.5 84t409.5 -64l-47 -268h-102q4 25 4 37q0 182 -205 182q-203 0 -227 -135 q-2 -10 -2 -39q0 -65 110 -98l123 -37q182 -53 230 -119q49 -68 49 -154q0 -37 -6 -75q-31 -176 -162 -265q-129 -86 -375 -86q-184 1 -389 60z" />
<glyph unicode="t" horiz-adv-x="849" d="M90 942l21 121h139l57 330h320l-60 -330h267l-23 -121h-264l-115 -651q-14 -84 -14 -133q0 -31 4 -39q16 -35 65 -35q57 0 95 43q35 39 53 133h133q-37 -164 -117 -225q-82 -63 -256 -64q-197 0 -256 70q-37 43 -37 135q0 49 13 115l112 651h-137z" />
<glyph unicode="u" horiz-adv-x="1339" d="M117 942l20 121h457l-109 -621q-23 -131 -22 -192q0 -37 6 -60q23 -53 100 -53q98 0 155.5 78t88.5 252l105 596h319l-166 -942h137l-20 -121h-457l27 150q-72 -92 -156 -138q-76 -41 -192 -41q-160 0 -226 105q-41 70 -41 176q0 61 13 135l98 555h-137z" />
<glyph unicode="v" horiz-adv-x="1069" d="M39 942l20 121h390l147 -793q25 0 168 213q131 203 190 459h-104l20 123l215 -2q2 -246 -180 -584q-172 -316 -332 -479h-256l-174 942h-104z" />
<glyph unicode="w" horiz-adv-x="1585" d="M55 942l23 121h391l92 -696l336 696h190l99 -764q14 14 135 182q125 178 178 461l-125 -2l21 123h245q-53 -385 -163 -578q-174 -301 -349 -485h-219l-86 666l-319 -666h-219l-125 942h-105z" />
<glyph unicode="x" horiz-adv-x="1097" d="M-35 0l422 518l-199 424h-106l20 121h390l182 -385l313 385h127l-407 -500l206 -442h127l-20 -121h-410l-186 401l-330 -401h-129z" />
<glyph unicode="y" horiz-adv-x="1069" d="M-35 -412l39 222h100q-2 -16 -2 -46q0 -70 41 -90q20 -10 60 -16q14 -2 43 -2q98 0 200 72l-256 1214h-104l23 121h391l215 -1028q96 152 172 354q68 180 137 551h-127l21 123h258q-20 -117 -56 -293q-80 -410 -180 -594q-264 -492 -475 -579q-117 -51 -293 -52 q-84 0 -207 43z" />
<glyph unicode="z" horiz-adv-x="1044" d="M-29 0l23 121l627 747q-37 16 -54 29q-114 68 -184 68q-106 0 -270 -146l26 160q160 168 303 168q74 -2 191 -70q125 -72 178 -71q49 0 104 22q47 20 72 37l90 -2l-20 -119l-631 -749q37 -14 55 -29q113 -68 187 -68q106 0 270 146l-29 -158q-160 -170 -303 -170 q-72 2 -188 70q-125 72 -180 71q-47 0 -103 -22q-52 -22 -74 -37z" />
<glyph unicode="{" horiz-adv-x="1183" d="M143 551l23 121h53q129 0 187 57q59 59 83 209l46 250q18 115 38 166q22 55 56 92q55 61 133 85.5t291 24.5h133l-23 -120h-92q-98 0 -145 -47q-45 -45 -70 -183l-47 -270q-27 -158 -84 -227q-53 -66 -178 -97q111 -33 145 -100q33 -61 4 -225l-49 -271q-23 -135 6 -182 t129 -47h95l-23 -121h-133q-209 0 -281 25q-71 25 -104 86q-20 35 -21 92q0 68 17 166l45 250q25 151 -12 209q-37 57 -166 57h-56z" />
<glyph unicode="|" horiz-adv-x="669" d="M238 -483v2048h192v-2048h-192z" />
<glyph unicode="}" horiz-adv-x="1183" d="M2 -334l21 121h92q98 0 145 47q45 45 70 182l47 271q29 160 82 225q55 68 180 100q-109 31 -143.5 98.5t-6.5 225.5l48 270q25 135 -4 182.5t-130 47.5h-92l23 120h131q212 0 283 -24q68 -25 102 -86q23 -39 22 -92q0 -72 -18 -166l-43 -250q-27 -150 10 -209 q37 -57 164 -57h55l-20 -121h-55q-127 0 -185 -57q-58 -58 -86 -209l-43 -250q-25 -121 -41 -166q-20 -53 -53 -92q-55 -61 -133 -86q-76 -25 -291 -25h-131z" />
<glyph unicode="~" horiz-adv-x="1542" d="M195 453v206q88 86 170 127q86 41 174 41t221 -57q10 -4 15 -7t7 -3l15 -6q158 -68 245 -68q68 0 146 37q80 39 162 108v-206q-84 -86 -168 -127q-86 -41 -176 -41q-86 0 -222 57q-6 2 -12 5l-10 5q-2 0 -8 3t-11 5q-156 66 -241 66q-72 0 -146 -37q-83 -42 -161 -108z " />
<glyph unicode="&#xa1;" horiz-adv-x="808" d="M102 0l252 842l35 190h125l-33 -190l-41 -842h-338zM334 1329q12 80 73.5 135.5t129.5 55.5q71 0 110 -56q39 -55 27 -135q-12 -78 -73.5 -133t-129.5 -55q-71 0 -111 55q-40 57 -26 133z" />
<glyph unicode="&#xa2;" d="M145 532q47 266 207 408q164 145 412 152l47 264h109l-48 -269q49 -2 121 -22q41 -10 168 -57l-51 -295h-100q8 121 -31 190q-37 63 -125 76l-158 -891q84 14 143.5 77.5t86.5 166.5h149q-55 -156 -157.5 -246t-239.5 -109l-49 -276h-109l47 270q-250 6 -358 152 q-111 147 -64 409zM483 221q20 -100 107 -127l151 875q-92 -25 -149 -125.5t-94 -311.5q-38 -209 -15 -311z" />
<glyph unicode="&#xa3;" d="M0 0l20 121h175l100 573h-174l20 121h174l50 277q37 213 176 321q137 106 385 107q68 0 139 -9q96 -10 184 -26l-49 -283h-108q12 92 -25 152q-33 53 -111 53q-104 0 -163 -74q-57 -72 -88 -250l-48 -268h318l-23 -121h-315l-98 -557h376l41 228h123l-63 -365h-1016z" />
<glyph unicode="&#xa4;" horiz-adv-x="1171" d="M68 215l188 209q-29 47 -41 100q-12 52 -12 117q0 72 12 117q14 49 41 100l-188 205l139 158l184 -211q39 29 94 45q45 14 103 14q53 0 98 -14q51 -16 100 -45l185 211l137 -154l-188 -205q29 -57 41 -112.5t12 -108.5q0 -63 -12 -115q-12 -53 -41 -100l188 -211 l-139 -154l-189 211q-39 -29 -88 -45q-45 -14 -104 -14q-55 0 -101 14q-59 18 -96 41l-186 -207zM391 641q0 -88 58 -156q55 -63 139 -63q82 0 139 63.5t57 155.5t-57 155.5t-139 63.5t-139.5 -63.5t-57.5 -155.5z" />
<glyph unicode="&#xa5;" d="M53 467l21 117h362l10 59l-30 135h-310l21 117h258l-117 477h-123l21 121h625l-23 -121h-152l136 -551l327 551h-137l23 121h391l-21 -121h-121l-282 -477h262l-20 -117h-316l-67 -116l-15 -78h365l-23 -117h-360l-62 -346h170l-20 -121h-682l20 121h170l62 346h-363z " />
<glyph unicode="&#xa6;" horiz-adv-x="669" d="M238 -350v758h192v-758h-192zM238 674v758h192v-758h-192z" />
<glyph unicode="&#xa7;" horiz-adv-x="962" d="M-2 -150l43 240h104q-10 -90 33 -131q41 -41 135 -41q78 0 127 37q47 35 60 106q8 45 -11 80q-18 34 -92 80l-108 72q-152 98 -201 182q-51 84 -29 199q18 102 82 176t176 117q-68 46 -92 110q-25 63 -8 154q25 137 135 213q109 76 289 76q80 0 143 -11q57 -10 164 -34 l-41 -240h-106q9 86 -31 129q-41 43 -127 43q-74 0 -119 -37q-47 -37 -59 -104q-8 -45 10 -80q18 -33 90 -80l111 -72q150 -96 201 -182q51 -84 28 -199q-18 -106 -82 -178q-66 -74 -174 -117q66 -47 90.5 -110.5t8.5 -153.5q-25 -135 -136 -213q-109 -76 -293 -76 q-86 0 -153 11q-66 9 -168 34zM289 745q-12 -57 20 -112q29 -47 121 -109l137 -88q46 34 74 74q31 45 37 82q12 57 -22.5 110.5t-125.5 110.5l-133 88q-49 -37 -73 -72q-25 -37 -35 -84z" />
<glyph unicode="&#xa8;" horiz-adv-x="919" d="M301 1468.5q8 57.5 57 102.5q47 43 103 43q53 0 84 -43q33 -45 20 -103q-12 -63 -57 -104q-46 -43 -98 -43q-51 0 -86 45q-31 45 -23 102.5zM705 1468q12 59 57 102.5t98 43.5t88 -43q33 -41 21 -103q-8 -57 -57.5 -102t-100.5 -45q-53 0 -86 45q-30 43 -20 102z" />
<glyph unicode="&#xa9;" horiz-adv-x="1841" d="M256 741q0 158 47 285q49 132 148 240q102 113 215 164q121 55 256 55t254 -55q117 -53 217 -164q98 -108 147 -240q47 -127 47 -285q0 -160 -47 -282q-51 -135 -147 -240q-100 -111 -217 -164q-119 -55 -254.5 -55t-255.5 55q-113 51 -215 164q-96 104 -148 240 q-47 122 -47 282zM391 741q0 -123 39 -225q40 -104 117 -190t172 -129t203 -43q111 0 202 43q98 45 172 129q74 82 115 190q39 102 39 225t-39 226q-41 109 -115 190q-78 88 -172 131q-92 43 -202.5 43t-202.5 -43q-88 -41 -172 -131q-77 -86 -117 -190q-39 -103 -39 -226z M545 741q0 199 106 322q104 121 281 121q72 0 143 -19q82 -23 152 -57v-223h-97q-12 96 -57 147q-47 53 -121 53q-90 0 -145 -92t-55 -252q0 -162 53 -252t147 -90q68 0 111 45q45 47 65 136h123q-25 -139 -106.5 -209t-220.5 -70q-170 0 -275 121q-104 118 -104 319z" />
<glyph unicode="&#xaa;" horiz-adv-x="894" d="M12 504l25 135h717l-23 -135h-719zM119 952q0 66 10 119q29 176 127 303q90 117 223 146q20 6 41 6q35 0 64 -17q45 -23 63 -77l17 90h145l-104 -592h104l-29 -152h-248l23 129q-39 -66 -96 -110q-59 -45 -117 -58q-31 -6 -57 -6q-88 0 -131 68q-35 51 -35 151zM285 1006 q0 -55 16 -95q25 -57 74 -57q14 0 22 2q68 15 123 92q57 80 76 189l10 65q8 39 8 78q0 55 -18 92q-25 47 -76 47q-16 0 -24 -2q-70 -16 -123 -98q-57 -88 -78 -213q-10 -61 -10 -100z" />
<glyph unicode="&#xab;" horiz-adv-x="1150" d="M127 516l31 168l487 385l-24 -147l-273 -322l160 -321l-27 -148zM543 516l28 168l490 385l-27 -147l-270 -322l158 -321l-25 -148z" />
<glyph unicode="&#xac;" horiz-adv-x="1542" d="M195 676v227h1155v-616h-207v389h-948z" />
<glyph unicode="&#xad;" horiz-adv-x="763" d="M76 414l49 270h563l-47 -270h-565z" />
<glyph unicode="&#xae;" horiz-adv-x="1841" d="M256 741q0 158 47 285q49 132 148 240q102 113 215 164q121 55 256 55t254 -55q117 -53 217 -164q98 -108 147 -240q47 -127 47 -285q0 -160 -47 -282q-51 -135 -147 -240q-100 -111 -217 -164q-119 -55 -254.5 -55t-255.5 55q-113 51 -215 164q-96 104 -148 240 q-47 122 -47 282zM391 741q0 -123 39 -225q40 -104 117 -190t172 -129t203 -43q111 0 202 43q98 45 172 129q74 82 115 190q39 102 39 225t-39 226q-41 109 -115 190q-78 88 -172 131q-92 43 -202.5 43t-202.5 -43q-88 -41 -172 -131q-77 -86 -117 -190q-39 -103 -39 -226z M584 352v82h78v643h-78v82h407q109 0 170 -55q63 -57 64 -150q0 -86 -45 -141q-41 -49 -131 -59q39 -14 61 -37q27 -27 45 -68l90 -215h55v-82h-200l-107 254q-29 70 -55.5 90.5t-75.5 20.5h-22v-283h75v-82h-331zM840 799h59q68 0 109 37q39 37 39 102.5t-39 101.5 q-41 37 -109 37h-59v-278z" />
<glyph unicode="&#xaf;" horiz-adv-x="919" d="M287 1360l32 188h568l-33 -188h-567z" />
<glyph unicode="&#xb0;" horiz-adv-x="919" d="M160 1200q0 139 88 238q86 96 213 96q59 0 114 -25q51 -23 99 -73q43 -49 63 -109q23 -63 23 -126.5t-23 -127.5q-20 -59 -61 -106t-101 -74q-55 -25 -116 -25q-127 0 -213 94.5t-86 237.5zM305 1200q0 -70 45 -121q43 -49 111 -49q65 0 110 49q45 47 45 121 q0 76 -45 123q-46 49 -110.5 49t-110.5 -49q-45 -47 -45 -123z" />
<glyph unicode="&#xb1;" horiz-adv-x="1542" d="M195 0v227h1155v-227h-1155zM195 698v228h475v358h207v-358h473v-228h-473v-358h-207v358h-475z" />
<glyph unicode="&#xb2;" horiz-adv-x="806" d="M4 684l25 133l129 84q190 123 247.5 192.5t73.5 163.5q14 82 -14 132q-29 47 -94 47q-61 0 -105 -41q-47 -45 -65 -111h-84l35 195q68 23 137 30q78 10 141 11q164 0 242 -64q80 -66 59 -178q-16 -86 -74 -148q-59 -63 -219 -153l-243 -139h372l17 96h90l-43 -250h-627z " />
<glyph unicode="&#xb3;" horiz-adv-x="806" d="M14 711l35 200h86q-6 -80 25 -120q31 -39 102 -39q80 0 129 43t64 125q16 80 -23 124q-37 43 -119 43h-37l17 84h26q74 0 119 33q43 31 56 99q12 61 -19 98q-29 35 -92 35q-59 0 -102 -37q-45 -39 -60 -101h-86l33 183q94 20 151 28q76 10 125 11q166 0 238 -52 q76 -53 57 -153q-12 -72 -69 -119q-59 -49 -150 -63q104 -16 152 -72q46 -55 30 -148q-20 -121 -124 -184q-101 -61 -283 -61q-66 0 -143 10q-58 8 -138 33z" />
<glyph unicode="&#xb4;" horiz-adv-x="919" d="M418 1262l299 376h252l-404 -376h-147z" />
<glyph unicode="&#xb5;" horiz-adv-x="1347" d="M57 -426l240 1368h-137l22 121h455l-105 -596q-25 -141 -24 -215q0 -41 6 -59q23 -55 100 -56q98 0 156 80q57 78 88 250l105 596h317l-164 -942h135l-20 -121h-455l23 125q-61 -80 -121 -119q-51 -35 -121 -35q-27 0 -53 11q-29 10 -51 30l-76 -438h-320z" />
<glyph unicode="&#xb6;" horiz-adv-x="1171" d="M207 1071q33 190 170 305q138 117 332 117h499l-22 -125h-103l-272 -1565h-137l274 1565h-147l-275 -1565h-137l150 846q-195 18 -279 127t-53 295z" />
<glyph unicode="&#xb7;" horiz-adv-x="638" d="M150 711q12 80 73.5 135t130.5 55q71 0 111 -55q39 -55 27 -135q-12 -78 -74 -133.5t-131 -55.5q-71 0 -111 56q-38 55 -26 133z" />
<glyph unicode="&#xb8;" horiz-adv-x="919" d="M207 -375l26 156q33 -16 74 -27q33 -8 70 -8q55 0 86 22.5t41 69.5q4 20 -6 62q-8 31 -43 100h114q43 -66 61.5 -119t8.5 -106q-14 -84 -82 -131q-63 -45 -174 -45q-45 0 -88 6q-25 4 -88 20z" />
<glyph unicode="&#xb9;" horiz-adv-x="806" d="M74 684l14 94h150l106 613l-182 -101l18 105l221 125h205l-131 -742h150l-19 -94h-532z" />
<glyph unicode="&#xba;" horiz-adv-x="919" d="M12 504l25 135h719l-25 -135h-719zM76 1128q31 180 157 287q127 104 316 105q193 0 280 -105q88 -102 58 -287q-31 -180 -158 -286q-127 -104 -317.5 -104.5t-278.5 104.5q-88 102 -57 286zM342 893q18 -70 86 -70t111 72q45 74 71 233q29 166 10.5 236t-86 70 t-110.5 -70q-45 -74 -72 -236q-28 -167 -10 -235z" />
<glyph unicode="&#xbb;" horiz-adv-x="1150" d="M92 131l27 148l270 321l-160 322l27 147l354 -385l-28 -168zM506 131l26 148l273 321l-162 322l27 147l354 -385l-29 -168z" />
<glyph unicode="&#xbc;" horiz-adv-x="1921" d="M1648 16h-467l19 94h110l23 121h-328l17 88l434 533h225l-90 -527h131l-16 -94h-134l-20 -121h113zM1349 325l58 334l-275 -334h217zM74 684l14 94h150l106 613l-182 -101l18 105l221 125h205l-131 -742h150l-19 -94h-532zM1440 1520h153l-1112 -1549h-151z" />
<glyph unicode="&#xbd;" horiz-adv-x="1921" d="M74 684l14 94h150l106 613l-182 -101l18 105l221 125h205l-131 -742h150l-19 -94h-532zM1440 1520h153l-1112 -1549h-151zM1001 16l25 133l129 84q190 123 247.5 192.5t73.5 163.5q14 82 -14 132q-29 47 -94 47q-61 0 -105 -41q-47 -45 -65 -111h-84l35 195q68 23 137 30 q78 10 141 11q164 0 242 -64q80 -66 59 -178q-16 -86 -74 -148q-59 -63 -219 -153l-243 -139h372l17 96h90l-43 -250h-627z" />
<glyph unicode="&#xbe;" horiz-adv-x="1921" d="M1648 16h-467l19 94h110l23 121h-328l17 88l434 533h225l-90 -527h131l-16 -94h-134l-20 -121h113zM1349 325l58 334l-275 -334h217zM14 711l35 200h86q-6 -80 25 -120q31 -39 102 -39q80 0 129 43t64 125q16 80 -23 124q-37 43 -119 43h-37l17 84h26q74 0 119 33 q43 31 56 99q12 61 -19 98q-29 35 -92 35q-59 0 -102 -37q-45 -39 -60 -101h-86l33 183q94 20 151 28q76 10 125 11q166 0 238 -52q76 -53 57 -153q-12 -72 -69 -119q-59 -49 -150 -63q104 -16 152 -72q46 -55 30 -148q-20 -121 -124 -184q-101 -61 -283 -61q-66 0 -143 10 q-58 8 -138 33zM1440 1520h153l-1112 -1549h-151z" />
<glyph unicode="&#xbf;" horiz-adv-x="1079" d="M23 397q33 201 172 317.5t360 135.5l37 205h125l-51 -299q-132 -43 -209 -135q-74 -88 -103 -246q-25 -143 18.5 -217t149.5 -74q98 0 164 65.5t96 196.5h109l-53 -307q-109 -31 -222 -51q-92 -16 -198 -17q-229 0 -330 111q-102 110 -65 315zM532 1329q15 80 74 135 q57 55 131 56q71 0 111 -56q39 -55 26 -135q-12 -78 -73.5 -133t-130.5 -55q-71 0 -111 55q-39 55 -27 133z" />
<glyph unicode="&#xc0;" horiz-adv-x="1429" d="M-145 0l20 121h111l745 1372h215l268 -1372h127l-20 -121h-631l23 121h131l-58 305h-505l-164 -305h159l-20 -121h-401zM346 547h418l-109 571zM854 1899l117 -264h-147l-219 264h249z" />
<glyph unicode="&#xc1;" horiz-adv-x="1429" d="M-145 0l20 121h111l745 1372h215l268 -1372h127l-20 -121h-631l23 121h131l-58 305h-505l-164 -305h159l-20 -121h-401zM346 547h418l-109 571zM924 1899h252l-315 -264h-148z" />
<glyph unicode="&#xc2;" horiz-adv-x="1429" d="M-145 0l20 121h111l745 1372h215l268 -1372h127l-20 -121h-631l23 121h131l-58 305h-505l-164 -305h159l-20 -121h-401zM346 547h418l-109 571zM750 1899h276l154 -264h-145l-164 161l-221 -161h-148z" />
<glyph unicode="&#xc3;" horiz-adv-x="1429" d="M-145 0l20 121h111l745 1372h215l268 -1372h127l-20 -121h-631l23 121h131l-58 305h-505l-164 -305h159l-20 -121h-401zM346 547h418l-109 571zM533 1635v12q23 125 82 190q61 66 151 66q55 0 119 -39q8 -4 10 -6l60 -33q29 -14 39 -18q20 -4 32 -4q39 0 64 24 q27 23 33 70l2 4h98l-2 -15q-23 -125 -82 -188q-59 -66 -149 -65q-29 0 -60 10q-37 12 -71 35l-48 28q-29 16 -43 21q-23 6 -39 6q-37 0 -63 -27q-25 -23 -35 -67v-4h-98z" />
<glyph unicode="&#xc4;" horiz-adv-x="1429" d="M-145 0l20 121h111l745 1372h215l268 -1372h127l-20 -121h-631l23 121h131l-58 305h-505l-164 -305h159l-20 -121h-401zM346 547h418l-109 571zM553 1776q12 57 60 102q49 45 100 45t84 -45q29 -41 20 -102q-8 -57 -57 -103q-47 -43 -98 -43t-86 43.5t-23 102.5z M957 1776q8 57 57 102t100 45q53 0 86 -45q35 -43 23 -102q-12 -57 -59 -103q-45 -43 -100.5 -43t-86.5 43q-28 42 -20 103z" />
<glyph unicode="&#xc5;" horiz-adv-x="1429" d="M-180 0l20 121h111l688 1263q-45 37 -64 97q-18 61 -6 135q23 119 111 201q90 84 194 84q106 0 168 -84q61 -82 39 -201q-12 -76 -49 -133q-37 -58 -98 -99l244 -1263h129l-23 -121h-629l23 121h131l-57 305h-506l-166 -305h160l-21 -121h-399zM311 547h416l-104 571z M706.5 1616q-8.5 -51 20.5 -92q27 -39 76 -39t90 39q43 39 51 92t-18.5 92t-75.5 39t-90 -39q-45 -41 -53.5 -92z" />
<glyph unicode="&#xc6;" horiz-adv-x="1904" d="M-186 0l20 121h103l751 1251h-180l20 121h1395l-59 -352h-125l37 215h-541l-84 -479h330l32 190h123l-92 -516h-121l33 190h-330l-104 -604h559l39 215h121l-62 -352h-1202l23 121h170l53 303h-469l-182 -303h147l-20 -121h-385zM326 545h417l146 827h-68z" />
<glyph unicode="&#xc7;" horiz-adv-x="1466" d="M78 745q63 356 296.5 565.5t573.5 209.5q121 0 244 -31q117 -29 258 -98l-66 -367h-112q-4 188 -80 281q-78 94 -227 94q-197 0 -320 -160q-123 -162 -182 -494q-28 -156 -28 -274q0 -135 36 -219q68 -160 266 -160q137 0 234 82q102 86 168 252h180q-96 -231 -252 -342 q-160 -113 -389 -113q-342 0 -502 209q-115 151 -115 379q0 87 17 186zM389 -375l26 156q33 -16 74 -27q33 -8 70 -8q55 0 86 22.5t41 69.5q4 20 -6 62q-8 31 -43 100h114q43 -66 61.5 -119t8.5 -106q-14 -84 -82 -131q-63 -45 -174 -45q-45 0 -88 6q-25 4 -88 20z" />
<glyph unicode="&#xc8;" horiz-adv-x="1402" d="M-43 0l20 121h173l219 1251h-172l20 121h1208l-61 -352h-125l39 215h-567l-82 -479h352l33 190h123l-90 -516h-125l34 190h-352l-106 -604h581l39 215h123l-61 -352h-1223zM893 1899l117 -264h-147l-219 264h249z" />
<glyph unicode="&#xc9;" horiz-adv-x="1402" d="M-43 0l20 121h173l219 1251h-172l20 121h1208l-61 -352h-125l39 215h-567l-82 -479h352l33 190h123l-90 -516h-125l34 190h-352l-106 -604h581l39 215h123l-61 -352h-1223zM963 1899h252l-315 -264h-148z" />
<glyph unicode="&#xca;" horiz-adv-x="1402" d="M-43 0l20 121h173l219 1251h-172l20 121h1208l-61 -352h-125l39 215h-567l-82 -479h352l33 190h123l-90 -516h-125l34 190h-352l-106 -604h581l39 215h123l-61 -352h-1223zM789 1899h276l154 -264h-145l-164 161l-221 -161h-148z" />
<glyph unicode="&#xcb;" horiz-adv-x="1402" d="M-43 0l20 121h173l219 1251h-172l20 121h1208l-61 -352h-125l39 215h-567l-82 -479h352l33 190h123l-90 -516h-125l34 190h-352l-106 -604h581l39 215h123l-61 -352h-1223zM629 1776q12 57 60 102q49 45 100 45t84 -45q29 -41 20 -102q-8 -57 -57 -103q-47 -43 -98 -43 t-86 43.5t-23 102.5zM1033 1776q8 57 57 102t100 45q53 0 86 -45q35 -43 23 -102q-12 -57 -59 -103q-45 -43 -100.5 -43t-86.5 43q-28 42 -20 103z" />
<glyph unicode="&#xcc;" horiz-adv-x="860" d="M-43 0l20 121h173l219 1251h-172l20 121h690l-20 -121h-172l-219 -1251h172l-21 -121h-690zM589 1899l117 -264h-147l-219 264h249z" />
<glyph unicode="&#xcd;" horiz-adv-x="860" d="M-43 0l20 121h173l219 1251h-172l20 121h690l-20 -121h-172l-219 -1251h172l-21 -121h-690zM659 1899h252l-315 -264h-148z" />
<glyph unicode="&#xce;" horiz-adv-x="860" d="M-43 0l20 121h173l219 1251h-172l20 121h690l-20 -121h-172l-219 -1251h172l-21 -121h-690zM485 1899h276l154 -264h-145l-164 161l-221 -161h-148z" />
<glyph unicode="&#xcf;" horiz-adv-x="860" d="M-43 0l20 121h173l219 1251h-172l20 121h690l-20 -121h-172l-219 -1251h172l-21 -121h-690zM258 1776q12 57 60 102q49 45 100 45t84 -45q29 -41 20 -102q-8 -57 -57 -103q-47 -43 -98 -43t-86 43.5t-23 102.5zM662 1776q8 57 57 102t100 45q53 0 86 -45q35 -43 23 -102 q-12 -57 -59 -103q-45 -43 -100.5 -43t-86.5 43q-28 42 -20 103z" />
<glyph unicode="&#xd0;" horiz-adv-x="1609" d="M-33 0l23 121h172l102 592h-190l22 137h193l92 522h-172l20 121h691q360 0 517.5 -192.5t94 -553t-288.5 -554.5q-223 -193 -584 -193h-692zM508 121h125q211 0 334 149.5t180 477.5q57 322 -14 475q-70 150 -281 149h-125l-90 -522h297l-25 -137h-297z" />
<glyph unicode="&#xd1;" horiz-adv-x="1683" d="M-49 0l20 121h172l219 1251h-172l23 121h420l624 -1057l164 936h-170l21 121h471l-23 -121h-172l-239 -1372h-236l-635 1079l-168 -958h170l-20 -121h-469zM680 1635v12q23 125 82 190q61 66 151 66q55 0 119 -39q8 -4 10 -6l60 -33q29 -14 39 -18q20 -4 32 -4 q39 0 64 24q27 23 33 70l2 4h98l-2 -15q-23 -125 -82 -188q-59 -66 -149 -65q-29 0 -60 10q-37 12 -71 35l-48 28q-29 16 -43 21q-23 6 -39 6q-37 0 -63 -27q-25 -23 -35 -67v-4h-98z" />
<glyph unicode="&#xd2;" horiz-adv-x="1603" d="M78 745q66 362 293 568q231 207 567 207q340 0 496 -205q111 -146 111 -371q0 -93 -19 -199q-66 -369 -291 -569q-229 -205 -569 -205t-496 205q-111 146 -111 371q0 92 19 198zM461 254q55 -162 227 -162q170 0 282.5 162t170.5 491q29 167 29 293q0 120 -27 199 q-55 162 -228 162q-170 0 -282 -162q-111 -160 -170 -492q-29 -166 -30 -290q1 -120 28 -201zM962 1899l117 -264h-147l-219 264h249z" />
<glyph unicode="&#xd3;" horiz-adv-x="1603" d="M78 745q66 362 293 568q231 207 567 207q340 0 496 -205q111 -146 111 -371q0 -93 -19 -199q-66 -369 -291 -569q-229 -205 -569 -205t-496 205q-111 146 -111 371q0 92 19 198zM461 254q55 -162 227 -162q170 0 282.5 162t170.5 491q29 167 29 293q0 120 -27 199 q-55 162 -228 162q-170 0 -282 -162q-111 -160 -170 -492q-29 -166 -30 -290q1 -120 28 -201zM1032 1899h252l-315 -264h-148z" />
<glyph unicode="&#xd4;" horiz-adv-x="1603" d="M78 745q66 362 293 568q231 207 567 207q340 0 496 -205q111 -146 111 -371q0 -93 -19 -199q-66 -369 -291 -569q-229 -205 -569 -205t-496 205q-111 146 -111 371q0 92 19 198zM461 254q55 -162 227 -162q170 0 282.5 162t170.5 491q29 167 29 293q0 120 -27 199 q-55 162 -228 162q-170 0 -282 -162q-111 -160 -170 -492q-29 -166 -30 -290q1 -120 28 -201zM858 1899h276l154 -264h-145l-164 161l-221 -161h-148z" />
<glyph unicode="&#xd5;" horiz-adv-x="1603" d="M78 745q66 362 293 568q231 207 567 207q340 0 496 -205q111 -146 111 -371q0 -93 -19 -199q-66 -369 -291 -569q-229 -205 -569 -205t-496 205q-111 146 -111 371q0 92 19 198zM461 254q55 -162 227 -162q170 0 282.5 162t170.5 491q29 167 29 293q0 120 -27 199 q-55 162 -228 162q-170 0 -282 -162q-111 -160 -170 -492q-29 -166 -30 -290q1 -120 28 -201zM641 1635v12q23 125 82 190q61 66 151 66q55 0 119 -39q8 -4 10 -6l60 -33q29 -14 39 -18q20 -4 32 -4q39 0 64 24q27 23 33 70l2 4h98l-2 -15q-23 -125 -82 -188 q-59 -66 -149 -65q-29 0 -60 10q-37 12 -71 35l-48 28q-29 16 -43 21q-23 6 -39 6q-37 0 -63 -27q-25 -23 -35 -67v-4h-98z" />
<glyph unicode="&#xd6;" horiz-adv-x="1603" d="M78 745q66 362 293 568q231 207 567 207q340 0 496 -205q111 -146 111 -371q0 -93 -19 -199q-66 -369 -291 -569q-229 -205 -569 -205t-496 205q-111 146 -111 371q0 92 19 198zM461 254q55 -162 227 -162q170 0 282.5 162t170.5 491q29 167 29 293q0 120 -27 199 q-55 162 -228 162q-170 0 -282 -162q-111 -160 -170 -492q-29 -166 -30 -290q1 -120 28 -201zM698 1776q12 57 60 102q49 45 100 45t84 -45q29 -41 20 -102q-8 -57 -57 -103q-47 -43 -98 -43t-86 43.5t-23 102.5zM1102 1776q8 57 57 102t100 45q53 0 86 -45q35 -43 23 -102 q-12 -57 -59 -103q-45 -43 -100.5 -43t-86.5 43q-28 42 -20 103z" />
<glyph unicode="&#xd7;" horiz-adv-x="1542" d="M238 201l397 440l-397 440l139 156l395 -440l395 440l140 -156l-396 -440l396 -440l-140 -154l-395 440l-395 -440z" />
<glyph unicode="&#xd8;" horiz-adv-x="1603" d="M-68 12l215 201q-63 98 -81 236q-16 123 12 296q66 362 293 568q231 207 567 207q145 0 256 -39q115 -41 192 -115l220 203l65 -90l-213 -199q59 -98 80 -238q16 -123 -12 -297q-66 -369 -291 -569q-229 -205 -569 -205q-143 0 -254 39q-115 41 -195 117l-219 -205z M434 479l729 678q-18 119 -79.5 180.5t-168.5 61.5q-170 0 -282 -162q-111 -160 -170 -492q-12 -66 -21 -143q-8 -86 -8 -123zM442 334q18 -121 80 -182q59 -59 166 -60q176 0 287 166q113 168 176 526q10 55 14 115q2 35 -2 94z" />
<glyph unicode="&#xd9;" horiz-adv-x="1605" d="M174 1372l23 121h690l-21 -121h-172l-131 -747q-22 -125 -22 -217q0 -111 32 -172q59 -113 248 -113q186 0 285 113q96 111 145 389l131 747h-172l23 121h467l-21 -121h-172l-135 -768q-61 -346 -219 -487q-162 -145 -471 -146q-313 0 -422 148q-69 95 -69 267 q0 98 22 220l133 766h-172zM1009 1899l117 -264h-147l-219 264h249z" />
<glyph unicode="&#xda;" horiz-adv-x="1605" d="M174 1372l23 121h690l-21 -121h-172l-131 -747q-22 -125 -22 -217q0 -111 32 -172q59 -113 248 -113q186 0 285 113q96 111 145 389l131 747h-172l23 121h467l-21 -121h-172l-135 -768q-61 -346 -219 -487q-162 -145 -471 -146q-313 0 -422 148q-69 95 -69 267 q0 98 22 220l133 766h-172zM1079 1899h252l-315 -264h-148z" />
<glyph unicode="&#xdb;" horiz-adv-x="1605" d="M174 1372l23 121h690l-21 -121h-172l-131 -747q-22 -125 -22 -217q0 -111 32 -172q59 -113 248 -113q186 0 285 113q96 111 145 389l131 747h-172l23 121h467l-21 -121h-172l-135 -768q-61 -346 -219 -487q-162 -145 -471 -146q-313 0 -422 148q-69 95 -69 267 q0 98 22 220l133 766h-172zM905 1899h276l154 -264h-145l-164 161l-221 -161h-148z" />
<glyph unicode="&#xdc;" horiz-adv-x="1605" d="M174 1372l23 121h690l-21 -121h-172l-131 -747q-22 -125 -22 -217q0 -111 32 -172q59 -113 248 -113q186 0 285 113q96 111 145 389l131 747h-172l23 121h467l-21 -121h-172l-135 -768q-61 -346 -219 -487q-162 -145 -471 -146q-313 0 -422 148q-69 95 -69 267 q0 98 22 220l133 766h-172zM745 1776q12 57 60 102q49 45 100 45t84 -45q29 -41 20 -102q-8 -57 -57 -103q-47 -43 -98 -43t-86 43.5t-23 102.5zM1149 1776q8 57 57 102t100 45q53 0 86 -45q35 -43 23 -102q-12 -57 -59 -103q-45 -43 -100.5 -43t-86.5 43q-28 42 -20 103z " />
<glyph unicode="&#xdd;" horiz-adv-x="1314" d="M92 1372l23 121h645l-23 -121h-149l203 -569l401 569h-135l20 121h385l-20 -121h-115l-493 -702l-97 -549h181l-21 -121h-711l21 121h180l88 497l-266 754h-117zM887 1899h252l-315 -264h-148z" />
<glyph unicode="&#xde;" horiz-adv-x="1394" d="M-43 0l20 121h173l219 1251h-172l20 121h733l-20 -121h-215l-31 -170h248q223 0 334 -119q111 -121 78 -317.5t-189 -317t-377 -120.5h-246l-36 -207h217l-23 -121h-733zM553 449h100q117 0 203 86t111 231q25 143 -30.5 229t-172.5 86h-100z" />
<glyph unicode="&#xdf;" horiz-adv-x="1398" d="M-139 -389l8 57.5t10 55.5q72 0 115 57q45 61 65 186l207 1180q37 201 180.5 305t384.5 104q233 0 340 -106q102 -102 86 -334h-20q-141 0 -219 -45t-94 -135q-6 -41 8 -74q14 -35 80 -94l67 -63q135 -125 166 -207q31 -80 12 -187q-29 -162 -155 -250q-131 -90 -330 -90 q-76 0 -147 15q-82 16 -162 45l45 258h108q-6 -109 29 -156q37 -49 121 -49q70 0 119 43t61 117q18 104 -108 223l-3 3q-3 3 -9.5 8t-12.5 11l-70 64q-77 74 -104 154q-27 76 -8 182q25 133 110 217q84 80 236 115q16 125 -19 174q-34 49 -135 49q-98 0 -153 -60 q-53 -55 -78 -194l-213 -1219q-37 -207 -150 -270q-167 -90 -368 -90z" />
<glyph unicode="&#xe0;" horiz-adv-x="1193" d="M63 449q39 223 211 415q206 227 480 228q270 0 309 -62l-158 -909l119 2l-20 -123h-400l23 135q-98 -164 -275 -164q-174 0 -250 127q-52 87 -52 214q0 64 13 137zM356 199q23 -72 111 -72q82 0 135 84q53 86 84 268l72 398q-2 59 -56 59q-121 0 -237 -160 q-55 -74 -98 -321q-19 -112 -19 -182q0 -46 8 -74zM318 1638h249l166 -376h-147z" />
<glyph unicode="&#xe1;" horiz-adv-x="1193" d="M63 449q39 223 211 415q206 227 480 228q270 0 309 -62l-158 -909l119 2l-20 -123h-400l23 135q-98 -164 -275 -164q-174 0 -250 127q-52 87 -52 214q0 64 13 137zM356 199q23 -72 111 -72q82 0 135 84q53 86 84 268l72 398q-2 59 -56 59q-121 0 -237 -160 q-55 -74 -98 -321q-19 -112 -19 -182q0 -46 8 -74zM498 1262l299 376h252l-404 -376h-147z" />
<glyph unicode="&#xe2;" horiz-adv-x="1193" d="M63 449q39 223 211 415q206 227 480 228q270 0 309 -62l-158 -909l119 2l-20 -123h-400l23 135q-98 -164 -275 -164q-174 0 -250 127q-52 87 -52 214q0 64 13 137zM356 199q23 -72 111 -72q82 0 135 84q53 86 84 268l72 398q-2 59 -56 59q-121 0 -237 -160 q-55 -74 -98 -321q-19 -112 -19 -182q0 -46 8 -74zM275 1262l297 376h217l163 -376h-147l-152 225l-231 -225h-147z" />
<glyph unicode="&#xe3;" horiz-adv-x="1193" d="M63 449q39 223 211 415q206 227 480 228q270 0 309 -62l-158 -909l119 2l-20 -123h-400l23 135q-98 -164 -275 -164q-174 0 -250 127q-52 87 -52 214q0 64 13 137zM356 199q23 -72 111 -72q82 0 135 84q53 86 84 268l72 398q-2 59 -56 59q-121 0 -237 -160 q-55 -74 -98 -321q-19 -112 -19 -182q0 -46 8 -74zM328 1309l2 16q25 147 86 221q61 76 153 76q33 0 64 -12q25 -12 63 -43l58 -47l2 -2q35 -29 65 -29q37 0 66 35q27 33 39 96h98l-2 -16q-25 -143 -86 -222q-63 -76 -154 -75q-27 0 -63 14q-31 12 -66 41l-55 47h-2 q-34 31 -67 31q-35 0 -64 -35q-31 -37 -39 -96h-98z" />
<glyph unicode="&#xe4;" horiz-adv-x="1193" d="M63 449q39 223 211 415q206 227 480 228q270 0 309 -62l-158 -909l119 2l-20 -123h-400l23 135q-98 -164 -275 -164q-174 0 -250 127q-52 87 -52 214q0 64 13 137zM356 199q23 -72 111 -72q82 0 135 84q53 86 84 268l72 398q-2 59 -56 59q-121 0 -237 -160 q-55 -74 -98 -321q-19 -112 -19 -182q0 -46 8 -74zM381 1468.5q8 57.5 57 102.5q47 43 103 43q53 0 84 -43q33 -45 20 -103q-12 -63 -57 -104q-46 -43 -98 -43q-51 0 -86 45q-31 45 -23 102.5zM785 1468q12 59 57 102.5t98 43.5t88 -43q33 -41 21 -103q-8 -57 -57.5 -102 t-100.5 -45q-53 0 -86 45q-30 43 -20 102z" />
<glyph unicode="&#xe5;" horiz-adv-x="1193" d="M63 449q39 223 211 415q206 227 480 228q270 0 309 -62l-158 -909l119 2l-20 -123h-400l23 135q-98 -164 -275 -164q-174 0 -250 127q-52 87 -52 214q0 64 13 137zM356 199q23 -72 111 -72q82 0 135 84q53 86 84 268l72 398q-2 59 -56 59q-121 0 -237 -160 q-55 -74 -98 -321q-19 -112 -19 -182q0 -46 8 -74zM428.5 1534q22.5 121 110.5 203t194.5 82t167.5 -82q63 -84 41 -203q-23 -121 -110.5 -203t-196.5 -82q-106 0 -167.5 82t-39 203zM567.5 1534q-9.5 -55 18.5 -92q29 -39 76 -39q51 0 90 39q41 37 51 92q9 55 -18 92 q-27 39 -78.5 39t-89.5 -39q-40 -37 -49.5 -92z" />
<glyph unicode="&#xe6;" horiz-adv-x="1716" d="M49 309q0 303 215 543t490 240q197 0 270 -31q94 31 205 31q172 0 290.5 -74t118.5 -209q0 -31 -6 -57q-59 -326 -678 -353q-6 -35 -6 -65q0 -250 185 -250q104 0 178 61q78 63 112 177h150q-70 -178 -201 -267q-127 -84 -342 -84q-211 0 -321 111q-132 -111 -357 -111 q-172 0 -250 127q-53 88 -53 211zM348 289q0 -66 8 -90q25 -72 109 -72t137 84t86 268l70 398q-2 59 -56 59q-121 0 -237 -160q-55 -74 -86 -250q-31 -174 -31 -237zM975 518q301 0 338 244q6 37 6 69q0 147 -113 148q-88 0 -133 -84t-88 -313z" />
<glyph unicode="&#xe7;" horiz-adv-x="1120" d="M61 387q0 74 15 145q47 266 211 412q166 147 409 148q104 0 199 -21q102 -23 197 -63l-52 -295h-102q2 14 2 45q0 100 -37 155q-47 66 -147 66q-133 0 -207 -100q-76 -104 -119 -347q-20 -123 -20 -219q0 -82 16 -125q37 -104 162 -104q94 0 164 63q68 61 102 185h152 q-63 -180 -188.5 -270.5t-303.5 -90.5q-256 0 -371 148q-82 102 -82 268zM240 -375l26 156q33 -16 74 -27q33 -8 70 -8q55 0 86 22.5t41 69.5q4 20 -6 62q-8 31 -43 100h114q43 -66 61.5 -119t8.5 -106q-14 -84 -82 -131q-63 -45 -174 -45q-45 0 -88 6q-25 4 -88 20z" />
<glyph unicode="&#xe8;" horiz-adv-x="1171" d="M61 379q0 76 15 149q47 268 208.5 416t397.5 148q174 0 293 -74t119 -209q0 -31 -7 -57q-59 -326 -677 -353q-6 -34 -7 -104q0 -211 187 -211q104 0 178 61.5t111 176.5h149q-70 -178 -201 -267q-127 -84 -335 -84q-248 0 -357 146q-74 100 -74 262zM430 518h21 q274 0 317 244q6 37 6 69q0 147 -112 148q-86 0 -135.5 -90t-96.5 -371zM363 1638h249l166 -376h-147z" />
<glyph unicode="&#xe9;" horiz-adv-x="1171" d="M61 379q0 76 15 149q47 268 208.5 416t397.5 148q174 0 293 -74t119 -209q0 -31 -7 -57q-59 -326 -677 -353q-6 -34 -7 -104q0 -211 187 -211q104 0 178 61.5t111 176.5h149q-70 -178 -201 -267q-127 -84 -335 -84q-248 0 -357 146q-74 100 -74 262zM430 518h21 q274 0 317 244q6 37 6 69q0 147 -112 148q-86 0 -135.5 -90t-96.5 -371zM543 1262l299 376h252l-404 -376h-147z" />
<glyph unicode="&#xea;" horiz-adv-x="1171" d="M61 379q0 76 15 149q47 268 208.5 416t397.5 148q174 0 293 -74t119 -209q0 -31 -7 -57q-59 -326 -677 -353q-6 -34 -7 -104q0 -211 187 -211q104 0 178 61.5t111 176.5h149q-70 -178 -201 -267q-127 -84 -335 -84q-248 0 -357 146q-74 100 -74 262zM430 518h21 q274 0 317 244q6 37 6 69q0 147 -112 148q-86 0 -135.5 -90t-96.5 -371zM320 1262l297 376h217l163 -376h-147l-152 225l-231 -225h-147z" />
<glyph unicode="&#xeb;" horiz-adv-x="1171" d="M61 379q0 76 15 149q47 268 208.5 416t397.5 148q174 0 293 -74t119 -209q0 -31 -7 -57q-59 -326 -677 -353q-6 -34 -7 -104q0 -211 187 -211q104 0 178 61.5t111 176.5h149q-70 -178 -201 -267q-127 -84 -335 -84q-248 0 -357 146q-74 100 -74 262zM430 518h21 q274 0 317 244q6 37 6 69q0 147 -112 148q-86 0 -135.5 -90t-96.5 -371zM426 1468.5q8 57.5 57 102.5q47 43 103 43q53 0 84 -43q33 -45 20 -103q-12 -63 -57 -104q-46 -43 -98 -43q-51 0 -86 45q-31 45 -23 102.5zM830 1468q12 59 57 102.5t98 43.5t88 -43q33 -41 21 -103 q-8 -57 -57.5 -102t-100.5 -45q-53 0 -86 45q-30 43 -20 102z" />
<glyph unicode="&#xec;" horiz-adv-x="698" d="M446 121h136l-21 -121h-455l164 942h-135l21 121h454zM127 1638h249l166 -376h-147z" />
<glyph unicode="&#xed;" horiz-adv-x="698" d="M446 121h136l-21 -121h-455l164 942h-135l21 121h454zM307 1262l299 376h252l-404 -376h-147z" />
<glyph unicode="&#xee;" horiz-adv-x="698" d="M446 121h136l-21 -121h-455l164 942h-135l21 121h454zM84 1262l297 376h217l163 -376h-147l-152 225l-231 -225h-147z" />
<glyph unicode="&#xef;" horiz-adv-x="698" d="M446 121h136l-21 -121h-455l164 942h-135l21 121h454zM190 1468.5q8 57.5 57 102.5q47 43 103 43q53 0 84 -43q33 -45 20 -103q-12 -63 -57 -104q-46 -43 -98 -43q-51 0 -86 45q-31 45 -23 102.5zM594 1468q12 59 57 102.5t98 43.5t88 -43q33 -41 21 -103 q-8 -57 -57.5 -102t-100.5 -45q-53 0 -86 45q-30 43 -20 102z" />
<glyph unicode="&#xf0;" horiz-adv-x="1228" d="M31 508q40 230 209 381q170 152 391 151q37 0 74 -6q41 -6 75 -18q-6 68 -26 119q-25 61 -54 106l-313 -149l-29 100l275 131q-47 43 -103 70q-70 33 -149 53l45 110q131 -20 221 -53q100 -37 170 -92l326 154l22 -103l-260 -125q143 -150 198.5 -350.5t14.5 -429.5 q-49 -276 -217 -430q-170 -156 -426 -156q-248 0 -366 146q-121 149 -78 391zM371 178q25 -94 125 -94t157 94q61 100 101 330q14 88 22 203q6 94 0 180q-49 23 -71 29q-31 8 -62 8q-98 0 -158 -97q-61 -100 -100 -323q-39 -232 -14 -330z" />
<glyph unicode="&#xf1;" horiz-adv-x="1339" d="M102 0l166 942h-137l23 121h454l-26 -150q72 92 155 138q76 41 195 41q160 0 223 -107q41 -70 41 -174q0 -61 -12 -135l-97 -555h136l-21 -121h-454l118 686q12 72 13 119q0 43 -11 69q-20 51 -98 52q-96 0 -154 -78q-59 -82 -90 -250l-104 -598h-320zM443 1309l2 16 q25 147 86 221q61 76 153 76q33 0 64 -12q25 -12 63 -43l58 -47l2 -2q35 -29 65 -29q37 0 66 35q27 33 39 96h98l-2 -16q-25 -143 -86 -222q-63 -76 -154 -75q-27 0 -63 14q-31 12 -66 41l-55 47h-2q-34 31 -67 31q-35 0 -64 -35q-31 -37 -39 -96h-98z" />
<glyph unicode="&#xf2;" horiz-adv-x="1228" d="M63 393q0 66 13 139q46 264 215 412q168 147 424 148q254 0 370 -148q84 -109 84 -272q0 -53 -14 -140q-46 -261 -215 -411q-168 -150 -422 -150t-371 150q-84 108 -84 272zM403 270q0 -59 9 -90q25 -96 125 -96t159.5 96t102.5 352q29 156 28 267q0 55 -8 86 q-20 94 -125 94q-100 0 -159 -96q-58 -95 -105 -351q-27 -158 -27 -262zM394 1638h249l166 -376h-147z" />
<glyph unicode="&#xf3;" horiz-adv-x="1228" d="M63 393q0 66 13 139q46 264 215 412q168 147 424 148q254 0 370 -148q84 -109 84 -272q0 -53 -14 -140q-46 -261 -215 -411q-168 -150 -422 -150t-371 150q-84 108 -84 272zM403 270q0 -59 9 -90q25 -96 125 -96t159.5 96t102.5 352q29 156 28 267q0 55 -8 86 q-20 94 -125 94q-100 0 -159 -96q-58 -95 -105 -351q-27 -158 -27 -262zM574 1262l299 376h252l-404 -376h-147z" />
<glyph unicode="&#xf4;" horiz-adv-x="1228" d="M63 393q0 66 13 139q46 264 215 412q168 147 424 148q254 0 370 -148q84 -109 84 -272q0 -53 -14 -140q-46 -261 -215 -411q-168 -150 -422 -150t-371 150q-84 108 -84 272zM403 270q0 -59 9 -90q25 -96 125 -96t159.5 96t102.5 352q29 156 28 267q0 55 -8 86 q-20 94 -125 94q-100 0 -159 -96q-58 -95 -105 -351q-27 -158 -27 -262zM351 1262l297 376h217l163 -376h-147l-152 225l-231 -225h-147z" />
<glyph unicode="&#xf5;" horiz-adv-x="1228" d="M63 393q0 66 13 139q46 264 215 412q168 147 424 148q254 0 370 -148q84 -109 84 -272q0 -53 -14 -140q-46 -261 -215 -411q-168 -150 -422 -150t-371 150q-84 108 -84 272zM403 270q0 -59 9 -90q25 -96 125 -96t159.5 96t102.5 352q29 156 28 267q0 55 -8 86 q-20 94 -125 94q-100 0 -159 -96q-58 -95 -105 -351q-27 -158 -27 -262zM404 1309l2 16q25 147 86 221q61 76 153 76q33 0 64 -12q25 -12 63 -43l58 -47l2 -2q35 -29 65 -29q37 0 66 35q27 33 39 96h98l-2 -16q-25 -143 -86 -222q-63 -76 -154 -75q-27 0 -63 14 q-31 12 -66 41l-55 47h-2q-34 31 -67 31q-35 0 -64 -35q-31 -37 -39 -96h-98z" />
<glyph unicode="&#xf6;" horiz-adv-x="1228" d="M63 393q0 66 13 139q46 264 215 412q168 147 424 148q254 0 370 -148q84 -109 84 -272q0 -53 -14 -140q-46 -261 -215 -411q-168 -150 -422 -150t-371 150q-84 108 -84 272zM403 270q0 -59 9 -90q25 -96 125 -96t159.5 96t102.5 352q29 156 28 267q0 55 -8 86 q-20 94 -125 94q-100 0 -159 -96q-58 -95 -105 -351q-27 -158 -27 -262zM457 1468.5q8 57.5 57 102.5q47 43 103 43q53 0 84 -43q33 -45 20 -103q-12 -63 -57 -104q-46 -43 -98 -43q-51 0 -86 45q-31 45 -23 102.5zM861 1468q12 59 57 102.5t98 43.5t88 -43q33 -41 21 -103 q-8 -57 -57.5 -102t-100.5 -45q-53 0 -86 45q-30 43 -20 102z" />
<glyph unicode="&#xf7;" horiz-adv-x="1542" d="M195 528v228h1155v-228h-1155zM639 272q0 66 39 107q39 43 94 43t96 -43q39 -41 39 -107q0 -63 -39 -104q-41 -45 -96 -45q-53 0 -94 45q-39 41 -39 104zM639 1012q0 63 39 104q41 45 94 45q55 0 96 -45q39 -41 39 -104q0 -66 -39 -107q-41 -43 -96 -43t-94 43 q-39 41 -39 107z" />
<glyph unicode="&#xf8;" horiz-adv-x="1228" d="M-49 -16l176 163q-47 76 -59 172q-12 98 8 213q46 264 215 412q168 147 424 148q104 0 184 -25q84 -25 137 -74l181 168l63 -86l-176 -162q47 -72 59 -168q12 -98 -8 -213q-46 -261 -215 -411q-168 -150 -422 -150q-100 0 -180 25q-74 23 -141 74l-187 -172zM403 262 q-4 -90 31 -133q35 -45 105 -45q98 0 155 94q55 88 99 330l24 141zM414 416l415 385q0 94 -32 135q-35 43 -103 43q-98 0 -157 -96q-61 -100 -101 -330z" />
<glyph unicode="&#xf9;" horiz-adv-x="1339" d="M117 942l20 121h457l-109 -621q-23 -131 -22 -192q0 -37 6 -60q23 -53 100 -53q98 0 155.5 78t88.5 252l105 596h319l-166 -942h137l-20 -121h-457l27 150q-72 -92 -156 -138q-76 -41 -192 -41q-160 0 -226 105q-41 70 -41 176q0 61 13 135l98 555h-137zM414 1638h249 l166 -376h-147z" />
<glyph unicode="&#xfa;" horiz-adv-x="1339" d="M117 942l20 121h457l-109 -621q-23 -131 -22 -192q0 -37 6 -60q23 -53 100 -53q98 0 155.5 78t88.5 252l105 596h319l-166 -942h137l-20 -121h-457l27 150q-72 -92 -156 -138q-76 -41 -192 -41q-160 0 -226 105q-41 70 -41 176q0 61 13 135l98 555h-137zM594 1262 l299 376h252l-404 -376h-147z" />
<glyph unicode="&#xfb;" horiz-adv-x="1339" d="M117 942l20 121h457l-109 -621q-23 -131 -22 -192q0 -37 6 -60q23 -53 100 -53q98 0 155.5 78t88.5 252l105 596h319l-166 -942h137l-20 -121h-457l27 150q-72 -92 -156 -138q-76 -41 -192 -41q-160 0 -226 105q-41 70 -41 176q0 61 13 135l98 555h-137zM371 1262 l297 376h217l163 -376h-147l-152 225l-231 -225h-147z" />
<glyph unicode="&#xfc;" horiz-adv-x="1339" d="M117 942l20 121h457l-109 -621q-23 -131 -22 -192q0 -37 6 -60q23 -53 100 -53q98 0 155.5 78t88.5 252l105 596h319l-166 -942h137l-20 -121h-457l27 150q-72 -92 -156 -138q-76 -41 -192 -41q-160 0 -226 105q-41 70 -41 176q0 61 13 135l98 555h-137zM477 1468.5 q8 57.5 57 102.5q47 43 103 43q53 0 84 -43q33 -45 20 -103q-12 -63 -57 -104q-46 -43 -98 -43q-51 0 -86 45q-31 45 -23 102.5zM881 1468q12 59 57 102.5t98 43.5t88 -43q33 -41 21 -103q-8 -57 -57.5 -102t-100.5 -45q-53 0 -86 45q-30 43 -20 102z" />
<glyph unicode="&#xfd;" horiz-adv-x="1069" d="M-35 -412l39 222h100q-2 -16 -2 -46q0 -70 41 -90q20 -10 60 -16q14 -2 43 -2q98 0 200 72l-256 1214h-104l23 121h391l215 -1028q96 152 172 354q68 180 137 551h-127l21 123h258q-20 -117 -56 -293q-80 -410 -180 -594q-264 -492 -475 -579q-117 -51 -293 -52 q-84 0 -207 43zM494 1262l299 376h252l-404 -376h-147z" />
<glyph unicode="&#xfe;" horiz-adv-x="1286" d="M6 -426l326 1862h-137l20 120h457l-111 -628q55 84 131 123q78 41 176 41q203 0 295 -150q61 -98 62 -248q0 -70 -17 -162q-47 -264 -188 -411q-143 -150 -348 -150q-98 0 -162 41t-88 123l-98 -561h-318zM465 309q0 -59 12 -98q29 -84 125 -84q98 0 154 88q57 92 96 317 q25 141 25 230q0 49 -11 86q-25 88 -123 88q-94 0 -151 -82q-55 -80 -90 -270l-19 -105q-18 -102 -18 -170z" />
<glyph unicode="&#xff;" horiz-adv-x="1069" d="M-35 -412l39 222h100q-2 -16 -2 -46q0 -70 41 -90q20 -10 60 -16q14 -2 43 -2q98 0 200 72l-256 1214h-104l23 121h391l215 -1028q96 152 172 354q68 180 137 551h-127l21 123h258q-20 -117 -56 -293q-80 -410 -180 -594q-264 -492 -475 -579q-117 -51 -293 -52 q-84 0 -207 43zM377 1468.5q8 57.5 57 102.5q47 43 103 43q53 0 84 -43q33 -45 20 -103q-12 -63 -57 -104q-46 -43 -98 -43q-51 0 -86 45q-31 45 -23 102.5zM781 1468q12 59 57 102.5t98 43.5t88 -43q33 -41 21 -103q-8 -57 -57.5 -102t-100.5 -45q-53 0 -86 45 q-30 43 -20 102z" />
<glyph unicode="&#x131;" horiz-adv-x="698" d="M446 121h136l-21 -121h-455l164 942h-135l21 121h454z" />
<glyph unicode="&#x152;" horiz-adv-x="2174" d="M78 748q35 213 143 385q104 166 260 251q104 61 226 84q125 25 315 25h1173l-61 -352h-125l39 215h-545l-84 -479h330l35 190h123l-90 -516h-123l32 190h-329l-107 -604h561l37 215h123l-61 -352h-1188q-178 0 -305 27q-121 25 -199 82q-126 86 -172 251q-47 171 -8 388z M456.5 747.5q-55.5 -313.5 37.5 -471.5q92 -156 331 -155h113l219 1251h-113q-240 0 -387 -158q-145 -153 -200.5 -466.5z" />
<glyph unicode="&#x153;" horiz-adv-x="1892" d="M63 393q0 66 13 139q46 264 215 412q168 147 407 148q236 0 353 -111q150 111 340 111t297 -68q156 -100 124 -272q-59 -326 -679 -353q-6 -34 -7 -104q0 -211 187 -211q104 0 178 61q78 63 113 177h147q-70 -180 -199 -267q-127 -84 -342 -84q-212 0 -319 111 q-158 -111 -391 -111q-236 0 -353 150q-84 104 -84 272zM401 291q0 -74 11 -111q25 -96 125 -96t159 96q57 92 95 307q37 213 36 287q0 80 -8 111q-20 94 -125 94q-102 0 -162 -96q-57 -92 -94 -305q-37 -209 -37 -287zM1153 518q295 -8 338 244q16 74 0 133q-18 84 -107 84 q-84 0 -133 -86q-49 -95 -98 -375z" />
<glyph unicode="&#x178;" horiz-adv-x="1314" d="M92 1372l23 121h645l-23 -121h-149l203 -569l401 569h-135l20 121h385l-20 -121h-115l-493 -702l-97 -549h181l-21 -121h-711l21 121h180l88 497l-266 754h-117zM553 1776q12 57 60 102q49 45 100 45t84 -45q29 -41 20 -102q-8 -57 -57 -103q-47 -43 -98 -43t-86 43.5 t-23 102.5zM957 1776q8 57 57 102t100 45q53 0 86 -45q35 -43 23 -102q-12 -57 -59 -103q-45 -43 -100.5 -43t-86.5 43q-28 42 -20 103z" />
<glyph unicode="&#x2c6;" horiz-adv-x="919" d="M195 1262l297 376h217l163 -376h-147l-152 225l-231 -225h-147z" />
<glyph unicode="&#x2da;" horiz-adv-x="919" d="M348.5 1534q22.5 121 110.5 203t194.5 82t167.5 -82q63 -84 41 -203q-23 -121 -110.5 -203t-196.5 -82q-106 0 -167.5 82t-39 203zM487.5 1534q-9.5 -55 18.5 -92q29 -39 76 -39q51 0 90 39q41 37 51 92q9 55 -18 92q-27 39 -78.5 39t-89.5 -39q-40 -37 -49.5 -92z" />
<glyph unicode="&#x2dc;" horiz-adv-x="919" d="M248 1309l2 16q25 147 86 221q61 76 153 76q33 0 64 -12q25 -12 63 -43l58 -47l2 -2q35 -29 65 -29q37 0 66 35q27 33 39 96h98l-2 -16q-25 -143 -86 -222q-63 -76 -154 -75q-27 0 -63 14q-31 12 -66 41l-55 47h-2q-34 31 -67 31q-35 0 -64 -35q-31 -37 -39 -96h-98z" />
<glyph unicode="&#x2000;" horiz-adv-x="960" />
<glyph unicode="&#x2001;" horiz-adv-x="1921" />
<glyph unicode="&#x2002;" horiz-adv-x="960" />
<glyph unicode="&#x2003;" horiz-adv-x="1921" />
<glyph unicode="&#x2004;" horiz-adv-x="638" />
<glyph unicode="&#x2005;" horiz-adv-x="479" />
<glyph unicode="&#x2006;" horiz-adv-x="319" />
<glyph unicode="&#x2007;" horiz-adv-x="319" />
<glyph unicode="&#x2008;" horiz-adv-x="239" />
<glyph unicode="&#x2009;" horiz-adv-x="382" />
<glyph unicode="&#x200a;" horiz-adv-x="104" />
<glyph unicode="&#x2010;" horiz-adv-x="763" d="M76 414l49 270h563l-47 -270h-565z" />
<glyph unicode="&#x2011;" horiz-adv-x="763" d="M76 414l49 270h563l-47 -270h-565z" />
<glyph unicode="&#x2012;" horiz-adv-x="763" d="M76 414l49 270h563l-47 -270h-565z" />
<glyph unicode="&#x2013;" horiz-adv-x="919" d="M78 424l43 240h723l-41 -240h-725z" />
<glyph unicode="&#x2014;" horiz-adv-x="1841" d="M78 424l43 240h1644l-43 -240h-1644z" />
<glyph unicode="&#x2018;" horiz-adv-x="638" d="M76 934q43 209 143 348q102 143 273 238l69 -136q-98 -68 -153 -161q-55 -95 -80 -234l-11 -55h-241z" />
<glyph unicode="&#x2019;" horiz-adv-x="638" d="M61 1042q100 70 154 160q55 96 80 236l8 55h244q-43 -209 -143.5 -348t-272.5 -238z" />
<glyph unicode="&#x201a;" horiz-adv-x="638" d="M27 -131q98 68 153 162q55 96 80 233l10 55h244q-43 -209 -143 -348q-102 -143 -273 -237z" />
<glyph unicode="&#x201c;" horiz-adv-x="1058" d="M76 934q43 209 143 348q102 143 273 238l69 -136q-98 -68 -153 -161q-55 -95 -80 -234l-11 -55h-241zM492 934q43 205 145 348q100 139 272 238l72 -136q-102 -70 -156 -161q-55 -95 -80 -234l-10 -55h-243z" />
<glyph unicode="&#x201d;" horiz-adv-x="1058" d="M61 1042q100 70 154 160q55 96 80 236l8 55h244q-43 -209 -143.5 -348t-272.5 -238zM479 1042q100 70 154 160q55 96 80 236l10 55h244q-43 -205 -146 -348q-100 -141 -270 -238z" />
<glyph unicode="&#x201e;" horiz-adv-x="1058" d="M27 -131q98 68 153 162q55 96 80 233l10 55h244q-43 -209 -143 -348q-102 -143 -273 -237zM444 -131q98 68 154 162q57 100 82 233l8 55h244q-43 -209 -144 -348q-102 -143 -272 -237z" />
<glyph unicode="&#x2022;" horiz-adv-x="1177" d="M266 762q0 80 23 139q27 68 69 115q47 49 107 78q55 27 124.5 26.5t125.5 -26.5q53 -25 102 -78q47 -53 71.5 -116.5t24.5 -137.5t-24 -139q-25 -63 -72 -117q-43 -49 -104 -78q-55 -27 -125 -27t-125 27q-61 29 -105 78q-41 47 -67 117q-25 65 -25 139z" />
<glyph unicode="&#x2026;" horiz-adv-x="1841" d="M150 162q16 84 73 135q61 55 131 55q71 0 111 -55q43 -57 27 -135q-12 -80 -74 -135.5t-131 -55.5q-71 0 -111 56q-38 53 -26 135zM752 162q12 80 73.5 135t128.5 55q71 0 111 -55q41 -57 29 -135q-16 -82 -76 -135q-61 -55 -129 -56q-71 0 -111 56q-40 57 -26 135z M1352 162q16 84 73 135q61 55 131 55q71 0 111 -55q43 -57 27 -135q-16 -84 -74 -135q-61 -55 -131 -56q-71 0 -111 56q-40 57 -26 135z" />
<glyph unicode="&#x202f;" horiz-adv-x="382" />
<glyph unicode="&#x2039;" horiz-adv-x="735" d="M127 516l31 168l487 385l-24 -147l-273 -322l160 -321l-27 -148z" />
<glyph unicode="&#x203a;" horiz-adv-x="735" d="M92 131l27 148l270 321l-160 322l27 147l354 -385l-28 -168z" />
<glyph unicode="&#x2044;" horiz-adv-x="305" d="M633 1520h153l-1112 -1549h-151z" />
<glyph unicode="&#x205f;" horiz-adv-x="479" />
<glyph unicode="&#x2074;" horiz-adv-x="806" d="M651 684h-467l19 94h110l23 121h-328l17 88l434 533h225l-90 -527h131l-16 -94h-134l-20 -121h113zM352 993l58 334l-275 -334h217z" />
<glyph unicode="&#x20ac;" d="M-45 530l70 119h108q0 2 1 9.5t1 13.5q2 12 10 73q0 6 3.5 18.5t7.5 30t8 31.5q2 6 2 17h-156l68 119h125q92 264 268 413q172 145 406 146q96 0 194 -31q96 -31 211 -98l-63 -367h-107q-2 197 -51 287q-49 92 -154 92q-117 0 -202 -109q-82 -102 -146 -333h424l-70 -119 h-381l-5 -25.5l-5 -25t-4 -17.5q-4 -25 -8 -45l-1 -4q-1 -4 -2 -11t-1 -16q-4 -27 -6 -49h303l-70 -119h-248q-23 -223 27 -331q49 -111 168 -111q100 0 180 86q82 88 133 252h148q-72 -221 -211 -340q-133 -115 -326 -115q-227 0 -352 145.5t-125 413.5h-172z" />
<glyph unicode="&#x2122;" horiz-adv-x="1841" d="M213 1313v180h510v-180h-70v98h-116v-416h77v-80h-292v80h77v416h-116v-98h-70zM788 915v80h76v416h-76v82h240l150 -293l149 293h221v-82h-78v-416h78v-80h-291v80h78v359l-145 -285h-103l-145 285v-359h78v-80h-232z" />
<glyph unicode="&#xe000;" horiz-adv-x="1065" d="M0 1065h1065v-1065h-1065v1065z" />
<glyph unicode="&#xfb01;" horiz-adv-x="1339" d="M-109 -389q14 82 21 113q72 0 115 57q41 57 63 186l172 975h-141l18 121h144l14 76q37 207 180 311q147 106 395 106q86 0 181 -12q92 -12 198 -37l-43 -239h-100q0 2 1 8t1 8q0 76 -43 115q-45 45 -141 45q-131 0 -207 -72t-103 -223l-16 -86h645l-166 -942h138 l-21 -121h-455l164 942h-325l-170 -971q-37 -209 -148 -270q-172 -90 -371 -90z" />
<glyph unicode="&#xfb02;" horiz-adv-x="1339" d="M-109 -389q14 82 21 113q72 0 115 57q41 57 63 186l172 975h-141l18 121h144l14 76q37 215 186 315q152 102 424 102h420l-252 -1435h137l-20 -121h-455l252 1444h-80q-127 0 -196 -70q-68 -68 -97 -225l-16 -86h219l-20 -121h-219l-170 -971q-37 -209 -148 -270 q-172 -90 -371 -90z" />
<glyph unicode="&#xfb03;" horiz-adv-x="2041" d="M-109 -389q199 0 371 90q111 61 148 270l170 971h413l-170 -975q-20 -125 -65 -186q-43 -57 -115 -57l-8 -55.5t-10 -57.5q201 0 368 90q113 63 150 270l170 971h323l-163 -942h454l23 121h-138l164 942h-643l17 86q25 154 100 223q78 72 209 72q94 0 139 -45 q41 -41 41 -115v-16h103l40 239q-101 25 -196 37q-94 12 -180 12q-248 0 -396 -106q-145 -104 -182 -311l-12 -76h-416l27 137q23 129 63 186q43 57 115 58q63 0 90 -37q20 -29 20 -88q0 -18 -2 -29h103l41 228q-74 20 -139 28q-78 10 -148 10q-199 0 -315 -92 q-119 -94 -150 -268l-22 -133h-144l-18 -121h141l-172 -975q-23 -129 -63 -186q-43 -57 -115 -57q-7 -31 -21 -113z" />
<glyph unicode="&#xfb04;" horiz-adv-x="2111" d="M-109 -389q14 82 21 113q72 0 115 57q41 57 63 186l172 975h-141l18 121h144l22 133q31 174 150 268q117 92 315 92q70 0 148 -10q66 -8 139 -28l-41 -228h-103q2 10 2 29q0 59 -20 88q-27 37 -90 37q-72 0 -115 -58q-41 -57 -63 -186l-27 -137h410l20 76q63 236 180 315 q152 102 424 102h420l-250 -1435h135l-18 -121h-457l252 1444h-80q-127 0 -196 -70q-68 -68 -97 -225l-16 -86h219l-20 -121h-217l-170 -971q-37 -207 -150 -270q-172 -90 -371 -90q14 82 21 113q72 0 115 57q41 57 63 186l172 975h-409l-170 -971q-37 -209 -148 -270 q-172 -90 -371 -90z" />
<glyph horiz-adv-x="0" d="M-631 1403q12 57 60 102q49 45 100 45t84 -45q29 -41 20 -102q-8 -57 -57 -103q-47 -43 -98 -43t-86 43.5t-23 102.5zM-227 1403q8 57 57 102t100 45q53 0 86 -45q35 -43 23 -102q-12 -57 -59 -103q-45 -43 -100.5 -43t-86.5 43q-28 42 -20 103z" />
<glyph horiz-adv-x="0" d="M-297 1526h252l-315 -264h-148z" />
<glyph horiz-adv-x="0" d="M-688 1262v12q23 125 82 190q61 66 151 66q55 0 119 -39q8 -4 10 -6l60 -33q29 -14 39 -18q20 -4 32 -4q39 0 64 24q27 23 33 70l2 4h98l-2 -15q-23 -125 -82 -188q-59 -66 -149 -65q-29 0 -60 10q-37 12 -71 35l-48 28q-29 16 -43 21q-23 6 -39 6q-37 0 -63 -27 q-25 -23 -35 -67v-4h-98z" />
<glyph horiz-adv-x="0" d="M-367 1526l117 -264h-147l-219 264h249z" />
<glyph horiz-adv-x="0" d="M-471 1526h276l154 -264h-145l-164 161l-221 -161h-148z" />
</font>
</defs>
</svg>
