<?xml version="1.0" standalone="no"?>
<!DOCTYPE svg PUBLIC "-//W3C//DTD SVG 1.1//EN" "http://www.w3.org/Graphics/SVG/1.1/DTD/svg11.dtd" >
<svg xmlns="http://www.w3.org/2000/svg">
<metadata>
This is a custom SVG webfont generated by Font Squirrel.
Copyright   : Copyright c 2003 by Bitstream Inc All Rights ReservedDejaVu changes are in public domain
Foundry     : DejaVu fonts team
Foundry URL : httpdejavusourceforgenet
</metadata>
<defs>
<font id="webfontux4gTzlJ" horiz-adv-x="1171" >
<font-face units-per-em="2048" ascent="1556" descent="-492" />
<missing-glyph horiz-adv-x="583" />
<glyph unicode=" "  horiz-adv-x="583" />
<glyph unicode="&#x09;" horiz-adv-x="583" />
<glyph unicode="&#xa0;" horiz-adv-x="583" />
<glyph unicode="!" horiz-adv-x="739" d="M141 104q8 51 52 95q39 39 92 39q51 0 77.5 -39t18.5 -94.5t-51 -94.5q-41 -39 -92 -39q-53 0 -80 39q-27 37 -17 94zM260 420l45 252l82 821h234l-205 -821l-45 -252h-111z" />
<glyph unicode="&#x22;" horiz-adv-x="845" d="M180 938v555h144v-555h-144zM524 938v555h144v-555h-144z" />
<glyph unicode="#" horiz-adv-x="1542" d="M141 414v153h314l73 334h-282v154h317l94 415h154l-92 -415h254l94 415h154l-95 -415h277v-154h-311l-74 -334h282v-153h-317l-92 -414h-156l94 414h-254l-94 -414h-153l92 414h-279zM608 567h256l74 334h-254z" />
<glyph unicode="$" d="M61 72l50 276h96q-20 -135 35 -207q55 -71 190 -73l86 485q-197 65 -264 147q-70 86 -45 222q29 160 143 258q115 96 295 108l45 268h90l-45 -268q92 -10 168 -32.5t154 -65.5l-45 -262h-99q8 113 -41 182q-49 68 -155 78l-80 -453q211 -68 285 -153q72 -84 47 -232 q-27 -164 -152 -266q-121 -98 -313 -115l-47 -270h-90l47 270q-90 4 -174 27q-81 23 -181 76zM399 987q-14 -78 25 -133q37 -53 131 -86l74 420q-90 -6 -154 -60q-60 -51 -76 -141zM522 68q102 8 168 65q61 53 80 150q14 84 -29 145t-139 92z" />
<glyph unicode="%" horiz-adv-x="1748" d="M166 1114q35 188 135 295q104 111 246 111q143 0 207 -109q66 -113 32 -297q-35 -197 -135 -299q-104 -109 -245 -108q-144 0 -209 110q-64 111 -31 297zM252 -29l1112 1549h135l-1112 -1549h-135zM309 1112q-25 -152 4 -231q31 -84 109 -84q76 0 135 84q61 88 86 231 q25 152 -4 231q-31 84 -107 84q-80 0 -139 -84q-59 -86 -84 -231zM965 377q35 190 135 297q104 111 247.5 110.5t207 -111t30.5 -296.5q-35 -190 -135 -297q-102 -109 -245.5 -109t-207 109t-32.5 297zM1108 377q-25 -152 4 -230q31 -84 108.5 -84t137.5 84q59 86 84 230 q25 152 -4 233q-31 84 -107 84q-78 0 -137 -84q-61 -88 -86 -233z" />
<glyph unicode="&#x26;" horiz-adv-x="1638" d="M72 350q0 52 12 111q20 131 111 248q88 115 245 217q-33 59 -45 123q-6 29 -6 59.5t6 65.5q29 162 148 253q121 92 297 93q70 0 137 -17q84 -20 174 -51l-43 -258h-102v25q0 92 -41 139q-49 55 -148 55q-90 0 -160 -57q-68 -55 -84 -146q-4 -29 -4 -43q0 -33 15 -80 q18 -55 96 -172l371 -544q72 74 127 172q51 90 79 198l19 107h262l-18 -107h-154q-37 -127 -102.5 -243.5t-155.5 -208.5l123 -183h211l-19 -106h-360l-98 145q-106 -86 -226 -131q-113 -43 -237 -43q-233 0 -346 131q-84 101 -84 248zM262 401q0 -114 62 -196 q84 -113 237 -113q96 0 180 35q90 37 164 104l-416 613q-90 -74 -147 -168q-55 -88 -74 -193q-6 -43 -6 -82z" />
<glyph unicode="'" horiz-adv-x="505" d="M180 938v555h144v-555h-144z" />
<glyph unicode="(" horiz-adv-x="718" d="M145 618q61 354 215 592q156 240 392 346l-17 -98q-158 -109 -252 -299q-94 -193 -155 -541q-61 -344 -33 -540q27 -193 145 -299l-16 -98q-199 106 -270 346q-70 233 -9 591z" />
<glyph unicode=")" horiz-adv-x="718" d="M-35 -319l19 98q158 109 252 299t155 540q61 346 33 541q-27 190 -148 299l19 98q199 -106 270 -346q70 -233 8 -592q-61 -354 -215 -591q-155 -240 -393 -346z" />
<glyph unicode="*" horiz-adv-x="919" d="M31 870l352 183l-352 184l67 119l314 -217l-13 381h123l-12 -381l313 217l70 -119l-352 -182l352 -185l-70 -118l-313 217l12 -381h-123l13 381l-314 -217z" />
<glyph unicode="+" horiz-adv-x="1542" d="M195 561v162h505v561h144v-561h506v-162h-506v-561h-144v561h-505z" />
<glyph unicode="," horiz-adv-x="583" d="M37 -199q92 63 151.5 161.5t79.5 227.5l6 37h179q-35 -166 -125 -293q-88 -125 -234 -213z" />
<glyph unicode="-" horiz-adv-x="620" d="M68 471l26 156h461l-27 -156h-460z" />
<glyph unicode="." horiz-adv-x="583" d="M174 104q8 53 49 95q39 39 94 39q51 0 78 -39t19 -94.5t-52 -94.5q-41 -39 -92 -39t-77.5 39t-18.5 94z" />
<glyph unicode="/" horiz-adv-x="620" d="M-147 -190l772 1683h143l-770 -1683h-145z" />
<glyph unicode="0" d="M121 745q66 371 223 572q160 203 377 203q221 0 307 -203q88 -205 22.5 -571.5t-223.5 -571.5q-156 -203 -376 -203q-219 0 -306 203q-87 209 -24 571zM291 238q39 -168 176 -168t235 168q100 172 158 507q61 338 21 508q-39 168 -176.5 168t-235.5 -168 q-96 -164 -158 -508q-59 -343 -20 -507z" />
<glyph unicode="1" d="M129 0l18 106h234l217 1242l-303 -195l22 131l369 236h125l-250 -1414h236l-19 -106h-649z" />
<glyph unicode="2" d="M-8 0l18 109l488 452q168 158 241 275q78 121 103 264q27 150 -28.5 235.5t-180.5 85.5q-127 0 -211 -71.5t-121 -212.5h-100l47 266q106 57 209 88q98 29 196 29q211 0 312 -113q101 -114 67 -307q-37 -219 -366 -525l-22.5 -19t-16.5 -15l-406 -377h561l31 184h107 l-62 -348h-866z" />
<glyph unicode="3" d="M23 72l51 290h100q-16 -145 49 -219q63 -74 207 -73q139 0 233.5 88t122.5 243q31 176 -36.5 266.5t-223.5 90.5h-86l19 102h45q158 0 248 72q92 74 116 219q23 133 -28 201q-51 70 -174 69.5t-201 -63.5q-76 -61 -111 -191h-100l45 263q135 51 213 67q106 23 186 23 q197 0 291 -95q92 -94 66 -262q-25 -137 -117 -225q-96 -94 -238 -123q160 -25 234 -133q74 -106 43 -279q-37 -209 -184 -321q-145 -111 -383 -111q-106 0 -201 25q-102 27 -186 76z" />
<glyph unicode="4" d="M-6 399l18 109l766 1012h178l-178 -1014h258l-18 -107h-258l-51 -293h217l-19 -106h-612l18 106h215l52 293h-586zM139 506h459l139 794z" />
<glyph unicode="5" d="M41 72l51 290h103q-18 -143 43 -217q63 -76 192 -75q139 0 236 104q94 104 129 299q33 193 -24.5 297t-201.5 104q-76 0 -147 -32q-63 -29 -127 -99h-78l131 750h713l-31 -164h-614l-74 -428q47 33 117 53q66 18 143 19q221 0 322 -133q100 -135 61 -367 q-39 -233 -192 -369q-152 -133 -381 -133q-92 0 -185 25q-100 27 -186 76z" />
<glyph unicode="6" d="M115 698q66 387 252 607q182 215 444 215q76 0 147 -15q78 -16 152 -45l-43 -246h-100q6 101 -43 154t-148 53q-176 0 -286.5 -147.5t-165.5 -452.5q76 76 157 113q84 37 181 37q205 0 294 -133q92 -135 54 -367q-41 -229 -191 -365q-152 -135 -358 -135 q-227 0 -317 188.5t-29 538.5zM293 483q-33 -199 16 -307q49 -106 176 -106t213 104q88 106 121 297t-16 297q-49 104 -178 104q-127 0 -213 -100.5t-119 -288.5z" />
<glyph unicode="7" d="M225 1145l60 348h884l-18 -102l-768 -1391h-133l733 1329h-621l-32 -184h-105z" />
<glyph unicode="8" d="M63 408q29 162 132 262q106 104 262 125q-129 27 -189 114q-57 86 -32 224q31 178 161 284q127 102 324 103q199 0 289 -103q92 -104 61 -284q-25 -137 -110 -224q-88 -88 -228 -114q147 -20 217 -125q68 -100 39 -262q-37 -209 -176 -324q-137 -113 -362 -113 q-223 0 -324 113t-64 324zM254 407.5q-27 -159.5 29 -249.5q55 -88 184 -88q131 0 217 88q90 92 117 250q27 160 -29 249q-55 88 -186 88t-217 -88q-88 -90 -115 -249.5zM417.5 1132.5q-24.5 -137.5 25 -213t159.5 -75.5q113 0 189 76q78 78 98 213q25 135 -25 213 q-49 76 -159.5 75.5t-186.5 -76t-100.5 -213z" />
<glyph unicode="9" d="M61 31l43 248h101q-6 -96 45 -154q49 -55 145 -55q176 0 287 147q115 152 168 453q-78 -78 -160 -113q-86 -37 -182 -37q-203 0 -293 133t-51 367q41 229 190.5 364.5t358.5 135.5q225 0 315 -188.5t29 -538.5q-66 -387 -252 -607q-182 -215 -445 -215q-76 0 -147 15 q-78 16 -152 45zM354 1020q-33 -190 17 -297q49 -104 176 -104.5t213 100t119 289.5q35 201 -14.5 307t-176.5 106q-129 0 -215 -104q-84 -102 -119 -297z" />
<glyph unicode=":" horiz-adv-x="620" d="M135 104q8 55 51 95q41 39 90 39q53 0 80 -39t19 -95q-8 -51 -51 -94q-39 -39 -92.5 -39t-79.5 39q-27 37 -17 94zM250 756q8 53 49 94q39 39 92 39q52 0 80 -37q27 -35 16 -96q-8 -55 -51 -94t-92 -39q-51 0 -78 39q-26 37 -16 94z" />
<glyph unicode=";" horiz-adv-x="620" d="M-23 -199q96 66 154 162q59 98 80 227l6 37h176q-37 -170 -123 -293q-88 -125 -233 -213zM274.5 755.5q8.5 55.5 51.5 94.5q41 39 92 39t77.5 -39t18.5 -94.5t-51 -93.5q-41 -39 -92.5 -39t-78 38.5t-18 94z" />
<glyph unicode="&#x3c;" horiz-adv-x="1542" d="M195 559v166l1155 465v-170l-934 -379l934 -377v-170z" />
<glyph unicode="=" horiz-adv-x="1542" d="M195 358v160h1155v-160h-1155zM195 766v160h1155v-160h-1155z" />
<glyph unicode="&#x3e;" horiz-adv-x="1542" d="M195 94v170l935 377l-935 379v170l1155 -465v-166z" />
<glyph unicode="?" horiz-adv-x="987" d="M199 1167l45 260q113 49 194 70q94 23 164 23q199 0 297 -107q96 -106 66 -289q-31 -188 -152 -305q-119 -115 -330 -168l-45 -254h-110l57 328q168 43 264 143q100 102 127 258q25 135 -28 215q-51 80 -164 80q-102 0 -181 -65q-76 -63 -116 -189h-88zM213 104 q8 55 51 95q41 39 92.5 39t78 -39t18 -94.5t-51.5 -94.5q-41 -39 -92 -39q-53 0 -80 39q-26 37 -16 94z" />
<glyph unicode="@" horiz-adv-x="1841" d="M119 190q-31 160 4 353q31 188 119 348q89 163 227 289q135 127 303 194q166 68 342 68q193 0 336 -82q145 -84 225 -240q49 -92 66 -213q16 -115 -6 -239q-46 -267 -222 -424q-172 -154 -428 -158l27 162q-66 -82 -139 -121q-76 -41 -158 -41q-158 0 -233 125 q-76 123 -41 326q33 197 155 325q119 125 277 125q84 0 143.5 -41t97.5 -121l25 142h139l-135 -772q162 37 268.5 161.5t137.5 313.5q20 102 6 211q-12 102 -58 182q-71 132 -196 203q-127 72 -287 71q-82 0 -164 -18q-76 -16 -168 -59q-201 -94 -331 -281 q-133 -188 -177 -436q-29 -172 -8 -307q20 -141 88 -244q78 -121 201 -182.5t279 -61.5q111 0 223 39q111 37 209 113l34 -70q-117 -94 -245 -139q-135 -47 -279 -47q-166 0 -303 67q-135 66 -227 189q-96 126 -127 290zM700 537q-28 -160 19 -246q47 -88 155 -88 q104 0 181 78q78 80 98 204l21 105q23 129 -29 203q-53 78 -156 77q-106 0 -184 -88q-76 -85 -105 -245z" />
<glyph unicode="A" horiz-adv-x="1329" d="M-141 0l18 106h119l721 1387h151l238 -1387h131l-18 -106h-490l19 106h149l-53 328h-568l-167 -328h147l-18 -106h-379zM334 541h491l-120 710z" />
<glyph unicode="B" horiz-adv-x="1353" d="M-29 0l19 106h172l223 1280h-172l18 107h666q203 0 289 -92q63 -68 63 -186q0 -42 -8 -91q-25 -135 -108.5 -212.5t-227.5 -96.5q170 -25 240 -121q51 -71 51 -175q0 -41 -8 -87q-41 -223 -184 -328q-144 -104 -412 -104h-621zM342 106h270q160 0 250 78q88 76 119 248 q9 57 9 103q0 93 -40 143q-61 78 -225 78h-268zM475 862h230q150 0 227.5 63.5t101.5 198.5q8 42 8 77q0 80 -41 122q-59 63 -204 63h-230z" />
<glyph unicode="C" horiz-adv-x="1409" d="M96 422q-11 63 -11 134q0 89 17 189q61 348 280.5 561.5t514.5 213.5q111 0 229 -31q102 -27 250 -98l-61 -344h-101q0 187 -86 276q-86 90 -266 90q-213 0 -354 -170q-139 -168 -199 -498q-24 -132 -23 -240q0 -155 48 -257q80 -170 295 -170q152 0 262 80t182 237h164 q-96 -211 -254 -317.5t-373 -106.5q-131 0 -235 49q-102 49 -174 148q-80 111 -105 254z" />
<glyph unicode="D" horiz-adv-x="1476" d="M-29 0l19 106h172l223 1280h-172l18 107h537q346 0 506 -197q115 -142 115 -365q0 -86 -17 -183q-61 -352 -291 -549q-233 -199 -575 -199h-535zM342 106h170q261 0 430 166q168 166 223 476q18 101 18 186q0 178 -75 289q-111 164 -373 163h-168z" />
<glyph unicode="E" horiz-adv-x="1343" d="M-29 0l19 106h172l223 1280h-172l18 107h1084l-60 -332h-110l37 209h-619l-86 -500h441l32 187h111l-86 -496h-113l35 187h-440l-111 -625h633l37 209h108l-57 -332h-1096z" />
<glyph unicode="F" horiz-adv-x="1277" d="M-29 0l19 106h172l223 1280h-172l18 107h1100l-57 -332h-111l37 209h-637l-86 -500h459l33 187h110l-86 -496h-110l32 187h-458l-115 -642h215l-16 -106h-570z" />
<glyph unicode="G" horiz-adv-x="1470" d="M102 745q61 350 283 564q219 211 533 211q123 0 231 -29q127 -33 246 -90l-62 -354h-100q0 190 -84 276q-86 90 -262 90q-231 0 -374.5 -166t-203.5 -502q-23 -130 -23 -235q0 -160 54 -262q90 -170 317 -170q96 0 199 28q92 27 193 84l65 385h-252l19 107h436l-98 -557 q-123 -72 -279 -115q-141 -39 -301 -39q-303 0 -451 211q-104 150 -104 369q0 91 18 194z" />
<glyph unicode="H" horiz-adv-x="1605" d="M-29 0l19 106h172l223 1280h-172l18 107h527l-21 -107h-170l-90 -516h697l90 516h-170l18 107h524l-18 -107h-170l-225 -1280h172l-21 -106h-524l18 106h172l111 642h-694l-115 -642h172l-18 -106h-525z" />
<glyph unicode="I" horiz-adv-x="727" d="M-29 0l19 106h172l223 1280h-172l18 107h527l-21 -107h-170l-225 -1280h172l-18 -106h-525z" />
<glyph unicode="J" horiz-adv-x="737" d="M-311 -358l41 235h102q-4 -28 -4 -53q0 -58 22 -94q31 -49 109 -49q106 0 164 75q55 74 92 293l236 1337h-209l18 107h561l-18 -107h-170l-236 -1345q-43 -244 -151 -356q-106 -111 -307 -111q-70 0 -127 16q-62 19 -123 52z" />
<glyph unicode="K" horiz-adv-x="1376" d="M-29 0l19 106h172l223 1280h-172l18 107h527l-21 -107h-170l-98 -565l678 565h-148l21 107h444l-16 -107h-154l-673 -563l520 -717h151l-18 -106h-311l-514 709l-107 -603h172l-18 -106h-525z" />
<glyph unicode="L" horiz-adv-x="1222" d="M-29 0l19 106h172l223 1280h-172l18 107h527l-21 -107h-170l-221 -1263h615l43 250h110l-65 -373h-1078z" />
<glyph unicode="M" horiz-adv-x="1886" d="M-29 0l19 106h172l223 1280h-180l16 107h393l285 -1063l657 1063h367l-16 -107h-181l-223 -1280h170l-16 -106h-527l19 106h172l201 1154l-643 -1041h-127l-279 1041l-203 -1154h172l-18 -106h-453z" />
<glyph unicode="N" horiz-adv-x="1611" d="M-39 0l19 106h182l223 1280h-180l18 107h344l600 -1178l189 1071h-180l18 107h471l-18 -107h-183l-245 -1415h-109l-641 1258l-197 -1123h181l-19 -106h-473z" />
<glyph unicode="O" horiz-adv-x="1509" d="M96 422q-10 58 -10 125q0 90 18 198q31 182 105 324q76 143 194 254q111 100 228 147q123 49 260 50q295 0 436 -213q100 -150 100 -366q0 -92 -18 -196q-31 -174 -106 -323q-72 -141 -195 -254q-111 -100 -227 -148q-123 -49 -260 -49q-133 0 -242 49q-108 49 -178 148 q-80 111 -105 254zM309 745q-23 -132 -23 -239q0 -158 50 -260q82 -168 303 -168t362 168q139 166 199 499q24 137 24 246q0 155 -48 254q-82 168 -303.5 168t-362.5 -168q-144 -170 -201 -500z" />
<glyph unicode="P" horiz-adv-x="1239" d="M-29 0l19 106h172l223 1280h-172l18 107h637q201 0 299 -113q74 -86 74 -215q0 -44 -8 -92q-35 -193 -172 -305q-139 -115 -340 -115h-283l-96 -547h209l-19 -106h-561zM459 760h235q133 0 219 80q82 76 111 233q8 50 8 92q0 88 -37 142q-55 80 -190 79h-238z" />
<glyph unicode="Q" horiz-adv-x="1509" d="M111 549q0 92 18 196q31 176 107 324q76 143 194 254q104 98 227 147.5t261 49.5q291 0 436 -213q98 -145 98 -365q0 -104 -16 -197q-53 -297 -223.5 -497.5t-417.5 -259.5q37 -68 100 -99q70 -33 164 -32h223l-33 -185h-104q-242 0 -338 82t-139 217q-307 0 -455 211 q-102 146 -102 367zM311 502q0 -154 49 -256q82 -168 306 -168q221 0 362 168q141 170 201 499q23 141 22 244q0 156 -49 254q-84 170 -303 170q-221 0 -362 -168q-143 -170 -201 -500q-25 -134 -25 -243z" />
<glyph unicode="R" horiz-adv-x="1386" d="M-29 0l19 106h172l223 1280h-172l18 107h682q197 0 285 -104q65 -76 65 -197q0 -46 -10 -98q-27 -152 -120 -242q-92 -88 -250 -111q57 -16 96 -65t59 -127l117 -443h166l-21 -106h-315l-127 475q-37 138 -80 178q-45 41 -131 41h-201l-104 -588h190l-18 -106h-543z M465 801h264q137 0 215 71.5t103 221.5q9 53 8 95q0 81 -33 126q-53 72 -188 71h-267z" />
<glyph unicode="S" horiz-adv-x="1261" d="M53 72l60 340h102q-7 -45 -6 -84q0 -108 51 -168q70 -82 242 -82q162 0 258 72q98 72 119 204q6 35 6 65q0 62 -27 101q-39 57 -194 113l-168 59q-184 66 -244 162q-42 67 -42 166q0 46 9 100q33 188 174 295q139 104 361 105q88 0 200 -23q104 -20 226 -65l-56 -318 h-100q2 24 2 46q0 123 -57 183q-68 70 -232 70q-139 0 -227 -65q-86 -63 -107 -187q-5 -32 -5 -59q0 -66 32 -109q43 -59 215 -121l158 -55q170 -61 231 -155q43 -67 43 -164q0 -42 -8 -90q-37 -213 -182 -326q-145 -111 -391 -111q-111 0 -222 25q-115 25 -221 76z" />
<glyph unicode="T" horiz-adv-x="1228" d="M86 1141l64 352h1191l-61 -352h-111l41 233h-395l-221 -1268h172l-18 -106h-527l19 106h172l223 1268h-397l-39 -233h-113z" />
<glyph unicode="U" horiz-adv-x="1552" d="M201 1386l18 107h526l-20 -107h-170l-135 -772q-22 -126 -22 -217q0 -118 36 -182q63 -113 271 -113q205 0 309 113q104 114 153 399l136 772h-173l21 107h453l-19 -107h-172l-137 -792q-57 -336 -203 -481q-141 -141 -426 -142q-283 0 -377 142q-59 88 -59 252 q0 101 22 229l140 792h-172z" />
<glyph unicode="V" horiz-adv-x="1329" d="M94 1386l19 107h489l-18 -107h-150l197 -1146l596 1146h-152l19 107h395l-19 -107h-131l-723 -1386h-153l-236 1386h-133z" />
<glyph unicode="W" horiz-adv-x="1892" d="M121 1386l18 107h492l-21 -107h-166l86 -1103l519 1210h145l98 -1223l477 1116h-155l18 107h387l-18 -107h-131l-596 -1386h-148l-96 1214l-518 -1214h-147l-111 1386h-133z" />
<glyph unicode="X" horiz-adv-x="1310" d="M-121 0l21 106h153l498 627l-279 653h-145l20 107h533l-18 -107h-160l205 -481l380 481h-174l19 107h440l-18 -107h-152l-454 -575l299 -705h145l-18 -106h-535l18 106h162l-227 533l-422 -533h172l-16 -106h-447z" />
<glyph unicode="Y" horiz-adv-x="1214" d="M90 1386l21 107h497l-16 -107h-158l230 -604l442 604h-152l19 107h391l-18 -107h-127l-533 -724l-96 -556h172l-19 -106h-526l19 106h172l94 537l-285 743h-127z" />
<glyph unicode="Z" horiz-adv-x="1280" d="M-47 0l12 72l1063 1298h-694l-39 -223h-111l62 346h1061l-13 -72l-1065 -1298h760l37 209h111l-60 -332h-1124z" />
<glyph unicode="[" horiz-adv-x="718" d="M0 -270l317 1826h420l-18 -106h-248l-283 -1614h248l-18 -106h-418z" />
<glyph unicode="\" horiz-adv-x="620" d="M147 1493h144l182 -1683h-143z" />
<glyph unicode="]" horiz-adv-x="718" d="M-18 -270l18 106h248l282 1614h-247l18 106h420l-320 -1826h-419z" />
<glyph unicode="^" horiz-adv-x="1542" d="M195 936l489 557h176l490 -557h-140l-438 381l-438 -381h-139z" />
<glyph unicode="_" horiz-adv-x="919" d="M0 -403h922v-80h-922v80z" />
<glyph unicode="`" horiz-adv-x="919" d="M330 1636h178l168 -376h-107z" />
<glyph unicode="a" horiz-adv-x="1097" d="M61 295q0 41 11 106q61 356 282 537q190 154 416 154q154 0 207 -29l-168 -957h141l-18 -106h-291l29 166q-121 -195 -314 -195q-158 0 -237 119q-58 86 -58 205zM238 299q0 -213 186 -213q115 0 190.5 100.5t110.5 292.5l84 482q0 29 -74 28q-172 0 -307 -149 q-131 -150 -180 -424q-10 -54 -10 -117z" />
<glyph unicode="b" horiz-adv-x="1177" d="M80 0l252 1450h-160l21 106h323l-115 -659q63 100 150 147q84 47 194 48q174 0 261 -154q57 -104 57 -246q0 -68 -16 -160q-43 -248 -183 -405q-137 -156 -315 -156q-109 0 -178 47q-68 46 -99 148l-28 -166h-164zM313 338q0 -88 29 -152q49 -100 176 -100q125 0 211 113 q88 117 125 333q16 90 16 180.5t-24 151.5q-47 113 -172 113q-127 0 -209 -100q-86 -104 -119 -293l-18 -105q-15 -73 -15 -141z" />
<glyph unicode="c" horiz-adv-x="1030" d="M78 385q0 76 14 147q43 252 199 408q152 152 360 152q98 0 178 -23q90 -27 168 -72l-47 -272h-96v27q0 119 -47 178q-51 63 -170 63q-133 0 -223 -116.5t-129 -344.5q-18 -104 -19 -188q0 -88 27 -158q47 -117 182 -116q109 0 182 61q72 59 119 188h135 q-66 -172 -180.5 -260t-273.5 -88q-207 0 -310 154q-69 106 -69 260z" />
<glyph unicode="d" horiz-adv-x="1177" d="M37 373q0 80 14 159q43 252 182.5 406t317.5 154q106 0 176 -48q68 -46 98 -147l97 553h-156l18 106h322l-272 -1556h-166l28 166q-63 -100 -149 -148q-84 -47 -193 -47q-174 0 -262 156q-55 105 -55 246zM227 352q0 -92 25 -153q45 -113 174 -113q127 0 209 100.5 t117 292.5l18 105q14 72 14 141q0 88 -28 152q-49 100 -174 100t-213 -113q-86 -111 -123 -332q-19 -102 -19 -180z" />
<glyph unicode="e" horiz-adv-x="1089" d="M78 385q0 74 14 145q43 250 197 408q150 154 366 154q352 0 353 -277q0 -205 -185 -303q-190 -102 -553 -104q-4 -49 -4 -72q0 -94 31 -156q51 -111 195 -110q102 0 155 34q92 66 115 146h121q-39 -131 -170 -217q-94 -61 -278.5 -61.5t-287.5 153.5q-69 106 -69 260z M289 514q291 16 442 119q100 63 100 188q0 172 -202 172q-121 0 -205 -102.5t-135 -376.5z" />
<glyph unicode="f" horiz-adv-x="681" d="M-115 -426l11 98q95 0 141 56q49 61 74 206l178 1022h-158l19 107h157l25 133q31 178 131 268q98 92 260 92q59 0 117 -12q59 -12 114 -37l-36 -202h-87q2 14 3 41q0 47 -21 73q-31 39 -102 39q-92 0 -140 -57q-49 -59 -73 -201l-25 -137h268l-18 -107h-268l-179 -1022 q-31 -176 -131 -270q-96 -90 -260 -90z" />
<glyph unicode="g" horiz-adv-x="1177" d="M66 -379l38 223h86v-11q0 -94 50 -140q52 -49 166 -49q147 0 229 92q86 92 119 287l24 143q-63 -100 -149 -148q-84 -47 -191 -47q-158 0 -237 119q-49 74 -56 178q-1 15 0 30q0 52 9 103q61 356 282 537q186 154 410 154q203 0 254 -29l-182 -1040q-41 -240 -175 -353 q-143 -125 -346 -125q-94 0 -176 19q-73 16 -155 57zM319 272q2 -55 27 -102q43 -84 160 -84q127 0 209 100q86 104 119 293l18 105l66 372q0 33 -99 33q-176 0 -307 -149q-133 -150 -180 -424q-13 -67 -13 -122q-1 -12 0 -22z" />
<glyph unicode="h" horiz-adv-x="1185" d="M88 0l254 1450h-158l19 106h323l-118 -682q63 106 147 162t180 56q158 0 215 -101q35 -63 35 -164q0 -72 -14 -151l-101 -570h148l-19 -106h-313l109 618q16 92 16 173q0 68 -12 94q-31 72 -142 71q-115 0 -192 -94q-76 -90 -107 -270l-104 -592h-166z" />
<glyph unicode="i" horiz-adv-x="587" d="M92 0l168 956h-158l19 107h323l-168 -957h158l-18 -106h-324zM289 1370q0 14 2 23q10 47 45 80q39 35 78 34q41 0 65 -34q18 -25 19 -58q0 -14 -2 -22q-10 -47 -45 -80t-76 -33q-43 0 -68 33q-18 24 -18 57z" />
<glyph unicode="j" horiz-adv-x="569" d="M-338 -389l39 219h86q-2 -16 -2 -45q0 -63 20 -96q31 -45 107 -45q82 0 131 61q51 63 72 191l184 1060h-156l19 107h323l-204 -1167q-29 -166 -133.5 -258.5t-258.5 -92.5q-61 0 -120.5 16.5t-106.5 49.5zM334 1370q0 14 2 23q10 47 45 80q39 35 78 34q41 0 65 -34 q18 -25 19 -58q0 -14 -2 -22q-9 -46 -43 -80q-33 -33 -78 -33q-43 0 -68 33q-18 24 -18 57z" />
<glyph unicode="k" horiz-adv-x="1114" d="M76 0l254 1450h-160l18 106h326l-176 -1013l473 413h-135l16 107h271l-19 -107l-336 -292l266 -558h138l-19 -106h-266l-260 543l-154 -135l-71 -408h-166z" />
<glyph unicode="l" horiz-adv-x="587" d="M76 0l254 1450h-160l18 106h326l-254 -1450h158l-21 -106h-321z" />
<glyph unicode="m" horiz-adv-x="1746" d="M129 0l168 958h-158l19 105h323l-32 -189q63 104 145 162q80 55 170 56q113 0 176.5 -61.5t69.5 -174.5q70 121 151 176q88 59 185 60q152 0 206 -105q33 -59 33 -162q0 -72 -14 -149l-101 -570h150l-18 -106h-316l115 655q14 72 14 133q0 59 -16 99q-31 70 -131 69 q-109 0 -185 -94q-76 -96 -106 -270l-103 -592h-165l114 662q14 86 15 129q0 66 -19 98q-31 68 -131 67q-109 0 -184 -94q-74 -92 -105 -270l-104 -592h-166z" />
<glyph unicode="n" horiz-adv-x="1185" d="M129 0l168 956h-160l21 107h323l-32 -189q63 106 147 162t180 56q158 0 215 -101q35 -63 35 -164q0 -72 -14 -151l-101 -570h148l-19 -106h-315l109 618q18 104 18 173q0 66 -14 96q-31 72 -140 71q-115 0 -192 -94q-76 -90 -107 -272l-104 -592h-166z" />
<glyph unicode="o" horiz-adv-x="1107" d="M78 385q0 76 14 147q43 252 196.5 406t364.5 154q207 0 310 -154q68 -106 67 -258q0 -86 -12 -148q-43 -252 -199 -407q-154 -154 -362 -154q-207 0 -310 154q-69 106 -69 260zM266 348q0 -92 27 -162q49 -117 180 -116q133 0 223 116q86 113 127 346q18 104 19 185 q0 90 -27 160q-49 117 -180 116q-132 0 -221 -116.5t-129 -344.5q-19 -104 -19 -184z" />
<glyph unicode="p" horiz-adv-x="1177" d="M80 -426l242 1382h-160l18 107h326l-29 -166q63 100 150 147q84 47 192 48q180 0 262 -154q55 -101 56 -246q0 -80 -15 -160q-43 -248 -182 -405q-137 -156 -315 -156q-109 0 -179 47q-68 46 -98 148l-102 -592h-166zM389 338q0 -84 31 -152q49 -100 174 -100t211 113 q84 113 125 333q16 90 16 180.5t-24 151.5q-47 113 -172 113q-129 0 -211 -100.5t-117 -292.5l-19 -105q-14 -73 -14 -141z" />
<glyph unicode="q" horiz-adv-x="1177" d="M166 268q-1 15 -1 30q0 52 9 103q61 356 283 537q186 154 409 154q178 0 230 -29l-242 -1382h158l-19 -107h-323l102 592q-59 -98 -137 -148q-76 -47 -174 -47q-160 0 -240 119q-49 74 -55 178zM342 272q2 -59 25 -102q43 -84 159 -84q115 0 191 100.5t110 292.5l84 482 q0 29 -71 28q-172 0 -308 -149q-133 -152 -182 -424q-9 -58 -9 -113q0 -16 1 -31z" />
<glyph unicode="r" horiz-adv-x="880" d="M129 0l168 958h-158l19 105h323l-32 -189q68 113 153 164q88 53 197 54q39 0 82 -7q33 -4 92 -20l-47 -266h-97q2 14 2 37q0 55 -20 82q-27 39 -96 38q-121 0 -203 -94t-113 -270l-104 -592h-166z" />
<glyph unicode="s" horiz-adv-x="944" d="M20 59l43 248h97q-4 -37 -4 -55q0 -182 223 -182q221 0 256 182q2 12 2 49q0 33 -31 70t-160 86l-112 45q-113 43 -152 100t-39 123q0 14 4 55q27 147 138 230q109 82 270.5 82t327.5 -86l-41 -232h-94q4 29 4 43q0 72 -47 125q-45 51 -150 51q-213 0 -242 -164 q-4 -25 -4 -47q0 -33 31 -65q33 -37 143 -78l123 -45q125 -45 176 -119q33 -47 33 -98q0 -211 -151 -320q-120 -86 -302 -86q-184 0 -342 88z" />
<glyph unicode="t" horiz-adv-x="739" d="M100 956l21 107h145l58 330h165l-57 -330h311l-18 -107h-311l-119 -675q-14 -74 -14 -125q0 -27 8 -47q18 -39 80 -39q63 0 100 43q39 47 57 137h125q-35 -145 -108 -211q-76 -68 -207 -68q-143 0 -191 72q-29 45 -28 123q0 51 12 115l119 675h-148z" />
<glyph unicode="u" horiz-adv-x="1185" d="M127 956l18 107h316l-109 -619q-16 -92 -16 -172q0 -68 12 -94q31 -72 141 -72q115 0 191 95q78 96 108 272l105 590h166l-168 -957h156l-19 -106h-321l32 188q-63 -106 -147 -161q-83 -55 -178 -56q-160 0 -217 101q-35 63 -35 164q0 72 14 151l100 569h-149z" />
<glyph unicode="v" horiz-adv-x="1040" d="M70 956l16 107h250l162 -838q98 94 172 228q141 258 194 503h-108l18 107h248q-96 -408 -223 -643q-102 -193 -316 -420h-121l-184 956h-108z" />
<glyph unicode="w" horiz-adv-x="1576" d="M104 954l19 109h246l100 -830l393 830h117l98 -830q120 144 148 197q92 186 194 526l-139 -2l20 109h240l-18 -109h-2q-94 -381 -179 -548q-129 -255 -270 -406h-137l-98 795l-375 -795h-133l-117 956z" />
<glyph unicode="x" horiz-adv-x="1038" d="M4 0l422 510l-211 446h-119l19 107h243l199 -414l342 414h115l-416 -500l219 -457h125l-18 -106h-250l-205 424l-350 -424h-115z" />
<glyph unicode="y" horiz-adv-x="1040" d="M-68 -424l35 203h84q-2 -10 -2 -31q0 -41 19 -65q23 -35 79 -35q160 0 297 153l-227 1155h-108l18 107h248l213 -1055q147 246 180 340q115 311 135 598h-108l18 109h248q-88 -569 -248 -875q-231 -444 -414 -575q-82 -59 -297 -60q-45 0 -84 9q-57 12 -86 22z" />
<glyph unicode="z" horiz-adv-x="970" d="M-18 0l14 86l653 758l-35 12q-35 14 -61 33l-43 31q-84 57 -145 57q-119 0 -259 -152l21 121q154 168 272 168q72 -4 172 -70q104 -70 162 -69q98 0 193 88h53l-14 -86l-656 -758q4 0 13.5 -4t23.5 -8q35 -14 62 -33l43 -31q84 -57 145 -57q119 0 258 152l-23 -121 q-154 -168 -270 -168q-72 4 -172 69q-104 70 -162 70q-98 0 -192 -88h-53z" />
<glyph unicode="{" d="M221 559l19 105h55q127 0 186.5 59t83.5 207l45 258q40 221 129 294.5t314 73.5h55l-18 -104h-62q-127 0 -174 -43q-45 -41 -70 -186l-51 -287q-29 -162 -84 -225q-59 -68 -180 -99q115 -35 147.5 -100.5t4.5 -224.5l-52 -287q-25 -141 6 -184q33 -45 158 -45h62 l-19 -105h-55q-221 0 -287 74q-65 74 -24 295l45 258q25 154 -13 209q-39 57 -166 57h-55z" />
<glyph unicode="|" horiz-adv-x="620" d="M238 -483v2048h145v-2048h-145z" />
<glyph unicode="}" d="M66 -334l18 105h61q126 0 172 43q47 43 72 186l49 287q27 156 84 225q53 66 180 100q-113 31 -145 99q-33 66 -4 225l49 287q25 145 -4 186q-31 43 -158 43h-61l16 104h58q225 0 286.5 -73.5t22.5 -294.5l-45 -258q-25 -152 12 -207q41 -59 168 -59h55l-18 -105h-57 q-129 0 -187 -57q-59 -59 -84 -209l-45 -258q-41 -223 -127 -295q-90 -74 -311 -74h-57z" />
<glyph unicode="~" horiz-adv-x="1542" d="M195 477v152q90 88 170 127q82 41 165.5 41t243.5 -66l8 -4q12 -4 29 -12q127 -57 217 -58q84 0 164 37q78 37 158 113v-148q-84 -84 -172 -131q-76 -41 -164 -41q-84 0 -244 66l-8 4l-31 12q-129 57 -217 58q-84 0 -162 -37q-81 -39 -157 -113z" />
<glyph unicode="&#xa1;" horiz-adv-x="739" d="M123 0l203 821l45 252h108l-43 -252l-82 -821h-231zM360 1389q8 51 52 94q39 39 92 39q51 0 77.5 -39t18.5 -94.5t-51 -94.5q-41 -39 -92 -39t-78 39.5t-19 94.5z" />
<glyph unicode="&#xa2;" d="M139 532q43 244 183 392q137 147 342 166l47 266h90l-47 -266q83 -9 153 -31q74 -23 137 -62l-49 -272h-94q4 123 -37 188.5t-127 77.5l-162 -919q84 12 147.5 75.5t100.5 171.5h133q-59 -156 -157.5 -241.5t-239.5 -104.5l-47 -270h-90l47 270q-195 18 -283 168 q-90 151 -47 391zM334 532q-37 -211 2 -329q37 -117 149 -131l162 919q-119 -14 -196 -131q-82 -121 -117 -328z" />
<glyph unicode="&#xa3;" d="M-10 0l18 106h174l105 594h-174l18 107h174l51 295q37 205 158 311.5t322 106.5q74 0 145 -13q71 -12 135 -37l-43 -245h-94q6 98 -35 145q-45 51 -129 51q-113 0 -180 -78q-72 -80 -98 -241l-52 -295h371l-18 -107h-371l-102 -579h430l41 227h104l-61 -348h-889z" />
<glyph unicode="&#xa4;" d="M94 186l185 207q-37 61 -55.5 123t-18.5 125q0 71 18 129q18 55 60 117l-189 207l86 94l187 -207q57 47 104 66q53 20 117 20q61 0 114 -20q59 -23 109 -62l188 207l84 -94l-186 -209q39 -63 55 -121q18 -61 19 -127q0 -72 -18.5 -129t-57.5 -115l184 -207l-86 -94 l-186 205q-51 -45 -102 -65q-49 -20 -117 -21q-61 0 -115 21q-55 22 -111 61l-184 -205zM346 643q0 -117 70 -192q72 -78 172 -78q102 0 171.5 77.5t69.5 192.5q0 113 -69 188q-72 78 -172.5 78t-171.5 -78q-70 -75 -70 -188z" />
<glyph unicode="&#xa5;" d="M84 473l18 105h365l10 65l-49 141h-289l19 105h235l-170 497h-127l21 107h497l-18 -107h-158l203 -604l410 604h-150l19 107h389l-19 -107h-129l-342 -497h246l-18 -105h-299l-86 -122l-15 -84h363l-19 -105h-362l-64 -367h170l-18 -106h-524l20 106h172l64 367h-365z " />
<glyph unicode="&#xa6;" horiz-adv-x="620" d="M238 -350v758h145v-758h-145zM238 674v758h145v-758h-145z" />
<glyph unicode="&#xa7;" horiz-adv-x="919" d="M4 -139l37 209h82q-12 -82 29 -121q45 -41 139 -41q90 0 155 49q61 47 78 133q20 113 -164 240l-24 18q-176 125 -217 197q-45 78 -27 174q14 88 82 160q66 68 168 98q-66 51 -90 113q-25 66 -10 141q20 129 127 209q104 80 254 80q76 0 135 -15q80 -18 129 -41l-35 -202 h-84q12 70 -29 114q-39 41 -118 41q-88 0 -149.5 -49t-76.5 -131q-18 -94 180 -233l18.5 -14.5t12.5 -8.5q156 -106 201 -184q43 -74 24 -174q-18 -96 -73 -158q-57 -61 -170 -107q63 -47 83.5 -110.5t6.5 -153.5q-20 -129 -129 -211q-102 -78 -260 -78q-80 0 -152 13 q-55 10 -133 43zM246 754q-23 -133 268 -334l27 -19q61 39 94 86q37 53 45 105q12 76 -39 141q-52 68 -252 203q-74 -49 -100 -88q-35 -49 -43 -94z" />
<glyph unicode="&#xa8;" horiz-adv-x="919" d="M356 1452q8 49 45 82q39 35 80 35q43 0 67.5 -35t16.5 -82t-45 -84q-35 -33 -82 -33t-67 33q-23 33 -15 84zM707 1452q8 49 45 82q39 35 79 35q43 0 68 -35t16.5 -82t-45.5 -84q-35 -33 -79 -33q-49 0 -70 33q-22 33 -14 84z" />
<glyph unicode="&#xa9;" horiz-adv-x="1841" d="M256 741q0 158 47 285q49 132 148 240q102 113 215 164q121 55 256 55t254 -55q117 -53 217 -164q98 -108 147 -240q47 -127 47 -285q0 -160 -47 -282q-51 -135 -147 -240q-100 -111 -217 -164q-119 -55 -254.5 -55t-255.5 55q-113 51 -215 164q-96 104 -148 240 q-47 122 -47 282zM346 741q0 -131 43 -243q41 -109 127 -207q82 -94 186.5 -141.5t219.5 -47.5q117 0 221 47.5t186 141.5q80 90 125 207q43 113 43 243q0 132 -43 246q-45 117 -125 207q-82 94 -186.5 141t-220.5 47q-115 0 -219.5 -47t-186.5 -141q-84 -94 -127 -207 q-43 -114 -43 -246zM555 741q0 203 100 322q102 121 269 121q71 0 141 -19q74 -20 147 -57v-213h-73q-15 108 -68 160q-51 51 -145 51q-106 0 -161.5 -92t-55.5 -273q0 -184 55 -272q55 -90 160 -90q86 0 137 47t69 147h107q-25 -135 -104 -202q-82 -70 -209 -70 q-166 0 -269 121q-100 118 -100 319z" />
<glyph unicode="&#xaa;" horiz-adv-x="874" d="M66 535l18 104h627l-19 -104h-626zM119 969q0 39 10 100q27 162 125 285q96 119 221 145q16 4 49 4q37 0 66 -12q45 -20 78 -82l14 84h113l-115 -649h117l-17 -88h-227l31 178q-55 -78 -115 -121q-55 -41 -125 -57q-29 -6 -53 -6q-86 0 -131 67q-41 60 -41 152zM248 1004 q0 -68 20 -103q27 -47 88 -47q10 0 35 4q84 18 146 92q61 78 79 180l17 87q4 20 4 59q0 61 -27 96q-31 41 -86 41q-8 0 -37 -4q-86 -18 -147 -100q-63 -84 -84 -213q-8 -47 -8 -92z" />
<glyph unicode="&#xab;" horiz-adv-x="1126" d="M135 559l15 82l495 418l-20 -115l-328 -344l207 -344l-21 -115zM526 559l15 82l493 418l-18 -115l-328 -344l207 -344l-21 -115z" />
<glyph unicode="&#xac;" horiz-adv-x="1542" d="M195 700v162h1155v-575h-146v413h-1009z" />
<glyph unicode="&#xad;" horiz-adv-x="620" d="M68 471l26 156h461l-27 -156h-460z" />
<glyph unicode="&#xae;" horiz-adv-x="1841" d="M256 741q0 158 47 285q49 132 148 240q102 113 215 164q121 55 256 55t254 -55q117 -53 217 -164q98 -108 147 -240q47 -127 47 -285q0 -160 -47 -282q-51 -135 -147 -240q-100 -111 -217 -164q-119 -55 -254.5 -55t-255.5 55q-113 51 -215 164q-96 104 -148 240 q-47 122 -47 282zM346 741q0 -131 43 -243q41 -109 127 -207q82 -94 186.5 -141.5t219.5 -47.5q117 0 221 47.5t186 141.5q80 90 125 207q43 113 43 243q0 132 -43 246q-45 117 -125 207q-82 94 -186.5 141t-220.5 47q-115 0 -219.5 -47t-186.5 -141q-84 -94 -127 -207 q-43 -114 -43 -246zM596 352v68h74v672h-74v67h373q117 0 174 -55q59 -55 59 -166q0 -83 -43 -129q-43 -45 -133 -55q41 -16 65.5 -39t45.5 -66l102 -229h70v-68h-170l-119 254q-29 68 -59 94q-25 23 -72 23h-82v-303h74v-68h-285zM807 791h111q74 0 112 38q37 37 37 113 t-37 113t-112 37h-111v-301z" />
<glyph unicode="&#xaf;" horiz-adv-x="919" d="M332 1378l24 148h539l-27 -148h-536z" />
<glyph unicode="&#xb0;" horiz-adv-x="919" d="M176 1200q0 137 82 227q83 92 203 93q58 0 110 -25q59 -27 93 -70q39 -41 61 -102q20 -55 20 -123q0 -133 -81 -223q-82 -92 -205 -92t-203 90t-80 225zM299 1200q0 -74 47 -127q45 -51 114.5 -51t114.5 51q47 53 48 127q0 80 -48 129q-49 53 -114 53q-68 0 -115 -53 t-47 -129z" />
<glyph unicode="&#xb1;" horiz-adv-x="1542" d="M195 0v160h1155v-160h-1155zM195 731v162h505v391h144v-391h506v-162h-506v-391h-144v391h-505z" />
<glyph unicode="&#xb2;" horiz-adv-x="737" d="M6 668l14 75l302 254q94 80 133 138q45 66 57 127q14 84 -20 135q-34 49 -111 49q-72 0 -121 -37q-45 -35 -72 -113h-63l29 158q61 29 131 49q57 16 127 17q125 0 190.5 -65.5t46.5 -170.5q-20 -121 -227 -297l-21 -16l-249 -215h346l18 108h68l-35 -196h-543z" />
<glyph unicode="&#xb3;" horiz-adv-x="737" d="M25 709l28 170h64q-8 -72 28 -113q37 -39 121 -39q86 0 137.5 43t67.5 127q16 96 -20 141q-37 47 -129 47h-48l13 74h24q86 0 140 37q51 37 63 111q12 66 -18.5 102.5t-98.5 36.5q-70 0 -118 -33q-45 -29 -64 -96h-61l24 151q86 31 133 39q65 12 117 13q127 0 182 -54 q57 -55 39 -153q-12 -70 -69 -121q-55 -49 -144 -68q102 -14 147.5 -75.5t26.5 -159.5q-23 -115 -108 -174q-88 -61 -238 -62q-68 0 -125 15q-65 16 -114 41z" />
<glyph unicode="&#xb4;" horiz-adv-x="919" d="M473 1262l299 376h178l-370 -376h-107z" />
<glyph unicode="&#xb5;" horiz-adv-x="1196" d="M82 -426l242 1382h-150l19 107h315l-109 -619q-16 -90 -16 -170q0 -66 14 -96q31 -72 140 -72q115 0 190 95q78 96 109 272l102 590h168l-168 -959h156l-19 -104h-321l32 188q-63 -106 -141 -161q-76 -55 -158 -56q-49 0 -90 19q-43 20 -67 53l-82 -469h-166z" />
<glyph unicode="&#xb6;" d="M215 1071q33 188 172 305q138 117 332 117h483l-18 -107h-107l-276 -1583h-96l276 1583h-209l-276 -1583h-97l148 846q-193 18 -277 127q-86 111 -55 295z" />
<glyph unicode="&#xb7;" horiz-adv-x="583" d="M170 711q8 53 53 94q41 39 92.5 39t78 -39t18 -94.5t-51.5 -94.5q-41 -39 -92 -38.5t-80 38.5q-26 38 -18 95z" />
<glyph unicode="&#xb8;" horiz-adv-x="919" d="M231 -371l23 131q31 -16 68 -26q31 -8 65 -8q53 0 86 26q35 29 43 72q6 29 -6 72t-43 104h88q43 -61 63 -121q20 -61 13 -104q-16 -82 -80 -125q-68 -45 -166 -45q-37 0 -76 6q-35 6 -78 18z" />
<glyph unicode="&#xb9;" horiz-adv-x="737" d="M86 668l14 84h156l111 634l-201 -106l16 94l240 129h90l-129 -751h154l-15 -84h-436z" />
<glyph unicode="&#xba;" horiz-adv-x="864" d="M37 535l18 104h621l-21 -104h-618zM102 1128q31 176 146 285q113 106 272 107q158 0 233.5 -106.5t45.5 -285.5q-31 -176 -146 -284q-113 -106 -270 -107q-160 0 -236 106.5t-45 284.5zM258 1128q-27 -152 8 -235q34 -80 129 -80q96 0 158 80q59 78 88 235q27 156 -6 236 q-34 80 -129 80q-92 0 -158 -80q-61 -76 -90 -236z" />
<glyph unicode="&#xbb;" horiz-adv-x="1126" d="M92 141l23 115l325 344l-207 344l21 115l348 -418l-12 -82zM483 141l21 115l327 344l-206 344l20 115l348 -418l-14 -82z" />
<glyph unicode="&#xbc;" horiz-adv-x="1785" d="M1315 303l72 407l-348 -407h276zM1522 0h-391l14 84h133l25 137h-361l17 84l452 530h127l-94 -532h148l-15 -82h-147l-25 -137h131zM86 668l14 84h156l111 634l-201 -106l16 94l240 129h90l-129 -751h154l-15 -84h-436zM1384 1520h135l-1118 -1549h-135z" />
<glyph unicode="&#xbd;" horiz-adv-x="1785" d="M86 668l14 84h156l111 634l-201 -106l16 94l240 129h90l-129 -751h154l-15 -84h-436zM1384 1520h135l-1118 -1549h-135zM936 0l14 75l302 254q94 80 133 138q45 66 57 127q14 84 -20 135q-34 49 -111 49q-72 0 -121 -37q-45 -35 -72 -113h-63l29 158q61 29 131 49 q57 16 127 17q125 0 190.5 -65.5t46.5 -170.5q-20 -121 -227 -297l-21 -16l-249 -215h346l18 108h68l-35 -196h-543z" />
<glyph unicode="&#xbe;" horiz-adv-x="1785" d="M1315 303l72 407l-348 -407h276zM1522 0h-391l14 84h133l25 137h-361l17 84l452 530h127l-94 -532h148l-15 -82h-147l-25 -137h131zM25 709l28 170h64q-8 -72 28 -113q37 -39 121 -39q86 0 137.5 43t67.5 127q16 96 -20 141q-37 47 -129 47h-48l13 74h24q86 0 140 37 q51 37 63 111q12 66 -18.5 102.5t-98.5 36.5q-70 0 -118 -33q-45 -29 -64 -96h-61l24 151q86 31 133 39q65 12 117 13q127 0 182 -54q57 -55 39 -153q-12 -70 -69 -121q-55 -49 -144 -68q102 -14 147.5 -75.5t26.5 -159.5q-23 -115 -108 -174q-88 -61 -238 -62 q-68 0 -125 15q-65 16 -114 41zM1384 1520h135l-1118 -1549h-135z" />
<glyph unicode="&#xbf;" horiz-adv-x="987" d="M59 369q31 184 154 305q119 115 330 168l45 254h108l-57 -328q-168 -43 -264 -143q-100 -102 -127 -258q-25 -135 28 -215q52 -80 166 -80q100 0 179 65q80 66 118 189h86l-45 -260q-113 -49 -194 -70q-94 -23 -164 -23q-199 0 -297 107q-97 107 -66 289zM573.5 1388.5 q8.5 55.5 51.5 94.5q41 39 92 39t77.5 -39t18.5 -94.5t-51 -94.5q-41 -39 -92.5 -39t-78 39t-18 94.5z" />
<glyph unicode="&#xc0;" horiz-adv-x="1329" d="M-141 0l18 106h119l721 1387h151l238 -1387h131l-18 -106h-490l19 106h149l-53 328h-568l-167 -328h147l-18 -106h-379zM334 541h491l-120 710zM780 1899l117 -264h-107l-188 264h178z" />
<glyph unicode="&#xc1;" horiz-adv-x="1329" d="M-141 0l18 106h119l721 1387h151l238 -1387h131l-18 -106h-490l19 106h149l-53 328h-568l-167 -328h147l-18 -106h-379zM334 541h491l-120 710zM946 1899h178l-282 -264h-107z" />
<glyph unicode="&#xc2;" horiz-adv-x="1329" d="M-141 0l18 106h119l721 1387h151l238 -1387h131l-18 -106h-490l19 106h149l-53 328h-568l-167 -328h147l-18 -106h-379zM334 541h491l-120 710zM766 1899h160l162 -264h-105l-153 161l-213 -161h-105z" />
<glyph unicode="&#xc3;" horiz-adv-x="1329" d="M-141 0l18 106h119l721 1387h151l238 -1387h131l-18 -106h-490l19 106h149l-53 328h-568l-167 -328h147l-18 -106h-379zM334 541h491l-120 710zM821 1714l-39 29q-20 16 -33 21q-18 6 -30 6q-37 0 -66 -29q-27 -27 -39 -74h-86q18 102 76 160q55 59 131 59q29 0 59 -10 q31 -12 72 -39l39 -26q25 -16 37 -21q18 -6 33 -6q39 0 63 27q25 25 35 75h86q-23 -109 -76 -161q-55 -57 -139 -58q-61 0 -119 45z" />
<glyph unicode="&#xc4;" horiz-adv-x="1329" d="M-141 0l18 106h119l721 1387h151l238 -1387h131l-18 -106h-490l19 106h149l-53 328h-568l-167 -328h147l-18 -106h-379zM334 541h491l-120 710zM674 1884q45 0 70 -34q27 -35 16 -82q-8 -49 -45 -82q-39 -35 -82 -35t-67.5 35t-16.5 82q10 49 45 82q39 34 80 34z M1026 1884q43 0 68 -34q27 -35 16 -82q-8 -49 -45 -82q-39 -35 -80 -35q-45 0 -69.5 35t-16.5 82q10 49 45 82q39 34 82 34z" />
<glyph unicode="&#xc5;" horiz-adv-x="1329" d="M-176 0l16 106h119l664 1278q-58 37 -80 99q-25 70 -11 143q23 117 107 195q86 80 188.5 80t162 -80t36.5 -195q-16 -82 -59 -143q-46 -65 -117 -99l219 -1278h131l-16 -106h-490l19 106h149l-55 328h-565l-170 -328h147l-18 -106h-377zM297 541h491l-120 710zM643 1626 q-12 -61 20.5 -106t90.5 -45q55 0 104 45q45 43 57 106q12 61 -20.5 106.5t-87.5 45.5q-58 0 -105 -43t-59 -109z" />
<glyph unicode="&#xc6;" horiz-adv-x="1843" d="M-162 0l19 106h116l756 1280h-192l18 107h1311l-60 -332h-110l37 209h-621l-86 -500h442l33 187h111l-86 -496h-111l33 187h-442l-111 -625h635l37 209h110l-57 -332h-1098l19 106h170l57 328h-483l-195 -328h148l-19 -106h-381zM346 541h442l148 845h-90z" />
<glyph unicode="&#xc7;" horiz-adv-x="1409" d="M96 422q-11 63 -11 134q0 89 17 189q61 348 280.5 561.5t514.5 213.5q111 0 229 -31q102 -27 250 -98l-61 -344h-101q0 187 -86 276q-86 90 -266 90q-213 0 -354 -170q-139 -168 -199 -498q-24 -132 -23 -240q0 -155 48 -257q80 -170 295 -170q152 0 262 80t182 237h164 q-96 -211 -254 -317.5t-373 -106.5q-131 0 -235 49q-102 49 -174 148q-80 111 -105 254zM342 -371l23 131q31 -16 68 -26q31 -8 65 -8q53 0 86 26q35 29 43 72q6 29 -6 72t-43 104h88q43 -61 63 -121q20 -61 13 -104q-16 -82 -80 -125q-68 -45 -166 -45q-37 0 -76 6 q-35 6 -78 18z" />
<glyph unicode="&#xc8;" horiz-adv-x="1343" d="M-29 0l19 106h172l223 1280h-172l18 107h1084l-60 -332h-110l37 209h-619l-86 -500h441l32 187h111l-86 -496h-113l35 187h-440l-111 -625h633l37 209h108l-57 -332h-1096zM852 1899l117 -264h-107l-188 264h178z" />
<glyph unicode="&#xc9;" horiz-adv-x="1343" d="M-29 0l19 106h172l223 1280h-172l18 107h1084l-60 -332h-110l37 209h-619l-86 -500h441l32 187h111l-86 -496h-113l35 187h-440l-111 -625h633l37 209h108l-57 -332h-1096zM952 1899h178l-282 -264h-107z" />
<glyph unicode="&#xca;" horiz-adv-x="1343" d="M-29 0l19 106h172l223 1280h-172l18 107h1084l-60 -332h-110l37 209h-619l-86 -500h441l32 187h111l-86 -496h-113l35 187h-440l-111 -625h633l37 209h108l-57 -332h-1096zM815 1899h160l162 -264h-105l-153 161l-213 -161h-105z" />
<glyph unicode="&#xcb;" horiz-adv-x="1343" d="M-29 0l19 106h172l223 1280h-172l18 107h1084l-60 -332h-110l37 209h-619l-86 -500h441l32 187h111l-86 -496h-113l35 187h-440l-111 -625h633l37 209h108l-57 -332h-1096zM729 1884q45 0 70 -34q27 -35 16 -82q-8 -49 -45 -82q-39 -35 -82 -35t-67.5 35t-16.5 82 q10 49 45 82q39 34 80 34zM1081 1884q43 0 68 -34q27 -35 16 -82q-8 -49 -45 -82q-39 -35 -80 -35q-45 0 -69.5 35t-16.5 82q10 49 45 82q39 34 82 34z" />
<glyph unicode="&#xcc;" horiz-adv-x="727" d="M-29 0l19 106h172l223 1280h-172l18 107h527l-21 -107h-170l-225 -1280h172l-18 -106h-525zM512 1899l117 -264h-107l-188 264h178z" />
<glyph unicode="&#xcd;" horiz-adv-x="727" d="M-29 0l19 106h172l223 1280h-172l18 107h527l-21 -107h-170l-225 -1280h172l-18 -106h-525zM645 1899h178l-282 -264h-107z" />
<glyph unicode="&#xce;" horiz-adv-x="727" d="M-29 0l19 106h172l223 1280h-172l18 107h527l-21 -107h-170l-225 -1280h172l-18 -106h-525zM508 1899h160l162 -264h-105l-153 161l-213 -161h-105z" />
<glyph unicode="&#xcf;" horiz-adv-x="727" d="M-29 0l19 106h172l223 1280h-172l18 107h527l-21 -107h-170l-225 -1280h172l-18 -106h-525zM389 1884q45 0 70 -34q27 -35 16 -82q-8 -49 -45 -82q-39 -35 -82 -35t-67.5 35t-16.5 82q10 49 45 82q39 34 80 34zM741 1884q43 0 68 -34q27 -35 16 -82q-8 -49 -45 -82 q-39 -35 -80 -35q-45 0 -69.5 35t-16.5 82q10 49 45 82q39 34 82 34z" />
<glyph unicode="&#xd0;" horiz-adv-x="1486" d="M-20 0l20 106h170l106 613h-180l23 125h180l94 542h-170l19 107h534q346 0 506 -196.5t98.5 -549t-290.5 -548.5q-233 -199 -576 -199h-534zM350 106h170q262 0 432 166q168 166 223.5 475.5t-57.5 475.5q-111 164 -375 163h-170l-94 -542h303l-22 -125h-301z" />
<glyph unicode="&#xd1;" horiz-adv-x="1611" d="M-39 0l19 106h182l223 1280h-180l18 107h344l600 -1178l189 1071h-180l18 107h471l-18 -107h-183l-245 -1415h-109l-641 1258l-197 -1123h181l-19 -106h-473zM995 1714l-39 29q-20 16 -33 21q-18 6 -30 6q-37 0 -66 -29q-27 -27 -39 -74h-86q18 102 76 160q55 59 131 59 q29 0 59 -10q31 -12 72 -39l39 -26q25 -16 37 -21q18 -6 33 -6q39 0 63 27q25 25 35 75h86q-23 -109 -76 -161q-55 -57 -139 -58q-61 0 -119 45z" />
<glyph unicode="&#xd2;" horiz-adv-x="1509" d="M96 422q-10 58 -10 125q0 90 18 198q31 182 105 324q76 143 194 254q111 100 228 147q123 49 260 50q295 0 436 -213q100 -150 100 -366q0 -92 -18 -196q-31 -174 -106 -323q-72 -141 -195 -254q-111 -100 -227 -148q-123 -49 -260 -49q-133 0 -242 49q-108 49 -178 148 q-80 111 -105 254zM309 745q-23 -132 -23 -239q0 -158 50 -260q82 -168 303 -168t362 168q139 166 199 499q24 137 24 246q0 155 -48 254q-82 168 -303.5 168t-362.5 -168q-144 -170 -201 -500zM936 1899l117 -264h-107l-188 264h178z" />
<glyph unicode="&#xd3;" horiz-adv-x="1509" d="M96 422q-10 58 -10 125q0 90 18 198q31 182 105 324q76 143 194 254q111 100 228 147q123 49 260 50q295 0 436 -213q100 -150 100 -366q0 -92 -18 -196q-31 -174 -106 -323q-72 -141 -195 -254q-111 -100 -227 -148q-123 -49 -260 -49q-133 0 -242 49q-108 49 -178 148 q-80 111 -105 254zM309 745q-23 -132 -23 -239q0 -158 50 -260q82 -168 303 -168t362 168q139 166 199 499q24 137 24 246q0 155 -48 254q-82 168 -303.5 168t-362.5 -168q-144 -170 -201 -500zM1036 1899h178l-282 -264h-107z" />
<glyph unicode="&#xd4;" horiz-adv-x="1509" d="M96 422q-10 58 -10 125q0 90 18 198q31 182 105 324q76 143 194 254q111 100 228 147q123 49 260 50q295 0 436 -213q100 -150 100 -366q0 -92 -18 -196q-31 -174 -106 -323q-72 -141 -195 -254q-111 -100 -227 -148q-123 -49 -260 -49q-133 0 -242 49q-108 49 -178 148 q-80 111 -105 254zM309 745q-23 -132 -23 -239q0 -158 50 -260q82 -168 303 -168t362 168q139 166 199 499q24 137 24 246q0 155 -48 254q-82 168 -303.5 168t-362.5 -168q-144 -170 -201 -500zM899 1899h160l162 -264h-105l-153 161l-213 -161h-105z" />
<glyph unicode="&#xd5;" horiz-adv-x="1509" d="M96 422q-10 58 -10 125q0 90 18 198q31 182 105 324q76 143 194 254q111 100 228 147q123 49 260 50q295 0 436 -213q100 -150 100 -366q0 -92 -18 -196q-31 -174 -106 -323q-72 -141 -195 -254q-111 -100 -227 -148q-123 -49 -260 -49q-133 0 -242 49q-108 49 -178 148 q-80 111 -105 254zM309 745q-23 -132 -23 -239q0 -158 50 -260q82 -168 303 -168t362 168q139 166 199 499q24 137 24 246q0 155 -48 254q-82 168 -303.5 168t-362.5 -168q-144 -170 -201 -500zM944 1714l-39 29q-20 16 -33 21q-18 6 -30 6q-37 0 -66 -29q-27 -27 -39 -74 h-86q18 102 76 160q55 59 131 59q29 0 59 -10q31 -12 72 -39l39 -26q25 -16 37 -21q18 -6 33 -6q39 0 63 27q25 25 35 75h86q-23 -109 -76 -161q-55 -57 -139 -58q-61 0 -119 45z" />
<glyph unicode="&#xd6;" horiz-adv-x="1509" d="M96 422q-10 58 -10 125q0 90 18 198q31 182 105 324q76 143 194 254q111 100 228 147q123 49 260 50q295 0 436 -213q100 -150 100 -366q0 -92 -18 -196q-31 -174 -106 -323q-72 -141 -195 -254q-111 -100 -227 -148q-123 -49 -260 -49q-133 0 -242 49q-108 49 -178 148 q-80 111 -105 254zM309 745q-23 -132 -23 -239q0 -158 50 -260q82 -168 303 -168t362 168q139 166 199 499q24 137 24 246q0 155 -48 254q-82 168 -303.5 168t-362.5 -168q-144 -170 -201 -500zM813 1884q45 0 70 -34q27 -35 16 -82q-8 -49 -45 -82q-39 -35 -82 -35 t-67.5 35t-16.5 82q10 49 45 82q39 34 80 34zM1165 1884q43 0 68 -34q27 -35 16 -82q-8 -49 -45 -82q-39 -35 -80 -35q-45 0 -69.5 35t-16.5 82q10 49 45 82q39 34 82 34z" />
<glyph unicode="&#xd7;" horiz-adv-x="1542" d="M256 180l414 461l-414 463l100 113l416 -461l416 461l102 -113l-416 -463l416 -461l-102 -112l-416 460l-416 -460z" />
<glyph unicode="&#xd8;" horiz-adv-x="1509" d="M-39 12l205 207q-59 102 -76 236q-16 131 12 290q61 342 281 560q219 215 508 215q126 0 227 -43q102 -43 172 -125l197 198l59 -71l-200 -203q58 -108 73 -240q16 -139 -10 -291q-61 -346 -279 -559q-218 -215 -509 -215q-129 0 -228 43q-100 43 -176 129l-197 -200z M287 530q-4 -98 12 -178l881 887q-43 88 -119 131q-78 43 -189 43q-221 0 -362 -168q-143 -170 -201 -500q-18 -106 -22 -215zM332 256q45 -92 119 -133q80 -45 188 -45q221 0 362 168q139 166 199 499q22 117 25 216q2 88 -15 180z" />
<glyph unicode="&#xd9;" horiz-adv-x="1552" d="M201 1386l18 107h526l-20 -107h-170l-135 -772q-22 -126 -22 -217q0 -118 36 -182q63 -113 271 -113q205 0 309 113q104 114 153 399l136 772h-173l21 107h453l-19 -107h-172l-137 -792q-57 -336 -203 -481q-141 -141 -426 -142q-283 0 -377 142q-59 88 -59 252 q0 101 22 229l140 792h-172zM993 1899l117 -264h-107l-188 264h178z" />
<glyph unicode="&#xda;" horiz-adv-x="1552" d="M201 1386l18 107h526l-20 -107h-170l-135 -772q-22 -126 -22 -217q0 -118 36 -182q63 -113 271 -113q205 0 309 113q104 114 153 399l136 772h-173l21 107h453l-19 -107h-172l-137 -792q-57 -336 -203 -481q-141 -141 -426 -142q-283 0 -377 142q-59 88 -59 252 q0 101 22 229l140 792h-172zM1093 1899h178l-282 -264h-107z" />
<glyph unicode="&#xdb;" horiz-adv-x="1552" d="M201 1386l18 107h526l-20 -107h-170l-135 -772q-22 -126 -22 -217q0 -118 36 -182q63 -113 271 -113q205 0 309 113q104 114 153 399l136 772h-173l21 107h453l-19 -107h-172l-137 -792q-57 -336 -203 -481q-141 -141 -426 -142q-283 0 -377 142q-59 88 -59 252 q0 101 22 229l140 792h-172zM956 1899h160l162 -264h-105l-153 161l-213 -161h-105z" />
<glyph unicode="&#xdc;" horiz-adv-x="1552" d="M201 1386l18 107h526l-20 -107h-170l-135 -772q-22 -126 -22 -217q0 -118 36 -182q63 -113 271 -113q205 0 309 113q104 114 153 399l136 772h-173l21 107h453l-19 -107h-172l-137 -792q-57 -336 -203 -481q-141 -141 -426 -142q-283 0 -377 142q-59 88 -59 252 q0 101 22 229l140 792h-172zM870 1884q45 0 70 -34q27 -35 16 -82q-8 -49 -45 -82q-39 -35 -82 -35t-67.5 35t-16.5 82q10 49 45 82q39 34 80 34zM1222 1884q43 0 68 -34q27 -35 16 -82q-8 -49 -45 -82q-39 -35 -80 -35q-45 0 -69.5 35t-16.5 82q10 49 45 82q39 34 82 34z " />
<glyph unicode="&#xdd;" horiz-adv-x="1214" d="M90 1386l21 107h497l-16 -107h-158l230 -604l442 604h-152l19 107h391l-18 -107h-127l-533 -724l-96 -556h172l-19 -106h-526l19 106h172l94 537l-285 743h-127zM889 1899h178l-282 -264h-107z" />
<glyph unicode="&#xde;" horiz-adv-x="1243" d="M-29 0l19 106h172l223 1280h-172l18 107h564l-21 -107h-207l-39 -219h283q201 0 299 -114.5t66 -304.5q-34 -194 -172 -308q-139 -115 -340 -114h-281l-41 -220h209l-19 -106h-561zM401 434h238q131 0 217 80q84 78 113 234q25 154 -30.5 233.5t-190.5 79.5h-238z" />
<glyph unicode="&#xdf;" horiz-adv-x="1230" d="M-158 -426l11 98q95 0 141 56q47 61 74 206l219 1252q31 174 149 272q121 98 309 98q193 0 275 -104q80 -100 55 -315h-18q-135 0 -217 -54q-84 -55 -101 -147q-10 -53 9 -90q18 -41 75 -86l72 -55q120 -98 160 -185q39 -86 18 -198q-28 -154 -147 -252t-289 -99 q-74 0 -148 19q-72 18 -139 53l41 233h98q-14 -98 27 -153q41 -53 133 -53q100 0 168 61.5t86 163.5q14 82 -10 143q-23 51 -121 131l-65 54q-86 68 -113 129q-29 68 -14 147q20 119 112 205q88 82 232 106q14 119 -37 183q-53 66 -160 65q-119 0 -184.5 -65.5t-89.5 -202.5 l-220 -1256q-31 -176 -131 -270q-96 -90 -260 -90z" />
<glyph unicode="&#xe0;" horiz-adv-x="1097" d="M61 295q0 41 11 106q61 356 282 537q190 154 416 154q154 0 207 -29l-168 -957h141l-18 -106h-291l29 166q-121 -195 -314 -195q-158 0 -237 119q-58 86 -58 205zM238 299q0 -213 186 -213q115 0 190.5 100.5t110.5 292.5l84 482q0 29 -74 28q-172 0 -307 -149 q-131 -150 -180 -424q-10 -54 -10 -117zM381 1636h178l168 -376h-107z" />
<glyph unicode="&#xe1;" horiz-adv-x="1097" d="M61 295q0 41 11 106q61 356 282 537q190 154 416 154q154 0 207 -29l-168 -957h141l-18 -106h-291l29 166q-121 -195 -314 -195q-158 0 -237 119q-58 86 -58 205zM238 299q0 -213 186 -213q115 0 190.5 100.5t110.5 292.5l84 482q0 29 -74 28q-172 0 -307 -149 q-131 -150 -180 -424q-10 -54 -10 -117zM524 1262l299 376h178l-370 -376h-107z" />
<glyph unicode="&#xe2;" horiz-adv-x="1097" d="M61 295q0 41 11 106q61 356 282 537q190 154 416 154q154 0 207 -29l-168 -957h141l-18 -106h-291l29 166q-121 -195 -314 -195q-158 0 -237 119q-58 86 -58 205zM238 299q0 -213 186 -213q115 0 190.5 100.5t110.5 292.5l84 482q0 29 -74 28q-172 0 -307 -149 q-131 -150 -180 -424q-10 -54 -10 -117zM364 1262l279 376h149l146 -376h-105l-137 260l-227 -260h-105z" />
<glyph unicode="&#xe3;" horiz-adv-x="1097" d="M61 295q0 41 11 106q61 356 282 537q190 154 416 154q154 0 207 -29l-168 -957h141l-18 -106h-291l29 166q-121 -195 -314 -195q-158 0 -237 119q-58 86 -58 205zM238 299q0 -213 186 -213q115 0 190.5 100.5t110.5 292.5l84 482q0 29 -74 28q-172 0 -307 -149 q-131 -150 -180 -424q-10 -54 -10 -117zM381 1309q25 133 84 209q58 74 141 73q33 0 59 -14q35 -20 56 -47l41 -55q15 -22 30 -31q10 -8 31 -8q39 0 67.5 41t47.5 114h86q-25 -133 -84 -209q-58 -74 -141 -73q-35 0 -62 14q-31 18 -53 47l-41 55q-16 23 -33 31q-14 8 -31 8 q-37 0 -65 -41q-31 -43 -47 -114h-86z" />
<glyph unicode="&#xe4;" horiz-adv-x="1097" d="M61 295q0 41 11 106q61 356 282 537q190 154 416 154q154 0 207 -29l-168 -957h141l-18 -106h-291l29 166q-121 -195 -314 -195q-158 0 -237 119q-58 86 -58 205zM238 299q0 -213 186 -213q115 0 190.5 100.5t110.5 292.5l84 482q0 29 -74 28q-172 0 -307 -149 q-131 -150 -180 -424q-10 -54 -10 -117zM407 1452q8 49 45 82q39 35 80 35q43 0 67.5 -35t16.5 -82t-45 -84q-35 -33 -82 -33t-67 33q-23 33 -15 84zM758 1452q8 49 45 82q39 35 79 35q43 0 68 -35t16.5 -82t-45.5 -84q-35 -33 -79 -33q-49 0 -70 33q-22 33 -14 84z" />
<glyph unicode="&#xe5;" horiz-adv-x="1097" d="M61 295q0 41 11 106q61 356 282 537q190 154 416 154q154 0 207 -29l-168 -957h141l-18 -106h-291l29 166q-121 -195 -314 -195q-158 0 -237 119q-58 86 -58 205zM238 299q0 -213 186 -213q115 0 190.5 100.5t110.5 292.5l84 482q0 29 -74 28q-172 0 -307 -149 q-131 -150 -180 -424q-10 -54 -10 -117zM930 1524q-18 -115 -104.5 -195t-190.5 -80q-100 0 -160 80q-59 82 -39 195q23 119 104 194q86 80 191 80q102 0 162 -80q55 -75 37 -194zM819 1524q10 66 -20 106q-33 45 -91 45t-104 -43q-45 -41 -57 -108q-12 -66 20 -109 q31 -43 90 -43q58 0 105 43q43 39 57 109z" />
<glyph unicode="&#xe6;" horiz-adv-x="1730" d="M61 295q0 41 11 106q61 356 282 537q186 154 416 154q154 0 207 -29l-19 -96q143 125 340 125q352 0 353 -277q0 -397 -740 -407q-4 -49 -4 -72q0 -94 31 -156q53 -111 197 -110q102 0 155 34q90 63 113 146h123q-37 -129 -172 -217q-92 -61 -279 -62q-215 0 -309 197 q-129 -197 -397 -197h-13q-158 0 -237 119q-58 86 -58 205zM238 297q0 -211 186 -211q113 0 188 100q80 104 113 293l84 482q0 29 -74 28q-172 0 -307 -149q-131 -150 -180 -424q-10 -53 -10 -119zM932 514q285 14 440 119q102 66 103 188q0 172 -205 172q-121 0 -205 -102 q-80 -98 -133 -377z" />
<glyph unicode="&#xe7;" horiz-adv-x="1030" d="M78 385q0 76 14 147q43 252 199 408q152 152 360 152q98 0 178 -23q90 -27 168 -72l-47 -272h-96v27q0 119 -47 178q-51 63 -170 63q-133 0 -223 -116.5t-129 -344.5q-18 -104 -19 -188q0 -88 27 -158q47 -117 182 -116q109 0 182 61q72 59 119 188h135 q-66 -172 -180.5 -260t-273.5 -88q-207 0 -310 154q-69 106 -69 260zM178 -371l23 131q31 -16 68 -26q31 -8 65 -8q53 0 86 26q35 29 43 72q6 29 -6 72t-43 104h88q43 -61 63 -121q20 -61 13 -104q-16 -82 -80 -125q-68 -45 -166 -45q-37 0 -76 6q-35 6 -78 18z" />
<glyph unicode="&#xe8;" horiz-adv-x="1089" d="M78 385q0 74 14 145q43 250 197 408q150 154 366 154q352 0 353 -277q0 -205 -185 -303q-190 -102 -553 -104q-4 -49 -4 -72q0 -94 31 -156q51 -111 195 -110q102 0 155 34q92 66 115 146h121q-39 -131 -170 -217q-94 -61 -278.5 -61.5t-287.5 153.5q-69 106 -69 260z M289 514q291 16 442 119q100 63 100 188q0 172 -202 172q-121 0 -205 -102.5t-135 -376.5zM416 1636h178l168 -376h-107z" />
<glyph unicode="&#xe9;" horiz-adv-x="1089" d="M78 385q0 74 14 145q43 250 197 408q150 154 366 154q352 0 353 -277q0 -205 -185 -303q-190 -102 -553 -104q-4 -49 -4 -72q0 -94 31 -156q51 -111 195 -110q102 0 155 34q92 66 115 146h121q-39 -131 -170 -217q-94 -61 -278.5 -61.5t-287.5 153.5q-69 106 -69 260z M289 514q291 16 442 119q100 63 100 188q0 172 -202 172q-121 0 -205 -102.5t-135 -376.5zM559 1262l299 376h178l-370 -376h-107z" />
<glyph unicode="&#xea;" horiz-adv-x="1089" d="M78 385q0 74 14 145q43 250 197 408q150 154 366 154q352 0 353 -277q0 -205 -185 -303q-190 -102 -553 -104q-4 -49 -4 -72q0 -94 31 -156q51 -111 195 -110q102 0 155 34q92 66 115 146h121q-39 -131 -170 -217q-94 -61 -278.5 -61.5t-287.5 153.5q-69 106 -69 260z M289 514q291 16 442 119q100 63 100 188q0 172 -202 172q-121 0 -205 -102.5t-135 -376.5zM399 1262l279 376h149l146 -376h-105l-137 260l-227 -260h-105z" />
<glyph unicode="&#xeb;" horiz-adv-x="1089" d="M78 385q0 74 14 145q43 250 197 408q150 154 366 154q352 0 353 -277q0 -205 -185 -303q-190 -102 -553 -104q-4 -49 -4 -72q0 -94 31 -156q51 -111 195 -110q102 0 155 34q92 66 115 146h121q-39 -131 -170 -217q-94 -61 -278.5 -61.5t-287.5 153.5q-69 106 -69 260z M289 514q291 16 442 119q100 63 100 188q0 172 -202 172q-121 0 -205 -102.5t-135 -376.5zM442 1452q8 49 45 82q39 35 80 35q43 0 67.5 -35t16.5 -82t-45 -84q-35 -33 -82 -33t-67 33q-23 33 -15 84zM793 1452q8 49 45 82q39 35 79 35q43 0 68 -35t16.5 -82t-45.5 -84 q-35 -33 -79 -33q-49 0 -70 33q-22 33 -14 84z" />
<glyph unicode="&#xec;" horiz-adv-x="587" d="M315 106h156l-16 -106h-324l168 956h-158l19 107h323zM164 1636h178l168 -376h-107z" />
<glyph unicode="&#xed;" horiz-adv-x="587" d="M315 106h156l-16 -106h-324l168 956h-158l19 107h323zM307 1262l299 376h178l-370 -376h-107z" />
<glyph unicode="&#xee;" horiz-adv-x="587" d="M315 106h156l-16 -106h-324l168 956h-158l19 107h323zM147 1262l279 376h149l146 -376h-105l-137 260l-227 -260h-105z" />
<glyph unicode="&#xef;" horiz-adv-x="587" d="M315 106h156l-16 -106h-324l168 956h-158l19 107h323zM190 1452q8 49 45 82q39 35 80 35q43 0 67.5 -35t16.5 -82t-45 -84q-35 -33 -82 -33t-67 33q-23 33 -15 84zM541 1452q8 49 45 82q39 35 79 35q43 0 68 -35t16.5 -82t-45.5 -84q-35 -33 -79 -33q-49 0 -70 33 q-22 33 -14 84z" />
<glyph unicode="&#xf0;" horiz-adv-x="1107" d="M49 518q41 238 193 381q156 145 358 145q18 0 64 -4q53 -4 79 -10q-8 51 -34 107q-31 66 -60 108l-315 -149l-19 78l287 135q-47 61 -108 98q-70 43 -146 63l33 86q88 -23 186 -73q86 -45 158 -115l315 150l21 -78l-283 -133q137 -170 187 -363q49 -195 12 -412 q-43 -252 -199 -407q-154 -154 -362 -154q-205 0 -307.5 151.5t-59.5 395.5zM242 508q-37 -209 12 -323.5t178 -114.5q131 0 221 114.5t127 327.5q18 117 17 217q-2 102 -29 199q-55 12 -76 14q-49 4 -71 4q-156 0 -248 -106q-90 -107 -131 -332z" />
<glyph unicode="&#xf1;" horiz-adv-x="1185" d="M129 0l168 956h-160l21 107h323l-32 -189q63 106 147 162t180 56q158 0 215 -101q35 -63 35 -164q0 -72 -14 -151l-101 -570h148l-19 -106h-315l109 618q18 104 18 173q0 66 -14 96q-31 72 -140 71q-115 0 -192 -94q-76 -90 -107 -272l-104 -592h-166zM408 1309 q25 133 84 209q58 74 141 73q33 0 59 -14q35 -20 56 -47l41 -55q15 -22 30 -31q10 -8 31 -8q39 0 67.5 41t47.5 114h86q-25 -133 -84 -209q-58 -74 -141 -73q-35 0 -62 14q-31 18 -53 47l-41 55q-16 23 -33 31q-14 8 -31 8q-37 0 -65 -41q-31 -43 -47 -114h-86z" />
<glyph unicode="&#xf2;" horiz-adv-x="1107" d="M78 385q0 76 14 147q43 252 196.5 406t364.5 154q207 0 310 -154q68 -106 67 -258q0 -86 -12 -148q-43 -252 -199 -407q-154 -154 -362 -154q-207 0 -310 154q-69 106 -69 260zM266 348q0 -92 27 -162q49 -117 180 -116q133 0 223 116q86 113 127 346q18 104 19 185 q0 90 -27 160q-49 117 -180 116q-132 0 -221 -116.5t-129 -344.5q-19 -104 -19 -184zM424 1636h178l168 -376h-107z" />
<glyph unicode="&#xf3;" horiz-adv-x="1107" d="M78 385q0 76 14 147q43 252 196.5 406t364.5 154q207 0 310 -154q68 -106 67 -258q0 -86 -12 -148q-43 -252 -199 -407q-154 -154 -362 -154q-207 0 -310 154q-69 106 -69 260zM266 348q0 -92 27 -162q49 -117 180 -116q133 0 223 116q86 113 127 346q18 104 19 185 q0 90 -27 160q-49 117 -180 116q-132 0 -221 -116.5t-129 -344.5q-19 -104 -19 -184zM567 1262l299 376h178l-370 -376h-107z" />
<glyph unicode="&#xf4;" horiz-adv-x="1107" d="M78 385q0 76 14 147q43 252 196.5 406t364.5 154q207 0 310 -154q68 -106 67 -258q0 -86 -12 -148q-43 -252 -199 -407q-154 -154 -362 -154q-207 0 -310 154q-69 106 -69 260zM266 348q0 -92 27 -162q49 -117 180 -116q133 0 223 116q86 113 127 346q18 104 19 185 q0 90 -27 160q-49 117 -180 116q-132 0 -221 -116.5t-129 -344.5q-19 -104 -19 -184zM407 1262l279 376h149l146 -376h-105l-137 260l-227 -260h-105z" />
<glyph unicode="&#xf5;" horiz-adv-x="1107" d="M78 385q0 76 14 147q43 252 196.5 406t364.5 154q207 0 310 -154q68 -106 67 -258q0 -86 -12 -148q-43 -252 -199 -407q-154 -154 -362 -154q-207 0 -310 154q-69 106 -69 260zM266 348q0 -92 27 -162q49 -117 180 -116q133 0 223 116q86 113 127 346q18 104 19 185 q0 90 -27 160q-49 117 -180 116q-132 0 -221 -116.5t-129 -344.5q-19 -104 -19 -184zM424 1309q25 133 84 209q58 74 141 73q33 0 59 -14q35 -20 56 -47l41 -55q15 -22 30 -31q10 -8 31 -8q39 0 67.5 41t47.5 114h86q-25 -133 -84 -209q-58 -74 -141 -73q-35 0 -62 14 q-31 18 -53 47l-41 55q-16 23 -33 31q-14 8 -31 8q-37 0 -65 -41q-31 -43 -47 -114h-86z" />
<glyph unicode="&#xf6;" horiz-adv-x="1107" d="M78 385q0 76 14 147q43 252 196.5 406t364.5 154q207 0 310 -154q68 -106 67 -258q0 -86 -12 -148q-43 -252 -199 -407q-154 -154 -362 -154q-207 0 -310 154q-69 106 -69 260zM266 348q0 -92 27 -162q49 -117 180 -116q133 0 223 116q86 113 127 346q18 104 19 185 q0 90 -27 160q-49 117 -180 116q-132 0 -221 -116.5t-129 -344.5q-19 -104 -19 -184zM450 1452q8 49 45 82q39 35 80 35q43 0 67.5 -35t16.5 -82t-45 -84q-35 -33 -82 -33t-67 33q-23 33 -15 84zM801 1452q8 49 45 82q39 35 79 35q43 0 68 -35t16.5 -82t-45.5 -84 q-35 -33 -79 -33q-49 0 -70 33q-22 33 -14 84z" />
<glyph unicode="&#xf7;" horiz-adv-x="1542" d="M195 561v162h1155v-162h-1155zM651 272.5q0 53.5 35 94.5q33 39 86 39q51 0 84 -39q37 -43 37 -94.5t-37 -94.5q-33 -39 -84 -39q-53 0 -86 39q-35 41 -35 94.5zM651 1012q0 53 35 94q33 39 86 39q51 0 84 -39q37 -43 37 -94t-37 -94q-33 -39 -84 -39t-86 39t-35 94z" />
<glyph unicode="&#xf8;" horiz-adv-x="1107" d="M-31 -31l166 178q-39 74 -51 172q-12 100 8 213q43 252 196.5 406t362.5 154q86 0 154 -25q63 -23 117 -76l153 166l58 -63l-160 -172q41 -70 53 -172.5t-8 -217.5q-43 -252 -199 -407q-154 -154 -362 -154q-86 0 -152 27q-70 29 -119 80l-159 -172zM270 401 q-4 -59 0 -108l547 586q-25 59 -69 86q-47 29 -113 28q-132 0 -221 -116.5t-129 -344.5q-11 -61 -15 -131zM293 190q25 -59 69 -90q47 -31 111 -30q131 0 221 118q89 117 129 344q16 106 19 136q4 68 -2 112z" />
<glyph unicode="&#xf9;" horiz-adv-x="1185" d="M127 956l18 107h316l-109 -619q-16 -92 -16 -172q0 -68 12 -94q31 -72 141 -72q115 0 191 95q78 96 108 272l105 590h166l-168 -957h156l-19 -106h-321l32 188q-63 -106 -147 -161q-83 -55 -178 -56q-160 0 -217 101q-35 63 -35 164q0 72 14 151l100 569h-149zM396 1636 h178l168 -376h-107z" />
<glyph unicode="&#xfa;" horiz-adv-x="1185" d="M127 956l18 107h316l-109 -619q-16 -92 -16 -172q0 -68 12 -94q31 -72 141 -72q115 0 191 95q78 96 108 272l105 590h166l-168 -957h156l-19 -106h-321l32 188q-63 -106 -147 -161q-83 -55 -178 -56q-160 0 -217 101q-35 63 -35 164q0 72 14 151l100 569h-149zM539 1262 l299 376h178l-370 -376h-107z" />
<glyph unicode="&#xfb;" horiz-adv-x="1185" d="M127 956l18 107h316l-109 -619q-16 -92 -16 -172q0 -68 12 -94q31 -72 141 -72q115 0 191 95q78 96 108 272l105 590h166l-168 -957h156l-19 -106h-321l32 188q-63 -106 -147 -161q-83 -55 -178 -56q-160 0 -217 101q-35 63 -35 164q0 72 14 151l100 569h-149zM379 1262 l279 376h149l146 -376h-105l-137 260l-227 -260h-105z" />
<glyph unicode="&#xfc;" horiz-adv-x="1185" d="M127 956l18 107h316l-109 -619q-16 -92 -16 -172q0 -68 12 -94q31 -72 141 -72q115 0 191 95q78 96 108 272l105 590h166l-168 -957h156l-19 -106h-321l32 188q-63 -106 -147 -161q-83 -55 -178 -56q-160 0 -217 101q-35 63 -35 164q0 72 14 151l100 569h-149zM422 1452 q8 49 45 82q39 35 80 35q43 0 67.5 -35t16.5 -82t-45 -84q-35 -33 -82 -33t-67 33q-23 33 -15 84zM773 1452q8 49 45 82q39 35 79 35q43 0 68 -35t16.5 -82t-45.5 -84q-35 -33 -79 -33q-49 0 -70 33q-22 33 -14 84z" />
<glyph unicode="&#xfd;" horiz-adv-x="1040" d="M-68 -424l35 203h84q-2 -10 -2 -31q0 -41 19 -65q23 -35 79 -35q160 0 297 153l-227 1155h-108l18 107h248l213 -1055q147 246 180 340q115 311 135 598h-108l18 109h248q-88 -569 -248 -875q-231 -444 -414 -575q-82 -59 -297 -60q-45 0 -84 9q-57 12 -86 22zM534 1262 l299 376h178l-370 -376h-107z" />
<glyph unicode="&#xfe;" horiz-adv-x="1177" d="M39 -426l328 1876h-158l16 106h326l-115 -659q63 100 150 147q84 47 194 48q174 0 260 -154q55 -101 56 -246q0 -80 -15 -160q-43 -248 -182 -405q-137 -156 -315 -156q-109 0 -178 47q-68 46 -99 148l-102 -592h-166zM348 338q0 -84 31 -152q49 -100 174 -100t211 113 q84 113 125 333q16 90 16 180.5t-24 151.5q-47 113 -172 113q-129 0 -211 -100.5t-117 -292.5l-19 -105q-14 -73 -14 -141z" />
<glyph unicode="&#xff;" horiz-adv-x="1040" d="M-68 -424l35 203h84q-2 -10 -2 -31q0 -41 19 -65q23 -35 79 -35q160 0 297 153l-227 1155h-108l18 107h248l213 -1055q147 246 180 340q115 311 135 598h-108l18 109h248q-88 -569 -248 -875q-231 -444 -414 -575q-82 -59 -297 -60q-45 0 -84 9q-57 12 -86 22zM417 1452 q8 49 45 82q39 35 80 35q43 0 67.5 -35t16.5 -82t-45 -84q-35 -33 -82 -33t-67 33q-23 33 -15 84zM768 1452q8 49 45 82q39 35 79 35q43 0 68 -35t16.5 -82t-45.5 -84q-35 -33 -79 -33q-49 0 -70 33q-22 33 -14 84z" />
<glyph unicode="&#x131;" horiz-adv-x="587" d="M315 106h156l-16 -106h-324l168 956h-158l19 107h323z" />
<glyph unicode="&#x152;" horiz-adv-x="2095" d="M109 750q61 350 288.5 546.5t575.5 196.5h1091l-59 -332h-111l37 209h-616l-88 -500h442l33 187h108l-86 -496h-108l33 187h-445l-108 -625h633l36 209h111l-57 -332h-1106q-346 0 -508 199q-157 195 -96 551zM313 750q-55 -309 58 -478q111 -166 372 -166h168l224 1280 h-168q-260 0 -430 -163q-169 -162 -224 -473z" />
<glyph unicode="&#x153;" horiz-adv-x="1820" d="M78 385q0 76 14 147q43 252 196.5 406t364.5 154q207 0 310 -154q10 -16 20 -39q12 14 37 39q152 154 369 154q352 0 352 -277q0 -203 -187 -303q-187 -101 -553 -104q-4 -49 -4 -72q0 -94 31 -156q55 -111 197 -110q102 0 155 34q90 63 113 146h123q-37 -129 -172 -217 q-92 -61 -279 -62q-182 0 -284 154l-25 41q-25 -29 -37 -41q-154 -154 -362 -154q-207 0 -310 154q-69 106 -69 260zM285 532q-39 -225 8 -346q47 -117 180 -116.5t223 116.5q86 113 127 346q39 223 -8 345q-45 117 -180 116q-132 0 -221 -117t-129 -344zM1020 514 q291 16 442 119q102 66 103 188q0 172 -205 172q-121 0 -205 -102.5t-135 -376.5z" />
<glyph unicode="&#x178;" horiz-adv-x="1214" d="M90 1386l21 107h497l-16 -107h-158l230 -604l442 604h-152l19 107h391l-18 -107h-127l-533 -724l-96 -556h172l-19 -106h-526l19 106h172l94 537l-285 743h-127zM666 1884q45 0 70 -34q27 -35 16 -82q-8 -49 -45 -82q-39 -35 -82 -35t-67.5 35t-16.5 82q10 49 45 82 q39 34 80 34zM1018 1884q43 0 68 -34q27 -35 16 -82q-8 -49 -45 -82q-39 -35 -80 -35q-45 0 -69.5 35t-16.5 82q10 49 45 82q39 34 82 34z" />
<glyph unicode="&#x2c6;" horiz-adv-x="919" d="M313 1262l279 376h149l146 -376h-105l-137 260l-227 -260h-105z" />
<glyph unicode="&#x2da;" horiz-adv-x="919" d="M879 1524q-18 -115 -104.5 -195t-190.5 -80q-100 0 -160 80q-59 82 -39 195q23 119 104 194q86 80 191 80q102 0 162 -80q55 -75 37 -194zM768 1524q10 66 -20 106q-33 45 -91 45t-104 -43q-45 -41 -57 -108q-12 -66 20 -109q31 -43 90 -43q58 0 105 43q43 39 57 109z " />
<glyph unicode="&#x2dc;" horiz-adv-x="919" d="M330 1309q25 133 84 209q58 74 141 73q33 0 59 -14q35 -20 56 -47l41 -55q15 -22 30 -31q10 -8 31 -8q39 0 67.5 41t47.5 114h86q-25 -133 -84 -209q-58 -74 -141 -73q-35 0 -62 14q-31 18 -53 47l-41 55q-16 23 -33 31q-14 8 -31 8q-37 0 -65 -41q-31 -43 -47 -114h-86z " />
<glyph unicode="&#x2000;" horiz-adv-x="948" />
<glyph unicode="&#x2001;" horiz-adv-x="1900" />
<glyph unicode="&#x2002;" horiz-adv-x="948" />
<glyph unicode="&#x2003;" horiz-adv-x="1900" />
<glyph unicode="&#x2004;" horiz-adv-x="632" />
<glyph unicode="&#x2005;" horiz-adv-x="473" />
<glyph unicode="&#x2006;" horiz-adv-x="315" />
<glyph unicode="&#x2007;" horiz-adv-x="315" />
<glyph unicode="&#x2008;" horiz-adv-x="235" />
<glyph unicode="&#x2009;" horiz-adv-x="378" />
<glyph unicode="&#x200a;" horiz-adv-x="104" />
<glyph unicode="&#x2010;" horiz-adv-x="620" d="M68 471l26 156h461l-27 -156h-460z" />
<glyph unicode="&#x2011;" horiz-adv-x="620" d="M68 471l26 156h461l-27 -156h-460z" />
<glyph unicode="&#x2012;" horiz-adv-x="620" d="M68 471l26 156h461l-27 -156h-460z" />
<glyph unicode="&#x2013;" horiz-adv-x="919" d="M70 477l22 133h760l-23 -133h-759z" />
<glyph unicode="&#x2014;" horiz-adv-x="1841" d="M70 477l22 133h1682l-23 -133h-1681z" />
<glyph unicode="&#x2018;" horiz-adv-x="583" d="M143 1014q31 172 109 295q74 115 217 211l55 -80q-82 -68 -127 -150q-47 -86 -67 -213l-13 -63h-174z" />
<glyph unicode="&#x2019;" horiz-adv-x="583" d="M100 1067q82 68 127 150q49 92 70 215l10 61h176q-31 -170 -110 -295q-76 -119 -217 -211z" />
<glyph unicode="&#x201a;" horiz-adv-x="583" d="M51 -199q92 63 152 162q55 90 80 227l6 37h178q-35 -166 -125 -293q-88 -125 -233 -213z" />
<glyph unicode="&#x201c;" horiz-adv-x="940" d="M143 1014q31 172 109 295q74 115 217 211l55 -80q-82 -68 -127 -150q-47 -86 -67 -213l-13 -63h-174zM500 1014q35 180 108 295q76 119 215 211l58 -80q-82 -68 -127 -150q-47 -86 -68 -213l-10 -63h-176z" />
<glyph unicode="&#x201d;" horiz-adv-x="940" d="M100 1067q82 68 127 150q49 92 70 215l10 61h176q-31 -170 -110 -295q-76 -119 -217 -211zM459 1067q80 63 125 150q47 86 67 213l13 63h174q-31 -172 -109 -295q-76 -119 -215 -211z" />
<glyph unicode="&#x201e;" horiz-adv-x="952" d="M51 -199q92 63 152 162q55 90 80 227l6 37h178q-35 -166 -125 -293q-88 -125 -233 -213zM406 -199q96 66 153 162q59 98 80 227l6 37h176q-37 -170 -123 -293q-88 -125 -233 -213z" />
<glyph unicode="&#x2022;" horiz-adv-x="1085" d="M276 762q0 121 78 209q77 86 191 86q111 0 188 -86q78 -88 78 -209q0 -123 -78 -211q-78 -86 -188 -86q-114 0 -191 86q-78 88 -78 211z" />
<glyph unicode="&#x2026;" horiz-adv-x="1841" d="M188 104q8 55 52 95q41 39 92 39t78 -39q27 -37 16.5 -94.5t-49.5 -94.5q-41 -39 -92 -39q-53 0 -80 39q-27 37 -17 94zM803 104q8 55 51 95q41 39 90 39q51 0 78 -39t18.5 -94.5t-51.5 -94.5q-41 -39 -92 -39t-78 39q-26 37 -16 94zM1415 104.5q8 55.5 51 94.5 q41 39 92.5 39t78 -39t18.5 -94.5t-51 -94.5q-41 -39 -92.5 -39t-78 39t-18.5 94.5z" />
<glyph unicode="&#x202f;" horiz-adv-x="378" />
<glyph unicode="&#x2039;" horiz-adv-x="735" d="M135 559l15 82l495 418l-20 -115l-328 -344l207 -344l-21 -115z" />
<glyph unicode="&#x203a;" horiz-adv-x="735" d="M92 141l23 115l325 344l-207 344l21 115l348 -418l-12 -82z" />
<glyph unicode="&#x2044;" horiz-adv-x="305" d="M645 1520h135l-1118 -1549h-135z" />
<glyph unicode="&#x205f;" horiz-adv-x="473" />
<glyph unicode="&#x2074;" horiz-adv-x="737" d="M385 971l72 407l-348 -407h276zM592 668h-391l14 84h133l25 137h-361l17 84l452 530h127l-94 -532h148l-15 -82h-147l-25 -137h131z" />
<glyph unicode="&#x20ac;" d="M-43 539l57 104h123q2 14 4 39q4 29 7 46l4 17q2 8 4 20.5t3 21t3 16.5t5 23.5t5 23.5h-162l60 104h131q90 264 235 414q147 152 320 152q92 0 174 -31q78 -29 182 -100l-57 -342h-97q14 176 -38 276q-51 98 -162 98q-123 0 -217 -118q-96 -121 -154 -349h453l-60 -104 h-418q0 -6 -3 -15.5t-5 -21.5q-4 -14 -12 -68q0 -2 -8 -43q-4 -35 -8 -59h336l-60 -104h-289q-20 -225 33 -349q53 -121 176 -120q102 0 187 84q78 80 133 241h121q-72 -201 -199 -315q-121 -109 -279 -109q-170 0 -266 151.5t-92 416.5h-170z" />
<glyph unicode="&#x2122;" horiz-adv-x="1841" d="M217 1323v170h502v-170h-62v104h-137v-446h78v-66h-258v66h78v446h-142v-104h-59zM797 915v66h77v446h-77v66h209l157 -270l162 270h199v-66h-78v-446h78v-66h-258v66h77v426l-188 -311h-39l-178 311v-426h76v-66h-217z" />
<glyph unicode="&#xe000;" horiz-adv-x="1065" d="M0 1065h1065v-1065h-1065v1065z" />
<glyph unicode="&#xfb01;" horiz-adv-x="1228" d="M-115 -426l11 98q95 0 141 56q49 61 74 206l178 1022h-160l21 107h157l19 96q33 197 155 297q121 100 330 100q66 0 158 -14q84 -12 155 -39l-39 -217h-84q2 12 3 35q0 59 -37 94q-49 43 -158 43q-137 0 -215 -72q-74 -68 -102 -223l-19 -100h639l-166 -957h156l-19 -106 h-321l168 956h-475l-179 -1022q-31 -176 -131 -270q-96 -90 -260 -90z" />
<glyph unicode="&#xfb02;" horiz-adv-x="1228" d="M-115 -426l11 98q95 0 141 56q49 61 74 206l178 1022h-160l21 107h157l19 96q35 201 159.5 299t343.5 98h357l-254 -1450h158l-19 -106h-321l251 1450h-192q-147 0 -219 -66q-71 -65 -98 -221l-19 -100h266l-18 -107h-266l-179 -1022q-31 -176 -131 -270 q-96 -90 -260 -90z" />
<glyph unicode="&#xfb03;" horiz-adv-x="1734" d="M-115 -426l11 98q95 0 141 56q49 61 74 206l178 1022h-160l21 107h157l25 133q31 178 131 268q98 92 260 92q59 0 117 -12q59 -12 114 -37l-36 -202h-87q2 14 3 41q0 47 -21 73q-31 39 -102 39q-92 0 -140 -57q-49 -59 -73 -201l-25 -137h440l19 96q33 197 155 297 q121 100 330 100q66 0 158 -14q84 -12 156 -39l-39 -217h-84q2 12 2 35q0 59 -37 94q-45 43 -160 43q-135 0 -213 -71.5t-104 -223.5l-17 -100h639l-166 -957h156l-18 -106h-324l168 956h-473l-180 -1022q-31 -178 -129 -270q-96 -90 -263 -90l13 98q92 0 139 56 q51 66 76 206l178 1022h-440l-179 -1022q-31 -176 -131 -270q-96 -90 -260 -90z" />
<glyph unicode="&#xfb04;" horiz-adv-x="1816" d="M-115 -426q164 0 260 90q100 94 131 270l179 1022h463l-179 -1022q-25 -145 -73 -206q-46 -55 -142 -56l-10 -98q164 0 260 90q98 92 129 270l180 1022h265l18 107h-264l18 100q28 157 99 221q72 66 217 66h194l-254 -1450h324l18 106h-157l254 1450h-359 q-218 0 -344 -98q-125 -98 -160 -299l-16 -96h-463l25 137q25 141 73 201q47 57 140 57q72 0 102 -39q20 -27 21 -73q0 -27 -3 -41h87l36 202q-55 25 -114 37q-57 12 -117 12q-162 0 -260 -92q-100 -90 -131 -268l-25 -133h-157l-21 -107h160l-178 -1022q-25 -145 -74 -206 q-46 -55 -141 -56z" />
<glyph horiz-adv-x="0" d="M-469 1511q45 0 70 -34q27 -35 16 -82q-8 -49 -45 -82q-39 -35 -82 -35t-67.5 35t-16.5 82q10 49 45 82q39 34 80 34zM-117 1511q43 0 68 -34q27 -35 16 -82q-8 -49 -45 -82q-39 -35 -80 -35q-45 0 -69.5 35t-16.5 82q10 49 45 82q39 34 82 34z" />
<glyph horiz-adv-x="0" d="M-246 1526h178l-282 -264h-107z" />
<glyph horiz-adv-x="0" d="M-338 1341l-39 29q-20 16 -33 21q-18 6 -30 6q-37 0 -66 -29q-27 -27 -39 -74h-86q18 102 76 160q55 59 131 59q29 0 59 -10q31 -12 72 -39l39 -26q25 -16 37 -21q18 -6 33 -6q39 0 63 27q25 25 35 75h86q-23 -109 -76 -161q-55 -57 -139 -58q-61 0 -119 45z" />
<glyph horiz-adv-x="0" d="M-346 1526l117 -264h-107l-188 264h178z" />
<glyph horiz-adv-x="0" d="M-383 1526h160l162 -264h-105l-153 161l-213 -161h-105z" />
</font>
</defs>
</svg>
