<?xml version="1.0" standalone="no"?>
<!DOCTYPE svg PUBLIC "-//W3C//DTD SVG 1.1//EN" "http://www.w3.org/Graphics/SVG/1.1/DTD/svg11.dtd" >
<svg xmlns="http://www.w3.org/2000/svg">
<metadata>
This is a custom SVG webfont generated by Font Squirrel.
Copyright   : Copyright c 2003 by Bitstream Inc All Rights ReservedDejaVu changes are in public domain
Foundry     : DejaVu fonts team
Foundry URL : httpdejavusourceforgenet
</metadata>
<defs>
<font id="webfont2SU9iLPc" horiz-adv-x="1232" >
<font-face units-per-em="2048" ascent="1556" descent="-492" />
<missing-glyph horiz-adv-x="500" />
<glyph unicode=" " />
<glyph unicode="!" d="M371 0l49 254h203l-50 -254h-202zM485 481l50 357l127 655h202l-129 -655l-88 -357h-162z" />
<glyph unicode="&#x22;" d="M338 938v555h174v-555h-174zM721 938v555h174v-555h-174z" />
<glyph unicode="#" d="M-6 414l39 153h256l84 334h-258l39 154h258l104 415h160l-105 -415h246l105 415h159l-104 -415h256l-39 -154h-256l-84 -334h258l-39 -153h-258l-104 -414h-160l104 414h-245l-105 -414h-160l105 414h-256zM449 567h245l84 334h-246z" />
<glyph unicode="$" d="M31 92l35 180q76 -59 176 -94q86 -31 198 -37l90 465q-178 35 -256 107q-80 74 -79 198q0 172 133 287q135 117 342 123l47 235h100l-47 -235q96 -6 164 -21q74 -14 149 -40l-32 -173q-61 37 -142 64q-63 20 -166 31l-81 -426q175 -34 264 -117q88 -82 88 -213 q0 -184 -137 -303q-139 -121 -353 -121h-10l-59 -303h-101l60 301q-86 2 -193 27q-90 20 -190 65zM373 940q0 -70 43 -106q45 -39 147 -60l80 410q-119 -8 -194.5 -76t-75.5 -168zM543 145q131 0 209 72q80 74 79 189q0 78 -47 120q-45 43 -155 62z" />
<glyph unicode="%" d="M33 1112q0 135 92 227.5t227 92.5q70 0 123 -23q57 -25 102.5 -70t69.5 -104q25 -58 25 -123q0 -135 -92.5 -227t-227.5 -92t-227 92t-92 227zM86 561l1042 418l41 -96l-1048 -418zM168 1112q0 -78 53 -131t131 -53q74 0 131 53q53 51 53.5 131t-53.5 131q-57 53 -131 53 q-78 0 -131 -53t-53 -131zM561 319q0 135 92 227.5t226 92.5q65 0 122 -25t103 -69q47 -47 72 -105q25 -59 24 -121q0 -135 -92 -227t-229 -92q-135 0 -228 92q-90 90 -90 227zM696 319.5q0 -79.5 52 -131.5q53 -53 130.5 -53t131 53.5t53.5 131t-53.5 131t-131 53.5 t-130.5 -53q-52 -52 -52 -131.5z" />
<glyph unicode="&#x26;" d="M-20 360q0 164 100 312q96 141 287 248q-29 53 -43 106q-14 51 -15 109q0 176 123 280.5t330 104.5q66 0 127 -13q53 -10 119 -34l-35 -183q-47 41 -103 58q-61 18 -137 18q-117 0 -182 -57q-68 -59 -68 -152q0 -45 23 -113q23 -70 61 -137l307 -557q59 63 99 168 q37 100 49 242h168q-18 -174 -78 -303q-61 -135 -168 -236l123 -221h-199l-59 113q-94 -70 -195 -107q-96 -35 -204 -35q-197 0 -312 107q-118 108 -118 282zM158 407.5q0 -118.5 86 -198.5t215 -80q63 0 139 29q74 29 143 82l-309 555q-133 -74 -205 -172 q-69 -97 -69 -215.5z" />
<glyph unicode="'" d="M528 938v555h174v-555h-174z" />
<glyph unicode="(" d="M373 375q0 304 129 602q131 303 381 577h159q-236 -299 -356 -606q-119 -301 -119 -608q0 -156 29 -297q33 -162 90 -313h-160q-80 193 -116 346q-37 158 -37 299z" />
<glyph unicode=")" d="M150 -270q236 299 356 606q119 301 119 608q0 156 -29 297q-33 162 -90 313h160q82 -203 116 -346q37 -156 37 -299q0 -304 -129 -602q-131 -303 -381 -577h-159z" />
<glyph unicode="*" d="M166 858l358 195l-358 194l57 99l336 -203v377h115v-377l336 203l57 -99l-358 -194l358 -195l-57 -98l-336 203v-377h-115v377l-336 -203z" />
<glyph unicode="+" d="M88 557v170h444v444h168v-444h445v-170h-445v-444h-168v444h-444z" />
<glyph unicode="," d="M203 -287l172 383l41 207h252l-41 -207l-271 -383h-153z" />
<glyph unicode="-" d="M303 479l33 164h522l-33 -164h-522z" />
<glyph unicode="." d="M354 0l60 303h252l-60 -303h-252z" />
<glyph unicode="/" d="M16 -190l852 1683h191l-854 -1683h-189z" />
<glyph unicode="0" d="M98 473q0 197 58 412q61 229 141 360q86 139 195 207q111 68 258 68q197 0 290 -123q94 -121 95 -377q0 -195 -58 -412q-59 -223 -141 -360q-82 -141 -195 -209q-111 -68 -260 -68q-194 0 -288 123q-95 121 -95 379zM299 414q0 -143 51 -209q53 -70 156 -70q84 0 149 51 q70 53 115 148q70 145 115 346q47 211 47 383q0 154 -49 223.5t-156 69.5q-84 0 -149 -51q-70 -53 -117 -146q-70 -137 -117 -348q-45 -204 -45 -397zM481 750q0 57 39 96t96 39q55 0 94.5 -39t39.5 -96q0 -55 -39 -94.5t-95 -39.5q-57 0 -96 39.5t-39 94.5z" />
<glyph unicode="1" d="M123 0l33 170h313l221 1141l-352 -76l35 184l352 74h203l-258 -1323h309l-33 -170h-823z" />
<glyph unicode="2" d="M6 0l33 170l311 274l39 35q537 469 537 674q0 94 -64 145q-66 53 -178 54q-94 0 -199 -33q-98 -31 -231 -102l41 204q109 49 217 74q104 25 201 25q188 0 299 -97q115 -98 114 -252q0 -96 -36 -182q-41 -94 -117 -190q-31 -39 -119 -121q-55 -51 -266 -234l-320 -274h684 l-32 -170h-914z" />
<glyph unicode="3" d="M-18 45l38 201q86 -49 187 -78q92 -27 192 -27q180 0 293 94.5t113 241.5q0 117 -72 178q-68 59 -209 60h-153l32 166h154q158 0 252 75q92 74 92 199q0 101 -61 148q-63 47 -191 47q-86 0 -180 -21q-106 -23 -209 -59l37 186q125 35 219 49q92 14 182 15q188 0 295 -88 q109 -90 109 -240t-90 -256q-88 -102 -250 -137q115 -23 178 -103q63 -82 64 -207q0 -236 -168 -377t-447 -141q-111 0 -211 19q-101 18 -196 55z" />
<glyph unicode="4" d="M25 356l36 191l785 946h233l-190 -973h198l-30 -164h-199l-70 -356h-198l69 356h-634zM217 520h473l152 762z" />
<glyph unicode="5" d="M4 35l41 205q80 -51 172 -76q90 -25 182 -25q184 0 307 117t123 291q0 125 -81 201q-80 74 -222 73q-82 0 -161 -20q-90 -23 -158 -58l145 750h756l-33 -170h-571l-72 -367q49 16 92 23q57 8 88 8q190 0 303 -113q115 -115 115 -299q0 -123 -53 -241q-52 -117 -148 -203 q-90 -82 -202 -121q-111 -39 -256 -39q-102 0 -201 17q-94 16 -166 47z" />
<glyph unicode="6" d="M92 420q0 172 39 346q41 178 107 324q98 217 251 323q152 106 359 107q80 0 145 -15q61 -12 135 -45l-36 -186q-66 41 -125 57q-68 18 -144 19q-195 0 -319.5 -143.5t-179.5 -426.5q66 100 161 154q94 53 207 53q178 0 274.5 -100.5t96.5 -282.5q0 -121 -39 -237.5 t-109 -202.5q-72 -92 -178 -146q-94 -47 -221 -47q-203 0 -313.5 117t-110.5 332zM293 387q0 -123 61.5 -190.5t167.5 -67.5q145 0 241.5 133t96.5 332q0 115 -57 174q-58 61 -166 61q-147 0 -246 -127q-98 -125 -98 -315z" />
<glyph unicode="7" d="M174 0l778 1323h-708l32 170h936l-16 -94l-805 -1399h-217z" />
<glyph unicode="8" d="M41 354q0 168 104.5 285t284.5 154q-106 37 -162 110q-53 72 -53 178q0 180 147.5 309.5t362.5 129.5q180 0 289 -90q113 -94 112 -236q0 -144 -98 -258q-98 -115 -256 -154q127 -31 190.5 -112.5t63.5 -216.5q0 -211 -152 -347q-150 -135 -389 -135q-205 0 -325 103 q-119 100 -119 280zM246 358q0 -104 67 -168q66 -63 179 -63q152 0 239 92q90 94 90 242q0 117 -65.5 182.5t-184.5 65.5q-141 0 -233 -98.5t-92 -252.5zM416 1079q0 -96 59 -155q57 -57 160 -58q123 0 207 86q84 88 84 213q0 92 -59.5 145.5t-159.5 53.5q-126 0 -209 -80 q-82 -80 -82 -205z" />
<glyph unicode="9" d="M63 31l35 186q66 -41 125 -57q68 -18 144 -19q195 0 319.5 143.5t179.5 426.5q-66 -100 -161 -154q-94 -53 -207 -53q-180 0 -275 100q-96 102 -96 285q0 115 41 237q39 119 106 201q78 96 179 146q96 47 221 47q205 0 315.5 -117t110.5 -332q0 -172 -39 -346 q-41 -178 -107 -324q-98 -213 -252 -321q-156 -109 -360 -109q-80 0 -145 15q-73 16 -134 45zM330 897q0 -115 57 -174q58 -61 166 -61q147 0 246 126q98 125 98 316q0 125 -59 190q-61 68 -168 68q-145 0 -242 -133q-98 -135 -98 -332z" />
<glyph unicode=":" d="M344 0l59 303h252l-59 -303h-252zM492 758l59 303h252l-60 -303h-251z" />
<glyph unicode=";" d="M203 -287l159 383l41 207h252l-41 -207l-258 -383h-153zM492 760l59 303h252l-60 -303h-251z" />
<glyph unicode="&#x3c;" d="M88 559v166l1057 418v-182l-850 -320l850 -317v-183z" />
<glyph unicode="=" d="M88 352v172h1057v-172h-1057zM88 760v170h1057v-170h-1057z" />
<glyph unicode="&#x3e;" d="M88 141v183l850 317l-850 320v182l1057 -418v-166z" />
<glyph unicode="?" d="M326 1219l36 188q108 58 209 86q98 27 203 27q156 0 250 -82q96 -84 96 -207q0 -94 -49 -174q-51 -82 -178 -189l-105 -86q-88 -74 -114 -120q-29 -49 -45 -138l-21 -123h-190l28 154q18 92 58 156q43 68 151 159l107 91q80 66 121 126q35 51 35 113q0 74 -56 115 q-57 41 -155 41q-84 0 -177 -35q-98 -36 -204 -102zM332 0l51 254h203l-49 -254h-205z" />
<glyph unicode="@" d="M-29 379q0 199 72 401q70 197 195 344q109 129 258 201t305 72q190 0 301 -105q113 -106 112 -280q0 -14 -4 -68q-2 -23 -14 -86l-137 -723h-144l21 111q-49 -61 -123 -96t-151 -35q-129 0 -213 92q-84 94 -84 237q0 219 133 377q131 156 313 156q86 0 150 -37 q66 -37 92 -96l8 43q2 8 8 61q4 33 4 41q0 126 -74 197q-72 70 -202 69q-139 0 -273 -77q-132 -77 -227 -222q-86 -131 -127 -274q-45 -158 -45 -307q0 -256 129 -403.5t354 -147.5q55 0 117 12q45 8 127 39l45 -131q-59 -29 -137 -45q-76 -16 -154 -16q-289 0 -461 190 q-174 193 -174 506zM524 469q0 -98 49.5 -153.5t135.5 -55.5q127 0 213 104.5t86 258.5q0 96 -49.5 151t-139.5 55q-123 0 -209 -104t-86 -256z" />
<glyph unicode="A" d="M-106 0l745 1493h246l166 -1493h-201l-35 389h-520l-184 -389h-217zM371 551h430l-66 774z" />
<glyph unicode="B" d="M23 0l290 1493h443q203 0 307 -80t104 -233q0 -154 -92 -258q-90 -100 -248 -123q121 -20 191 -103q68 -80 67 -202q0 -236 -159.5 -365t-450.5 -129h-452zM258 166h248q182 0 282 88q96 84 97 250q0 106 -68 158q-66 51 -211 51h-241zM395 877h244q152 0 238 73.5 t86 198.5q0 92 -55.5 135t-180.5 43h-244z" />
<glyph unicode="C" d="M115 477q0 225 69 436q70 213 185 353q111 133 235 192q129 61 295 62q84 0 160 -21q80 -22 153 -61l-41 -207q-63 63 -135 94q-70 31 -151 31q-94 0 -176 -41t-152 -123q-102 -119 -168 -315q-63 -188 -63 -385q0 -170 77 -265q76 -92 226 -92q82 0 176 33q89 31 178 92 l-39 -207q-82 -39 -170 -61q-82 -20 -176 -21q-229 0 -356 133t-127 373z" />
<glyph unicode="D" d="M-8 0l291 1493h303q272 0 409 -125q135 -123 135 -375q0 -162 -43 -334q-45 -178 -112 -305q-104 -190 -260 -272t-420 -82h-303zM227 166h97q182 0 297 63q113 63 180 203q53 109 88 275q35 164 35 292q0 176 -82 252t-275 76h-114z" />
<glyph unicode="E" d="M53 0l291 1493h885l-33 -170h-684l-86 -442h653l-32 -170h-654l-104 -541h702l-33 -170h-905z" />
<glyph unicode="F" d="M92 0l291 1493h879l-33 -170h-676l-86 -440h612l-32 -170h-613l-139 -713h-203z" />
<glyph unicode="G" d="M78 489q0 82 16 191q12 80 49 213q31 104 82 211q43 90 103 162q111 131 237 192q129 61 295 62q84 0 160 -21q78 -20 156 -61l-41 -207q-63 63 -136 94q-70 31 -153 31q-102 0 -184 -41q-86 -43 -154 -123q-41 -49 -82 -129q-37 -70 -70 -176q-33 -109 -51 -213 q-18 -100 -18 -182q0 -172 79.5 -264.5t223.5 -92.5q68 0 123 19q51 16 90 53l76 393h-217l30 166h410l-133 -670q-90 -66 -191 -94q-104 -31 -219 -31q-231 0 -356 135q-125 133 -125 383z" />
<glyph unicode="H" d="M-8 0l291 1493h202l-118 -612h553l118 612h203l-291 -1493h-202l139 711h-555l-137 -711h-203z" />
<glyph unicode="I" d="M57 0l33 170h313l224 1153h-314l33 170h830l-33 -170h-314l-223 -1153h314l-33 -170h-830z" />
<glyph unicode="J" d="M-25 61l45 236q68 -76 164 -121q88 -41 195 -41q141 0 213 74t110 278l164 836h-381l33 170h584l-197 -1006q-55 -289 -176 -403q-119 -113 -358 -113q-90 0 -197 23q-86 18 -199 67z" />
<glyph unicode="K" d="M-8 0l291 1493h202l-127 -647l742 647h254l-703 -619l428 -874h-219l-360 741l-193 -168l-112 -573h-203z" />
<glyph unicode="L" d="M78 0l291 1493h202l-258 -1323h721l-33 -170h-923z" />
<glyph unicode="M" d="M-59 0l288 1493h269l110 -756l414 756h270l-291 -1493h-186l258 1327l-434 -795h-141l-115 795l-256 -1327h-186z" />
<glyph unicode="N" d="M-6 0l291 1493h256l264 -1229l239 1229h195l-291 -1493h-256l-264 1229l-240 -1229h-194z" />
<glyph unicode="O" d="M82 473q0 102 22.5 237.5t63.5 264.5q25 80 63 166q37 80 72 131q90 127 197 188q104 59 254 60q201 0 299 -123t98 -377q0 -104 -23 -240q-20 -123 -65 -264q-28 -92 -62 -166q-33 -70 -73 -131q-90 -127 -197 -188q-104 -59 -254 -60q-201 0 -299 123q-96 121 -96 379z M287 414q0 -141 53 -211q53 -68 162 -68q88 0 157 51q76 55 119 146q72 141 119 350q47 211 47 397q0 139 -53 209q-51 68 -162 68q-86 0 -156 -51q-76 -55 -118 -146q-74 -141 -121 -350q-47 -207 -47 -395z" />
<glyph unicode="P" d="M51 0l291 1493h440q206 0 314 -92q109 -92 108 -266q0 -246 -160 -392q-158 -143 -440 -143h-233l-117 -600h-203zM403 766h234q164 0 264 96q98 96 98 254q0 108 -61 160q-59 51 -193 51h-233z" />
<glyph unicode="Q" d="M82 473q0 102 22.5 237.5t63.5 264.5q25 80 63 166q37 80 72 131q90 127 197 188q104 59 254 60q201 0 299 -123t98 -377q0 -90 -14 -182q-15 -98 -43 -209q-31 -117 -62 -203q-25 -70 -69 -152q-61 -104 -123 -163q-70 -66 -150 -101l154 -188l-154 -92l-186 243h-10 q-215 0 -314 119q-98 120 -98 381zM287 414q0 -141 53 -211q53 -68 162 -68q88 0 157 51q76 55 119 146q72 141 119 350q47 211 47 397q0 139 -53 209q-51 68 -162 68q-86 0 -156 -51q-76 -55 -118 -146q-74 -141 -121 -350q-47 -207 -47 -395z" />
<glyph unicode="R" d="M12 0l289 1493h416q207 0 321 -90q113 -88 113 -252q0 -184 -104 -303q-106 -123 -281 -143q74 -16 115 -66q43 -51 98 -231l121 -408h-201l-106 377q-43 156 -98.5 205t-164.5 49h-192l-123 -631h-203zM371 797h219q162 0 260 86t98 227q0 113 -63 164q-66 53 -199 53 h-213z" />
<glyph unicode="S" d="M25 61l41 209q102 -70 198 -102q98 -33 213 -33q166 0 268.5 88t102.5 223q0 82 -43 127q-41 45 -178 86l-101 33q-186 59 -258 131q-74 74 -73 195q0 221 165 362q164 139 431 140q86 0 170 -21q102 -25 186 -57l-39 -205q-76 55 -168 88q-86 31 -180 31 q-166 0 -268 -82q-104 -83 -105 -209q0 -72 49 -115q51 -45 178 -84l121 -39q158 -47 238 -133q76 -82 76 -213q0 -236 -166 -372q-164 -137 -453 -138q-98 0 -205 23q-98 20 -200 67z" />
<glyph unicode="T" d="M160 1323l33 170h1140l-33 -170h-469l-256 -1323h-204l258 1323h-469z" />
<glyph unicode="U" d="M80 317q0 43 8 101q10 78 27 155l178 920h203l-179 -920q0 -4 -3 -17t-5 -24q-31 -154 -30 -213q0 -94 55 -139q53 -45 164 -45q88 0 151 29q59 27 107 90q25 37 45 106q23 82 49 213l178 920h203l-178 -920q-43 -217 -90 -321q-45 -98 -125 -166q-72 -55 -162 -86 q-86 -29 -197 -29q-188 0 -295 90q-104 90 -104 256z" />
<glyph unicode="V" d="M199 1493h198l113 -1303l598 1303h215l-719 -1493h-258z" />
<glyph unicode="W" d="M82 0l63 1493h191l-90 -1210l329 800h211l15 -802l377 1212h198l-510 -1493h-194l-31 870l-371 -870h-188z" />
<glyph unicode="X" d="M-127 0l657 797l-288 696h200l224 -532l440 532h231l-596 -719l324 -774h-201l-254 612l-506 -612h-231z" />
<glyph unicode="Y" d="M195 1493h202l236 -651l497 651h218l-635 -823l-129 -670h-207l131 670z" />
<glyph unicode="Z" d="M-6 0l29 154l976 1169h-727l33 170h969l-29 -154l-979 -1169h774l-34 -170h-1012z" />
<glyph unicode="[" d="M264 -270l357 1826h423l-28 -143h-240l-299 -1540h240l-27 -143h-426z" />
<glyph unicode="\" d="M356 1493h170l199 -1683h-170z" />
<glyph unicode="]" d="M147 -270l29 143h240l299 1540h-240l29 143h424l-357 -1826h-424z" />
<glyph unicode="^" d="M72 936l456 557h177l456 -557h-178l-367 395l-366 -395h-178z" />
<glyph unicode="_" d="M0 -403h1233v-80h-1233v80z" />
<glyph unicode="`" d="M453 1638h198l197 -376h-143z" />
<glyph unicode="a" d="M72 276q0 195 155 314q154 117 418 117h246l12 61q2 6 2 18q0 2 1 12.5t1 16.5q0 86 -63.5 131t-179.5 45q-78 0 -184.5 -26.5t-211.5 -75.5l35 180q115 43 205 59q98 18 186 19q186 0 289 -82q104 -83 104 -227q0 -31 -6 -84q-6 -47 -18 -115l-125 -639h-184l32 166 q-72 -96 -170 -145.5t-208 -49.5q-150 0 -244 84q-92 83 -92 221zM264 307q0 -84 51 -133q53 -49 140 -49q150 0 256 106q109 109 145 291l8 41h-172q-100 0 -178 -8q-57 -6 -100 -25q-70 -29 -109 -88q-41 -63 -41 -135z" />
<glyph unicode="b" d="M59 0l303 1556h185l-113 -579q63 86 144 127q83 43 184 43q166 0 256 -102.5t90 -290.5q0 -141 -41 -289q-39 -139 -113 -252q-78 -115 -186.5 -178.5t-232.5 -63.5q-96 0 -164 43q-66 41 -101 127l-26 -141h-185zM332 383q0 -121 53 -190q51 -66 154 -66q86 0 151 45 q70 47 115 131q53 102 78 209q29 121 28 225q0 125 -51 193q-49 63 -151 63q-82 0 -152 -47q-68 -47 -119 -133q-51 -88 -78 -203q-28 -121 -28 -227z" />
<glyph unicode="c" d="M156 416q0 145 53 293q51 141 145 241q90 96 205 148q111 49 244 49q92 0 172 -21q78 -20 162 -65l-37 -182q-65 58 -135 86q-68 27 -156 26q-104 0 -195 -45q-82 -41 -145 -133q-59 -88 -88 -188q-31 -104 -31 -209q0 -143 68 -217q66 -72 205 -72q95 0 184 31 q92 31 172 94l-39 -201q-68 -37 -156 -59q-80 -20 -174 -21q-227 0 -340 113q-114 115 -114 332z" />
<glyph unicode="d" d="M119 369q0 141 41 288q39 141 108 252q74 117 176 178q98 59 226 60q96 0 169.5 -43t114.5 -127l115 579h184l-303 -1556h-184l27 141q-66 -84 -148 -127q-84 -43 -182 -43q-164 0 -254 105q-90 107 -90 293zM315 383q0 -129 51.5 -192.5t151.5 -63.5q88 0 154 45 q70 47 116 133q47 84 76 203q29 121 29 229q0 119 -55.5 186.5t-151.5 67.5q-88 0 -156 -43q-63 -41 -112 -131q-47 -84 -76 -205q-27 -108 -27 -229z" />
<glyph unicode="e" d="M98 408q0 162 60 307q63 156 166 258q82 84 184 131q98 45 209 45q186 0 297 -115q113 -117 112 -305q0 -35 -6 -84q-14 -121 -16 -129h-807l-8 -57q-4 -33 -4 -47q0 -137 77 -211q76 -74 224 -74q84 0 192 29q102 27 219 84l-36 -183q-111 -45 -205 -65 q-96 -20 -203 -21q-223 0 -340 111q-115 109 -115 326zM332 659h606l8 46q2 12 2 32q0 117 -65 187q-63 68 -181 67q-123 0 -225 -90t-145 -242z" />
<glyph unicode="f" d="M264 977l29 143h297l16 78q35 188 135 275q96 84 283 83h221l-31 -153h-208q-96 0 -144 -41q-45 -41 -67 -143l-21 -99h385l-26 -143h-385l-191 -977h-184l190 977h-299z" />
<glyph unicode="g" d="M59 -385l37 182q86 -49 152 -67q84 -23 158 -23q147 0 231 80q82 80 119 266l24 117q-59 -86 -145 -133q-84 -45 -197 -45q-154 0 -245 108q-90 104 -91 291q0 141 39 277q37 129 113 243.5t178 173.5q104 61 215 62q98 0 176 -49t111 -133l27 151h184l-203 -1044 q-51 -270 -186 -391q-133 -121 -381 -121q-88 0 -162 14q-91 18 -154 41zM297 399q0 -121 57 -186q59 -68 158 -68q80 0 145.5 45.5t112.5 129t76 200.5q29 115 28 219q0 115 -57 185q-55 68 -155 67q-154 0 -259 -168q-106 -172 -106 -424z" />
<glyph unicode="h" d="M84 0l303 1556h184l-116 -604q68 90 163 146q86 49 185 49q143 0 217 -72q76 -74 76 -203q0 -33 -6 -79q-10 -70 -15 -99l-135 -694h-184l135 694q0 2 4 15q14 66 14 110q0 82 -47 125t-133 43q-127 0 -217 -92q-86 -90 -121 -262l-123 -633h-184z" />
<glyph unicode="i" d="M61 0l29 143h365l161 834h-286l28 143h471l-190 -977h365l-29 -143h-914zM684 1323l45 233h184l-45 -233h-184z" />
<glyph unicode="j" d="M4 -426l31 156h233q94 0 150 59q55 58 80 191l192 997h-317l28 143h502l-221 -1140q-41 -215 -141 -310q-102 -96 -283 -96h-254zM758 1323l45 233h184l-45 -233h-184z" />
<glyph unicode="k" d="M90 0l303 1556h191l-170 -874l549 438h241l-520 -422l373 -698h-213l-307 582l-168 -133l-88 -449h-191z" />
<glyph unicode="l" d="M311 1423l29 144h500l-240 -1159l-10 -62q-4 -37 -4 -45q0 -70 45 -108q43 -37 135 -37h211l-31 -156h-207q-174 0 -258 63.5t-84 194.5q0 41 4 68q10 61 15 86l211 1011h-316z" />
<glyph unicode="m" d="M-14 0l217 1120h168l-19 -96q43 61 98.5 92t120.5 31q76 0 121 -37t56 -104q39 68 102 104q61 37 139 37q84 0 137 -55q51 -53 52 -146q0 -63 -9 -123q-8 -63 -30 -174l-127 -649h-168l125 641q25 121 28 150q8 51 9 83q0 61 -22.5 90t-74.5 29q-74 0 -116.5 -65.5 t-85.5 -286.5l-125 -641h-168l125 641q27 147 28 154q8 49 8 79q0 63 -24 91q-25 29 -72 28q-74 0 -114 -59q-39 -57 -86 -293l-125 -641h-168z" />
<glyph unicode="n" d="M84 0l219 1120h184l-32 -168q68 90 163 146q86 49 185 49q143 0 217 -72q76 -74 76 -203q0 -33 -6 -79q-10 -70 -15 -99l-135 -694h-184l135 694q0 2 4 15q14 66 14 110q0 82 -47 125t-133 43q-127 0 -217 -92q-86 -90 -121 -262l-123 -633h-184z" />
<glyph unicode="o" d="M117 393q0 131 41 271q37 125 116 247q78 113 191 176q106 59 248 60q199 0 299 -107q102 -109 102 -313q0 -135 -41 -274q-41 -137 -115 -246q-82 -119 -192 -176q-115 -59 -260 -60q-188 0 -288.5 108.5t-100.5 313.5zM313 385q0 -127 55.5 -192.5t168.5 -65.5 q164 0 274 172q109 168 109 434q0 127 -55.5 192.5t-168.5 65.5q-164 0 -274 -172q-109 -168 -109 -434z" />
<glyph unicode="p" d="M-2 -426l301 1546h184l-28 -143q63 84 147 127q86 43 186 43q162 0 250 -105q90 -106 90 -290q0 -139 -40.5 -287t-108.5 -254q-74 -117 -176.5 -178.5t-224.5 -61.5q-102 0 -170 41q-72 43 -115 129l-111 -567h-184zM354 383q0 -123 56 -190q53 -66 159 -66q76 0 148 45 q66 43 112 129q49 90 76 207q29 121 29 229q0 127 -51.5 190.5t-153.5 63.5q-88 0 -154 -45q-70 -47 -116.5 -133t-75.5 -203q-29 -118 -29 -227z" />
<glyph unicode="q" d="M98 365q0 139 41 286q39 143 113 258q72 115 180 178q100 59 234 60q100 0 168 -43q70 -45 102 -127l27 143h184l-299 -1546h-184l110 567q-63 -86 -143 -127q-83 -43 -185 -43q-166 0 -256 103q-92 105 -92 291zM295 383q0 -125 51 -193q49 -63 152 -63q86 0 151 45 q70 47 119 133q51 88 78 203q29 121 28 229q0 123 -53 188.5t-153 65.5q-82 0 -154 -45q-66 -43 -113 -129q-51 -100 -77 -211q-29 -121 -29 -223z" />
<glyph unicode="r" d="M217 0l217 1120h184l-40 -219q66 117 174 182q106 63 241 64q71 0 129 -19q53 -16 97 -53l-35 -186q-47 45 -105 65q-61 23 -135 23q-162 0 -280 -115q-119 -117 -156 -313l-107 -549h-184z" />
<glyph unicode="s" d="M115 41l37 190q98 -53 182 -79q86 -27 172 -27q133 0 217 59.5t84 151.5q0 98 -197 151q-16 2 -26 7l-68 18q-131 35 -190.5 96.5t-59.5 167.5q0 170 131 270.5t357 100.5q84 0 170 -17q80 -15 153 -49l-35 -180q-63 41 -149 68q-80 25 -156 24q-137 0 -212.5 -51 t-75.5 -143q0 -98 221 -154q6 -2 10 -3t7 -2t5 -1l72 -18q115 -31 174 -93q59 -63 59 -153q0 -182 -143 -293q-145 -111 -383 -111q-90 0 -170 16.5t-186 53.5z" />
<glyph unicode="t" d="M195 977l28 143h299l62 318h184l-61 -318h417l-28 -143h-418l-119 -608q-4 -16 -8 -56q-4 -33 -4 -47q0 -66 39 -92.5t141 -26.5h207l-29 -147h-223q-166 0 -246 55q-78 53 -78 174q0 14 4 60q3 34 13 80l119 608h-299z" />
<glyph unicode="u" d="M125 246q0 25 4 86q2 27 14 94l133 694h185l-135 -694q-8 -49 -11 -72q-4 -45 -4 -57q0 -78 47.5 -121t130.5 -43q126 0 216 92q86 90 120 262l123 633h185l-218 -1120h-184l33 168q-74 -98 -162 -148q-86 -47 -194 -47q-129 0 -207 74q-76 74 -76 199z" />
<glyph unicode="v" d="M182 1120h178l154 -956l502 956h198l-614 -1120h-238z" />
<glyph unicode="w" d="M92 1120h176l15 -905l268 578h162l49 -578l362 905h191l-486 -1120h-165l-60 623l-297 -623h-166z" />
<glyph unicode="x" d="M-70 0l564 596l-293 524h196l217 -395l369 395h225l-512 -547l318 -573h-197l-244 444l-417 -444h-226z" />
<glyph unicode="y" d="M-39 -426l29 154h108q80 0 140 47q57 45 118 159l43 84l-217 1102h183l172 -862l483 862h205l-439 -760l-165 -288q-150 -268 -209 -348q-57 -74 -133 -113q-74 -37 -170 -37h-148z" />
<glyph unicode="z" d="M78 0l33 168l784 805h-604l28 147h814l-33 -168l-785 -805h629l-29 -147h-837z" />
<glyph unicode="{" d="M184 537l29 147h61q143 0 207 55.5t94 204.5l50 244q25 125 61 194q39 74 90 111q45 33 117 49q63 14 201 14h82l-29 -143h-78q-137 0 -182 -39q-47 -41 -78 -190l-51 -252q-35 -162 -92 -232q-61 -72 -172 -94q74 -18 112 -69q41 -53 41 -127q0 -16 -4 -58 q-2 -20 -10 -69l-47 -244q-2 -14 -8 -59q-2 -16 -3 -50q0 -65 43 -92q45 -29 140 -28h78l-29 -144h-72q-186 0 -268 55.5t-82 176.5q0 20 4 65q2 23 10 72l45 235q0 6 2 13q10 55 11 94q0 86 -49.5 123t-161.5 37h-62z" />
<glyph unicode="|" d="M530 -483v2048h172v-2048h-172z" />
<glyph unicode="}" d="M-14 -334l28 144h78q135 0 182.5 40.5t77.5 188.5l51 252q35 164 93 233q59 70 172 92q-74 18 -113 70q-41 53 -41 127q0 12 4 57q2 18 10 70l47 244q2 14 9 59q2 16 2 49q0 65 -43 92q-45 29 -140 29h-77l26 143h74q188 0 268 -55q82 -57 82 -176q0 -20 -4 -65 q-2 -23 -10 -72l-45 -236l-1 -4q-1 -4 -1 -8q-10 -55 -10 -94q0 -86 49 -123t161 -37h62l-29 -147h-61q-141 0 -207 -56q-66 -57 -96 -204l-47 -244q-25 -125 -62 -195q-39 -74 -90 -110q-45 -33 -117 -49q-63 -14 -200 -15h-82z" />
<glyph unicode="~" d="M88 492v174q74 59 152 88q72 27 155 26q53 0 103 -12q68 -16 125 -41q4 -2 32 -14q117 -55 209 -56q72 0 139.5 31t141.5 92v-174q-74 -57 -146 -86q-74 -29 -151 -28q-92 0 -203 51q-6 2 -13 5t-11.5 6t-8.5 3q-72 31 -129 45q-53 12 -102 12q-78 0 -150 -30 q-75 -33 -143 -92z" />
<glyph unicode="&#xa0;" />
<glyph unicode="&#xa1;" d="M389 0l129 655l88 357h162l-49 -357l-127 -655h-203zM631 1239l49 254h203l-49 -254h-203z" />
<glyph unicode="&#xa2;" d="M123 430q0 180 82 348q80 163 221 258q68 47 147 76q74 27 164 33l56 287h102l-55 -287q66 -4 123 -21q78 -23 124 -47l-32 -172q-51 39 -111 60q-66 23 -133 28l-170 -870q70 6 135 27q59 18 144 63l-33 -172q-76 -33 -144 -47q-80 -18 -131 -21l-55 -286h-102l55 286 q-182 20 -284.5 141t-102.5 316zM315 422q0 -131 57.5 -207t168.5 -88l168 864q-166 -14 -279 -180q-115 -168 -115 -389z" />
<glyph unicode="&#xa3;" d="M-8 0l33 170h237l90 465h-198l26 143h199l47 238q53 262 182 383t359 121q66 0 125 -15q70 -16 137 -43l-37 -184q-59 47 -115 65q-63 23 -123 23q-139 0 -217 -86q-78 -88 -114 -285l-43 -217h370l-28 -143h-371l-90 -465h536l-32 -170h-973z" />
<glyph unicode="&#xa4;" d="M205 285l166 166q-29 49 -45 98q-14 43 -15 92q0 53 14.5 96t47.5 92l-168 166l94 95l166 -168q49 33 92 47t96 14q49 0 92 -14q49 -16 99 -45l166 166l90 -93l-166 -166q29 -45 45 -96q14 -43 14 -94q0 -53 -14 -96q-12 -39 -47 -90l168 -166l-94 -94l-166 167 q-49 -33 -92 -47t-94.5 -14t-96.5 14.5t-96 42.5l-164 -163zM438 643q0 -92 62 -154q63 -63 153 -63q92 0 153.5 63.5t61.5 153.5t-61.5 151.5t-153.5 61.5t-153.5 -61.5t-61.5 -151.5z" />
<glyph unicode="&#xa5;" d="M47 524l23 111h397l6 35l-55 151h-309l22 111h246l-205 561h207l223 -664l459 664h211l-404 -561h252l-22 -111h-312l-110 -151l-10 -35h393l-23 -111h-393l-98 -524h-199l98 524h-397z" />
<glyph unicode="&#xa6;" d="M530 -350v758h172v-758h-172zM530 674v758h172v-758h-172z" />
<glyph unicode="&#xa7;" d="M100 -143l33 161q72 -37 146 -55q78 -20 133 -20q109 0 178 47q68 47 67 125q0 100 -184 223l-12 8l-74 51q-129 88 -166 140q-39 53 -39 129q0 98 63.5 182t182.5 149q-43 39 -59 76q-18 41 -19 94q0 147 119 246q120 98 307 98q74 0 144 -14q78 -16 149 -43l-33 -164 q-63 33 -139 58q-63 20 -127 20q-106 0 -170 -49q-66 -49 -65 -121q0 -80 135 -170l28.5 -18.5t18.5 -12.5l86 -59q121 -84 166 -145q43 -59 43 -127q0 -100 -65.5 -190.5t-180.5 -143.5q40 -34 61 -80q20 -43 21 -100q0 -158 -121 -254q-123 -98 -321 -99q-74 0 -146 15 q-77 15 -160 43zM348 709q0 -49 43 -98.5t168 -131.5l119 -78q90 57 129 107q43 55 43 110q0 51 -53 109q-49 51 -201 150l-80 51q-80 -49 -125 -109q-43 -55 -43 -110z" />
<glyph unicode="&#xa8;" d="M436 1350l39 202h203l-39 -202h-203zM827 1350l39 202h203l-39 -202h-203z" />
<glyph unicode="&#xa9;" d="M0 741q0 127 45 236q43 102 137 201q88 88 199 135q104 45 235.5 45t235.5 -45q111 -47 199 -135q94 -98 137 -201q45 -109 45 -236q0 -129 -45 -233q-47 -111 -137 -201q-92 -90 -199 -137q-104 -45 -236 -45q-129 0 -233 45q-111 47 -201 137t-137 201q-45 104 -45 233 zM102 741.5q0 -106.5 39 -196.5q41 -94 113 -166q78 -78 166 -115t196 -37t197 37q88 37 166 115q76 76 113 166q39 94 38 196q0 98 -38 197q-37 92 -113 168t-166 113q-89 37 -196.5 36.5t-196.5 -36.5q-90 -37 -166 -113q-70 -70 -113 -168q-39 -90 -39 -196.5zM250 741 q0 172 104 275q102 100 283 100q70 0 119 -10t108 -35v-108q-61 29 -114 41q-66 14 -113 14q-117 0 -184.5 -74t-67.5 -203q0 -133 70 -202q72 -72 200 -72q53 0 107 12q47 10 102 39v-104q-49 -20 -108.5 -32.5t-118.5 -12.5q-180 0 -283 100q-104 100 -104 272z" />
<glyph unicode="&#xaa;" d="M223 469l23 123h676l-23 -123h-676zM295 920q0 139 110.5 219t311.5 80h174l1 4q1 4 1 6q2 18 2 39q0 71 -43 104q-41 33 -141 33q-66 0 -138 -16q-61 -14 -139 -52l23 127q61 23 147 41q70 14 139 15q145 0 219 -61.5t74 -190.5q0 -33 -2 -49q-4 -37 -8 -54l-86 -448 h-143l22 112q-51 -63 -127 -98q-72 -33 -160 -33q-113 0 -174 60q-63 62 -63 162zM442 938q0 -53 37 -88q35 -33 96 -33q109 0 187 68q74 66 102 190l6 29h-141q-147 0 -217 -39t-70 -127z" />
<glyph unicode="&#xab;" d="M74 559l16 82l549 418l-43 -211l-350 -264l250 -267l-35 -176zM541 559l16 82l549 418l-43 -211l-350 -264l250 -267l-35 -176z" />
<glyph unicode="&#xac;" d="M88 690v172h1057v-491h-168v319h-889z" />
<glyph unicode="&#xad;" d="M303 479l33 164h522l-33 -164h-522z" />
<glyph unicode="&#xae;" d="M0 741q0 127 45 236q43 102 137 201q88 88 199 135q104 45 235.5 45t235.5 -45q111 -47 199 -135q94 -98 137 -201q45 -109 45 -236q0 -129 -45 -233q-47 -111 -137 -201q-92 -90 -199 -137q-104 -45 -236 -45q-129 0 -233 45q-111 47 -201 137t-137 201q-45 104 -45 233 zM102 741.5q0 -106.5 39 -196.5q41 -94 113 -166q78 -78 166 -115t196 -37t197 37q88 37 166 115q76 76 113 166q39 94 38 196q0 98 -38 197q-37 92 -113 168t-166 113q-89 37 -196.5 36.5t-196.5 -36.5q-90 -37 -166 -113q-70 -70 -113 -168q-39 -90 -39 -196.5zM362 406 v694h238q150 0 219 -49q72 -49 72 -150q0 -71 -43 -117q-43 -45 -125 -61q20 -6 47 -39q41 -51 68 -92l114 -186h-143l-107 174q-51 82 -79.5 102t-75.5 20h-55v-296h-130zM492 784h102q92 0 127 27q37 29 37 90.5t-37 87.5q-35 27 -127 27h-102v-232z" />
<glyph unicode="&#xaf;" d="M440 1378l29 148h598l-29 -148h-598z" />
<glyph unicode="&#xb0;" d="M299 1200q0 135 92 227.5t225 92.5q65 0 123 -25q61 -27 103 -70q45 -45 69 -102q23 -53 23 -123q0 -131 -92 -223t-227.5 -92t-225.5 90t-90 225zM426 1200q0 -78 55.5 -133t132.5 -55q80 0 136 55q57 57 57 133q0 80 -55.5 135.5t-135.5 55.5t-135 -55.5t-55 -135.5z " />
<glyph unicode="&#xb1;" d="M88 0v170h1057v-170h-1057zM88 672v170h444v329h168v-329h445v-170h-445v-332h-168v332h-444z" />
<glyph unicode="&#xb2;" d="M307 668l21 110l170 140l32 26q313 252 314 359q0 51 -37 81.5t-100 30.5q-49 0 -111 -18q-59 -18 -145 -60l24 127q104 35 146 43q61 12 116 13q119 0 186.5 -55.5t67.5 -149.5q0 -139 -309 -381l-20 -16l-170 -136h395l-23 -114h-557z" />
<glyph unicode="&#xb3;" d="M287 694l24 121q86 -35 119 -43q53 -12 102 -12q111 0 176.5 47t65.5 123q0 68 -43 98q-45 33 -131 33h-72l21 106h72q98 0 155 39q59 41 60 105q0 51 -43 75q-47 27 -129 27q-37 0 -93 -10q-37 -6 -110 -33l22 115q63 16 131 26q55 8 117 9q121 0 186.5 -49.5 t65.5 -141.5q0 -80 -57.5 -137t-153.5 -76q72 -12 111 -57t39 -117q0 -131 -105 -211q-102 -78 -278 -78q-57 0 -129 11q-65 8 -123 30z" />
<glyph unicode="&#xb4;" d="M575 1262l332 376h219l-395 -376h-156z" />
<glyph unicode="&#xb5;" d="M-39 -426l301 1546h187l-136 -696q-8 -43 -10 -57q-2 -18 -2 -48q0 -90 55.5 -139t155.5 -49q137 0 219 82q80 80 115 254l127 653h186l-168 -862q-4 -25 -4 -31q0 -4 -1 -12t-1 -12q0 -31 12 -45q12 -16 37 -17q14 0 25 4l47 19l-29 -148q-43 -23 -78 -34 q-31 -10 -69 -11q-66 0 -107 43q-39 41 -39 115q-53 -84 -122 -121q-72 -37 -168 -37q-94 0 -154 41q-66 45 -94 125l-109 -563h-176z" />
<glyph unicode="&#xb6;" d="M125 1004q0 207 174 350q170 139 436 139h406l-328 -1690h-139l303 1567h-191l-303 -1567h-141l164 846q-176 2 -278.5 98.5t-102.5 256.5z" />
<glyph unicode="&#xb7;" d="M455 559l57 305h254l-59 -305h-252z" />
<glyph unicode="&#xb8;" d="M555 0q37 -65 55 -111q16 -41 17 -82q0 -92 -70 -147q-71 -55 -190 -55q-29 0 -91 8q-45 6 -94 22l25 129q45 -20 76 -28q41 -10 69 -10q68 0 105 30.5t37 83.5q0 31 -15 68q-10 27 -43 92h119z" />
<glyph unicode="&#xb9;" d="M348 668l21 110h206l117 611l-231 -41l22 116l238 39h137l-141 -725h205l-21 -110h-553z" />
<glyph unicode="&#xba;" d="M223 469l23 123h676l-23 -123h-676zM307 1036q0 90 33 176q35 90 88 156q59 72 141 113q78 39 172 39q154 0 238 -90q86 -92 86 -250q0 -82 -33 -176q-31 -89 -86 -154q-59 -72 -141 -113q-78 -39 -172 -39q-154 0 -240 90q-86 88 -86 248zM463 1038q0 -104 49 -166 q47 -59 137 -59q106 0 184 108.5t78 258.5q0 104 -49 166q-47 59 -137 59q-109 0 -184 -107q-78 -108 -78 -260z" />
<glyph unicode="&#xbb;" d="M82 141l43 211l350 262l-250 269l35 176l387 -418l-14 -82zM549 141l43 211l350 262l-250 269l35 176l387 -418l-14 -82z" />
<glyph unicode="&#xbc;" d="M901 565h162l-105 -540h117l-20 -111h-119l-33 -184h-139l35 184h-386l23 121zM897 416l-342 -391h266zM90 824l21 110h206l117 611l-231 -41l22 116l238 39h137l-141 -725h205l-21 -110h-553zM70 504l-23 108l1059 258l27 -108z" />
<glyph unicode="&#xbd;" d="M90 824l21 110h206l117 611l-231 -41l22 116l238 39h137l-141 -725h205l-21 -110h-553zM70 504l-23 108l1059 258l27 -108zM461 -270l21 110l170 140l32 26q313 252 314 359q0 51 -37 81.5t-100 30.5q-49 0 -111 -18q-59 -18 -145 -60l24 127q104 35 146 43q61 12 116 13 q119 0 186.5 -55.5t67.5 -149.5q0 -139 -309 -381l-20 -16l-170 -136h395l-23 -114h-557z" />
<glyph unicode="&#xbe;" d="M901 565h162l-105 -540h117l-20 -111h-119l-33 -184h-139l35 184h-386l23 121zM897 416l-342 -391h266zM60 850l24 121q86 -35 119 -43q53 -12 102 -12q111 0 176.5 47t65.5 123q0 68 -43 98q-45 33 -131 33h-72l21 106h72q98 0 155 39q59 41 60 105q0 51 -43 75 q-47 27 -129 27q-37 0 -93 -10q-37 -6 -110 -33l22 115q63 16 131 26q55 8 117 9q121 0 186.5 -49.5t65.5 -141.5q0 -80 -57.5 -137t-153.5 -76q72 -12 111 -57t39 -117q0 -131 -105 -211q-102 -78 -278 -78q-57 0 -129 11q-65 8 -123 30zM70 504l-23 108l1059 258l27 -108z " />
<glyph unicode="&#xbf;" d="M143 262q0 94 50 174q51 82 178 189l104 86q88 74 115 120q29 49 45 138l20 123h191l-29 -154q-18 -96 -57 -158q-43 -70 -152 -159l-106 -89q-80 -66 -121 -126q-35 -53 -35 -113q0 -76 55 -115q57 -41 156 -41q84 0 176 35q90 35 205 102l-37 -188q-108 -58 -209 -86 q-98 -27 -203 -27q-154 0 -250 82t-96 207zM678 1239l49 254h203l-49 -254h-203z" />
<glyph unicode="&#xc0;" d="M-106 0l745 1493h246l166 -1493h-201l-35 389h-520l-184 -389h-217zM371 551h430l-66 774zM733 1899l147 -264h-139l-190 264h182z" />
<glyph unicode="&#xc1;" d="M-106 0l745 1493h246l166 -1493h-201l-35 389h-520l-184 -389h-217zM371 551h430l-66 774zM885 1899h208l-307 -264h-160z" />
<glyph unicode="&#xc2;" d="M-106 0l745 1493h246l166 -1493h-201l-35 389h-520l-184 -389h-217zM371 551h430l-66 774zM704 1901h213l158 -266h-133l-139 178l-209 -178h-152z" />
<glyph unicode="&#xc3;" d="M-106 0l745 1493h246l166 -1493h-201l-35 389h-520l-184 -389h-217zM371 551h430l-66 774zM790 1710l-34 25l-3 2q-43 31 -79 31q-34 0 -62 -25q-25 -23 -45 -76h-125q35 109 96.5 164t147.5 55q35 0 65 -12q39 -16 66 -35l35 -26q16 -14 37 -21q18 -6 36 -6 q41 0 68 26.5t39 73.5h125q-31 -111 -94 -163q-66 -55 -156 -56q-29 0 -59 11q-21 5 -58 32z" />
<glyph unicode="&#xc4;" d="M-106 0l745 1493h246l166 -1493h-201l-35 389h-520l-184 -389h-217zM371 551h430l-66 774zM897 1870h203l-39 -203h-203zM506 1870h204l-41 -203h-202z" />
<glyph unicode="&#xc5;" d="M-106 0l706 1415q-49 33 -76 88q-27 57 -26 123q0 115 79.5 195t194.5 80t195 -80t80 -195q0 -82 -39 -145.5t-111 -94.5l154 -1386h-201l-35 389h-520l-184 -389h-217zM371 551h430l-66 774zM621 1626q0 -63 43 -106q45 -45 108 -45q61 0 106.5 45t45.5 106.5t-45 106.5 t-107 45q-66 0 -108.5 -43t-42.5 -109z" />
<glyph unicode="&#xc6;" d="M-145 0l700 1493h752l-33 -170h-338l-86 -442h307l-33 -170h-307l-106 -541h356l-33 -170h-542l75 383h-352l-176 -383h-184zM291 551h309l150 772h-103z" />
<glyph unicode="&#xc7;" d="M115 477q0 225 69 436q70 213 185 353q111 133 235 192q129 61 295 62q84 0 160 -21q80 -22 153 -61l-41 -207q-63 63 -135 94q-70 31 -151 31q-94 0 -176 -41t-152 -123q-102 -119 -168 -315q-63 -188 -63 -385q0 -170 77 -265q76 -92 226 -92q82 0 176 33q89 31 178 92 l-39 -207q-82 -39 -170 -61q-82 -20 -176 -21q-229 0 -356 133t-127 373zM655 0q37 -65 55 -111q16 -41 17 -82q0 -92 -70 -147q-71 -55 -190 -55q-29 0 -91 8q-45 6 -94 22l25 129q45 -20 76 -28q41 -10 69 -10q68 0 105 30.5t37 83.5q0 31 -15 68q-10 27 -43 92h119z" />
<glyph unicode="&#xc8;" d="M53 0l291 1493h885l-33 -170h-684l-86 -442h653l-32 -170h-654l-104 -541h702l-33 -170h-905zM778 1899l147 -264h-139l-190 264h182z" />
<glyph unicode="&#xc9;" d="M53 0l291 1493h885l-33 -170h-684l-86 -442h653l-32 -170h-654l-104 -541h702l-33 -170h-905zM930 1899h208l-307 -264h-160z" />
<glyph unicode="&#xca;" d="M53 0l291 1493h885l-33 -170h-684l-86 -442h653l-32 -170h-654l-104 -541h702l-33 -170h-905zM749 1901h213l158 -266h-133l-139 178l-209 -178h-152z" />
<glyph unicode="&#xcb;" d="M53 0l291 1493h885l-33 -170h-684l-86 -442h653l-32 -170h-654l-104 -541h702l-33 -170h-905zM942 1870h203l-39 -203h-203zM551 1870h204l-41 -203h-202z" />
<glyph unicode="&#xcc;" d="M57 0l33 170h313l224 1153h-314l33 170h830l-33 -170h-314l-223 -1153h314l-33 -170h-830zM739 1899l147 -264h-139l-190 264h182z" />
<glyph unicode="&#xcd;" d="M57 0l33 170h313l224 1153h-314l33 170h830l-33 -170h-314l-223 -1153h314l-33 -170h-830zM891 1899h208l-307 -264h-160z" />
<glyph unicode="&#xce;" d="M57 0l33 170h313l224 1153h-314l33 170h830l-33 -170h-314l-223 -1153h314l-33 -170h-830zM710 1901h213l158 -266h-133l-139 178l-209 -178h-152z" />
<glyph unicode="&#xcf;" d="M57 0l33 170h313l224 1153h-314l33 170h830l-33 -170h-314l-223 -1153h314l-33 -170h-830zM903 1870h203l-39 -203h-203zM512 1870h204l-41 -203h-202z" />
<glyph unicode="&#xd0;" d="M-8 0l137 709h-127l29 149h129l123 635h303q272 0 409 -125q135 -123 135 -375q0 -162 -43 -334q-45 -178 -112 -305q-104 -190 -260 -272t-420 -82h-303zM227 166h97q182 0 297 63q113 63 180 203q53 109 88 275q35 164 35 292q0 176 -82 252t-275 76h-114l-91 -469h267 l-29 -149h-266z" />
<glyph unicode="&#xd1;" d="M-6 0l291 1493h256l264 -1229l239 1229h195l-291 -1493h-256l-264 1229l-240 -1229h-194zM786 1710l-34 25l-3 2q-43 31 -79 31q-34 0 -62 -25q-25 -23 -45 -76h-125q35 109 96.5 164t147.5 55q35 0 65 -12q39 -16 66 -35l35 -26q16 -14 37 -21q18 -6 36 -6q41 0 68 26.5 t39 73.5h125q-31 -111 -94 -163q-66 -55 -156 -56q-29 0 -59 11q-21 5 -58 32z" />
<glyph unicode="&#xd2;" d="M82 473q0 102 22.5 237.5t63.5 264.5q25 80 63 166q37 80 72 131q90 127 197 188q104 59 254 60q201 0 299 -123t98 -377q0 -104 -23 -240q-20 -123 -65 -264q-28 -92 -62 -166q-33 -70 -73 -131q-90 -127 -197 -188q-104 -59 -254 -60q-201 0 -299 123q-96 121 -96 379z M287 414q0 -141 53 -211q53 -68 162 -68q88 0 157 51q76 55 119 146q72 141 119 350q47 211 47 397q0 139 -53 209q-51 68 -162 68q-86 0 -156 -51q-76 -55 -118 -146q-74 -141 -121 -350q-47 -207 -47 -395zM725 1899l147 -264h-139l-190 264h182z" />
<glyph unicode="&#xd3;" d="M82 473q0 102 22.5 237.5t63.5 264.5q25 80 63 166q37 80 72 131q90 127 197 188q104 59 254 60q201 0 299 -123t98 -377q0 -104 -23 -240q-20 -123 -65 -264q-28 -92 -62 -166q-33 -70 -73 -131q-90 -127 -197 -188q-104 -59 -254 -60q-201 0 -299 123q-96 121 -96 379z M287 414q0 -141 53 -211q53 -68 162 -68q88 0 157 51q76 55 119 146q72 141 119 350q47 211 47 397q0 139 -53 209q-51 68 -162 68q-86 0 -156 -51q-76 -55 -118 -146q-74 -141 -121 -350q-47 -207 -47 -395zM877 1899h208l-307 -264h-160z" />
<glyph unicode="&#xd4;" d="M82 473q0 102 22.5 237.5t63.5 264.5q25 80 63 166q37 80 72 131q90 127 197 188q104 59 254 60q201 0 299 -123t98 -377q0 -104 -23 -240q-20 -123 -65 -264q-28 -92 -62 -166q-33 -70 -73 -131q-90 -127 -197 -188q-104 -59 -254 -60q-201 0 -299 123q-96 121 -96 379z M287 414q0 -141 53 -211q53 -68 162 -68q88 0 157 51q76 55 119 146q72 141 119 350q47 211 47 397q0 139 -53 209q-51 68 -162 68q-86 0 -156 -51q-76 -55 -118 -146q-74 -141 -121 -350q-47 -207 -47 -395zM696 1901h213l158 -266h-133l-139 178l-209 -178h-152z" />
<glyph unicode="&#xd5;" d="M82 473q0 102 22.5 237.5t63.5 264.5q25 80 63 166q37 80 72 131q90 127 197 188q104 59 254 60q201 0 299 -123t98 -377q0 -104 -23 -240q-20 -123 -65 -264q-28 -92 -62 -166q-33 -70 -73 -131q-90 -127 -197 -188q-104 -59 -254 -60q-201 0 -299 123q-96 121 -96 379z M287 414q0 -141 53 -211q53 -68 162 -68q88 0 157 51q76 55 119 146q72 141 119 350q47 211 47 397q0 139 -53 209q-51 68 -162 68q-86 0 -156 -51q-76 -55 -118 -146q-74 -141 -121 -350q-47 -207 -47 -395zM782 1710l-34 25l-3 2q-43 31 -79 31q-34 0 -62 -25 q-25 -23 -45 -76h-125q35 109 96.5 164t147.5 55q35 0 65 -12q39 -16 66 -35l35 -26q16 -14 37 -21q18 -6 36 -6q41 0 68 26.5t39 73.5h125q-31 -111 -94 -163q-66 -55 -156 -56q-29 0 -59 11q-21 5 -58 32z" />
<glyph unicode="&#xd6;" d="M82 473q0 102 22.5 237.5t63.5 264.5q25 80 63 166q37 80 72 131q90 127 197 188q104 59 254 60q201 0 299 -123t98 -377q0 -104 -23 -240q-20 -123 -65 -264q-28 -92 -62 -166q-33 -70 -73 -131q-90 -127 -197 -188q-104 -59 -254 -60q-201 0 -299 123q-96 121 -96 379z M287 414q0 -141 53 -211q53 -68 162 -68q88 0 157 51q76 55 119 146q72 141 119 350q47 211 47 397q0 139 -53 209q-51 68 -162 68q-86 0 -156 -51q-76 -55 -118 -146q-74 -141 -121 -350q-47 -207 -47 -395zM889 1870h203l-39 -203h-203zM498 1870h204l-41 -203h-202z" />
<glyph unicode="&#xd7;" d="M150 293l350 348l-350 350l116 117l350 -350l351 350l116 -117l-350 -350l348 -348l-116 -119l-349 350l-348 -350z" />
<glyph unicode="&#xd8;" d="M14 -6l119 170q-29 61 -41 129q-12 72 -12 156q0 203 51 409q49 199 137 359q92 160 207 229q119 74 279 74q82 0 143 -20.5t119 -65.5l84 125l100 -64l-106 -158q27 -61 43 -133q14 -66 14 -162q0 -190 -53 -407q-51 -211 -135 -359q-90 -154 -207 -229 q-119 -76 -279 -76q-78 0 -149 23q-59 18 -121 69l-94 -133zM287 457q0 -18 2 -37q0 -6 1 -16.5t1 -14.5l614 885q-28 40 -74 61q-43 20 -102 21q-115 0 -194 -82q-78 -80 -140 -256q-55 -168 -80 -301q-28 -160 -28 -260zM322 229q23 -45 67.5 -69.5t112.5 -24.5 q113 0 192 82q82 84 142 256q51 150 77 293q27 141 27 270v45q0 6 -1 17.5t-1 17.5z" />
<glyph unicode="&#xd9;" d="M80 317q0 43 8 101q10 78 27 155l178 920h203l-179 -920q0 -4 -3 -17t-5 -24q-31 -154 -30 -213q0 -94 55 -139q53 -45 164 -45q88 0 151 29q59 27 107 90q25 37 45 106q23 82 49 213l178 920h203l-178 -920q-43 -217 -90 -321q-45 -98 -125 -166q-72 -55 -162 -86 q-86 -29 -197 -29q-188 0 -295 90q-104 90 -104 256zM737 1899l147 -264h-139l-190 264h182z" />
<glyph unicode="&#xda;" d="M80 317q0 43 8 101q10 78 27 155l178 920h203l-179 -920q0 -4 -3 -17t-5 -24q-31 -154 -30 -213q0 -94 55 -139q53 -45 164 -45q88 0 151 29q59 27 107 90q25 37 45 106q23 82 49 213l178 920h203l-178 -920q-43 -217 -90 -321q-45 -98 -125 -166q-72 -55 -162 -86 q-86 -29 -197 -29q-188 0 -295 90q-104 90 -104 256zM889 1899h208l-307 -264h-160z" />
<glyph unicode="&#xdb;" d="M80 317q0 43 8 101q10 78 27 155l178 920h203l-179 -920q0 -4 -3 -17t-5 -24q-31 -154 -30 -213q0 -94 55 -139q53 -45 164 -45q88 0 151 29q59 27 107 90q25 37 45 106q23 82 49 213l178 920h203l-178 -920q-43 -217 -90 -321q-45 -98 -125 -166q-72 -55 -162 -86 q-86 -29 -197 -29q-188 0 -295 90q-104 90 -104 256zM708 1901h213l158 -266h-133l-139 178l-209 -178h-152z" />
<glyph unicode="&#xdc;" d="M80 317q0 43 8 101q10 78 27 155l178 920h203l-179 -920q0 -4 -3 -17t-5 -24q-31 -154 -30 -213q0 -94 55 -139q53 -45 164 -45q88 0 151 29q59 27 107 90q25 37 45 106q23 82 49 213l178 920h203l-178 -920q-43 -217 -90 -321q-45 -98 -125 -166q-72 -55 -162 -86 q-86 -29 -197 -29q-188 0 -295 90q-104 90 -104 256zM901 1870h203l-39 -203h-203zM510 1870h204l-41 -203h-202z" />
<glyph unicode="&#xdd;" d="M195 1493h202l236 -651l497 651h218l-635 -823l-129 -670h-207l131 670zM891 1899h208l-307 -264h-160z" />
<glyph unicode="&#xde;" d="M51 0l291 1493l203 -2l-51 -274h241q209 0 316 -89q109 -90 108 -254q0 -236 -161.5 -372.5t-440.5 -136.5h-231l-72 -365h-203zM356 522h234q166 0 264 92.5t98 243.5q0 102 -61.5 151.5t-192.5 49.5h-237z" />
<glyph unicode="&#xdf;" d="M55 0l221 1137q43 211 162 315t322 104q175 0 270 -79q96 -80 96 -230q0 -23 -4 -67q-2 -23 -14 -72q-174 -20 -274.5 -88t-100.5 -164q0 -39 21 -68q27 -39 80 -75l51 -39q119 -90 155 -152q41 -70 41 -153q0 -184 -129 -291q-127 -106 -352 -107q-70 0 -137 13 q-70 12 -133 36l30 164q70 -37 125 -49q72 -16 138 -16q127 0 206 63q76 61 76 170q0 53 -26 92q-29 41 -113 105l-61 47q-88 68 -117 115t-29 108q0 131 103 228q100 94 278 131q4 20 4 30q0 4 1 14.5t1 14.5q0 80 -51 123q-55 45 -145 45q-123 0 -193 -68 q-72 -70 -96 -204l-219 -1133h-187z" />
<glyph unicode="&#xe0;" d="M72 276q0 195 155 314q154 117 418 117h246l12 61q2 6 2 18q0 2 1 12.5t1 16.5q0 86 -63.5 131t-179.5 45q-78 0 -184.5 -26.5t-211.5 -75.5l35 180q115 43 205 59q98 18 186 19q186 0 289 -82q104 -83 104 -227q0 -31 -6 -84q-6 -47 -18 -115l-125 -639h-184l32 166 q-72 -96 -170 -145.5t-208 -49.5q-150 0 -244 84q-92 83 -92 221zM264 307q0 -84 51 -133q53 -49 140 -49q150 0 256 106q109 109 145 291l8 41h-172q-100 0 -178 -8q-57 -6 -100 -25q-70 -29 -109 -88q-41 -63 -41 -135zM457 1638h198l197 -376h-143z" />
<glyph unicode="&#xe1;" d="M72 276q0 195 155 314q154 117 418 117h246l12 61q2 6 2 18q0 2 1 12.5t1 16.5q0 86 -63.5 131t-179.5 45q-78 0 -184.5 -26.5t-211.5 -75.5l35 180q115 43 205 59q98 18 186 19q186 0 289 -82q104 -83 104 -227q0 -31 -6 -84q-6 -47 -18 -115l-125 -639h-184l32 166 q-72 -96 -170 -145.5t-208 -49.5q-150 0 -244 84q-92 83 -92 221zM264 307q0 -84 51 -133q53 -49 140 -49q150 0 256 106q109 109 145 291l8 41h-172q-100 0 -178 -8q-57 -6 -100 -25q-70 -29 -109 -88q-41 -63 -41 -135zM579 1262l332 376h219l-395 -376h-156z" />
<glyph unicode="&#xe2;" d="M72 276q0 195 155 314q154 117 418 117h246l12 61q2 6 2 18q0 2 1 12.5t1 16.5q0 86 -63.5 131t-179.5 45q-78 0 -184.5 -26.5t-211.5 -75.5l35 180q115 43 205 59q98 18 186 19q186 0 289 -82q104 -83 104 -227q0 -31 -6 -84q-6 -47 -18 -115l-125 -639h-184l32 166 q-72 -96 -170 -145.5t-208 -49.5q-150 0 -244 84q-92 83 -92 221zM264 307q0 -84 51 -133q53 -49 140 -49q150 0 256 106q109 109 145 291l8 41h-172q-100 0 -178 -8q-57 -6 -100 -25q-70 -29 -109 -88q-41 -63 -41 -135zM401 1262l320 376h147l164 -376h-133l-117 241 l-225 -241h-156z" />
<glyph unicode="&#xe3;" d="M72 276q0 195 155 314q154 117 418 117h246l12 61q2 6 2 18q0 2 1 12.5t1 16.5q0 86 -63.5 131t-179.5 45q-78 0 -184.5 -26.5t-211.5 -75.5l35 180q115 43 205 59q98 18 186 19q186 0 289 -82q104 -83 104 -227q0 -31 -6 -84q-6 -47 -18 -115l-125 -639h-184l32 166 q-72 -96 -170 -145.5t-208 -49.5q-150 0 -244 84q-92 83 -92 221zM264 307q0 -84 51 -133q53 -49 140 -49q150 0 256 106q109 109 145 291l8 41h-172q-100 0 -178 -8q-57 -6 -100 -25q-70 -29 -109 -88q-41 -63 -41 -135zM405 1309q18 139 74 209q57 74 146 73q41 0 77 -16 q35 -14 72 -53l47 -47q22 -22 37 -31q14 -8 33 -8q41 0 65 39q23 37 33 116h125q-18 -137 -73.5 -210.5t-145.5 -73.5q-47 0 -78 14t-72 55l-47 49q-16 16 -36.5 26.5t-34.5 10.5q-41 0 -66 -37q-20 -31 -31 -116h-125z" />
<glyph unicode="&#xe4;" d="M72 276q0 195 155 314q154 117 418 117h246l12 61q2 6 2 18q0 2 1 12.5t1 16.5q0 86 -63.5 131t-179.5 45q-78 0 -184.5 -26.5t-211.5 -75.5l35 180q115 43 205 59q98 18 186 19q186 0 289 -82q104 -83 104 -227q0 -31 -6 -84q-6 -47 -18 -115l-125 -639h-184l32 166 q-72 -96 -170 -145.5t-208 -49.5q-150 0 -244 84q-92 83 -92 221zM264 307q0 -84 51 -133q53 -49 140 -49q150 0 256 106q109 109 145 291l8 41h-172q-100 0 -178 -8q-57 -6 -100 -25q-70 -29 -109 -88q-41 -63 -41 -135zM440 1350l39 202h203l-39 -202h-203zM831 1350 l39 202h203l-39 -202h-203z" />
<glyph unicode="&#xe5;" d="M72 276q0 195 155 314q154 117 418 117h246l12 61q2 6 2 18q0 2 1 12.5t1 16.5q0 86 -63.5 131t-179.5 45q-78 0 -184.5 -26.5t-211.5 -75.5l35 180q115 43 205 59q98 18 186 19q186 0 289 -82q104 -83 104 -227q0 -31 -6 -84q-6 -47 -18 -115l-125 -639h-184l32 166 q-72 -96 -170 -145.5t-208 -49.5q-150 0 -244 84q-92 83 -92 221zM264 307q0 -84 51 -133q53 -49 140 -49q150 0 256 106q109 109 145 291l8 41h-172q-100 0 -178 -8q-57 -6 -100 -25q-70 -29 -109 -88q-41 -63 -41 -135zM934 1595q0 66 -43 109t-108.5 43t-108.5 -43 t-43 -108.5t43 -108.5t108 -43q63 0 109 45q43 43 43 106zM1057 1595.5q0 -114.5 -80 -194.5t-194.5 -80t-194.5 80t-80 194.5t80 194.5t194.5 80t194.5 -80t80 -194.5z" />
<glyph unicode="&#xe6;" d="M-47 240q0 201 121 309t344 108h117l18 88l6 41q2 14 2 48q0 76 -43 118.5t-119 42.5q-45 0 -116 -22q-59 -18 -142 -62l35 168q74 31 148 51q59 16 125 17q84 0 141 -33q61 -35 90 -96q49 61 121 96q68 33 149 33q121 0 192.5 -78t71.5 -207q0 -45 -8 -102 q-10 -80 -26 -156l-17 -90h-495l-27 -145q-8 -49 -8 -84q0 -78 49 -121q51 -45 133 -45q68 0 141 28q68 27 125 80l-34 -172q-61 -43 -125 -63q-61 -20 -138 -21q-109 0 -176 41q-70 43 -94 119q-47 -82 -116.5 -121t-164.5 -39q-131 0 -204 72q-76 74 -76 197zM123 262 q0 -61 39 -100t98 -39q92 0 141.5 67.5t85.5 251.5l15 72h-49q-121 0 -177 -16q-57 -16 -88 -54q-29 -31 -47 -82q-18 -49 -18 -100zM694 657h330l16 74q4 18 9 55q2 18 2 60q0 72 -33 110.5t-94 38.5q-84 0 -136 -63q-53 -66 -77 -193z" />
<glyph unicode="&#xe7;" d="M156 416q0 145 53 293q51 141 145 241q90 96 205 148q111 49 244 49q92 0 172 -21q78 -20 162 -65l-37 -182q-65 58 -135 86q-68 27 -156 26q-104 0 -195 -45q-82 -41 -145 -133q-59 -88 -88 -188q-31 -104 -31 -209q0 -143 68 -217q66 -72 205 -72q95 0 184 31 q92 31 172 94l-39 -201q-68 -37 -156 -59q-80 -20 -174 -21q-227 0 -340 113q-114 115 -114 332zM659 0q37 -65 55 -111q16 -41 17 -82q0 -92 -70 -147q-71 -55 -190 -55q-29 0 -91 8q-45 6 -94 22l25 129q45 -20 76 -28q41 -10 69 -10q68 0 105 30.5t37 83.5q0 31 -15 68 q-10 27 -43 92h119z" />
<glyph unicode="&#xe8;" d="M98 408q0 162 60 307q63 156 166 258q82 84 184 131q98 45 209 45q186 0 297 -115q113 -117 112 -305q0 -35 -6 -84q-14 -121 -16 -129h-807l-8 -57q-4 -33 -4 -47q0 -137 77 -211q76 -74 224 -74q84 0 192 29q102 27 219 84l-36 -183q-111 -45 -205 -65 q-96 -20 -203 -21q-223 0 -340 111q-115 109 -115 326zM332 659h606l8 46q2 12 2 32q0 117 -65 187q-63 68 -181 67q-123 0 -225 -90t-145 -242zM453 1638h198l197 -376h-143z" />
<glyph unicode="&#xe9;" d="M98 408q0 162 60 307q63 156 166 258q82 84 184 131q98 45 209 45q186 0 297 -115q113 -117 112 -305q0 -35 -6 -84q-14 -121 -16 -129h-807l-8 -57q-4 -33 -4 -47q0 -137 77 -211q76 -74 224 -74q84 0 192 29q102 27 219 84l-36 -183q-111 -45 -205 -65 q-96 -20 -203 -21q-223 0 -340 111q-115 109 -115 326zM332 659h606l8 46q2 12 2 32q0 117 -65 187q-63 68 -181 67q-123 0 -225 -90t-145 -242zM575 1262l332 376h219l-395 -376h-156z" />
<glyph unicode="&#xea;" d="M98 408q0 162 60 307q63 156 166 258q82 84 184 131q98 45 209 45q186 0 297 -115q113 -117 112 -305q0 -35 -6 -84q-14 -121 -16 -129h-807l-8 -57q-4 -33 -4 -47q0 -137 77 -211q76 -74 224 -74q84 0 192 29q102 27 219 84l-36 -183q-111 -45 -205 -65 q-96 -20 -203 -21q-223 0 -340 111q-115 109 -115 326zM332 659h606l8 46q2 12 2 32q0 117 -65 187q-63 68 -181 67q-123 0 -225 -90t-145 -242zM397 1262l320 376h147l164 -376h-133l-117 241l-225 -241h-156z" />
<glyph unicode="&#xeb;" d="M98 408q0 162 60 307q63 156 166 258q82 84 184 131q98 45 209 45q186 0 297 -115q113 -117 112 -305q0 -35 -6 -84q-14 -121 -16 -129h-807l-8 -57q-4 -33 -4 -47q0 -137 77 -211q76 -74 224 -74q84 0 192 29q102 27 219 84l-36 -183q-111 -45 -205 -65 q-96 -20 -203 -21q-223 0 -340 111q-115 109 -115 326zM332 659h606l8 46q2 12 2 32q0 117 -65 187q-63 68 -181 67q-123 0 -225 -90t-145 -242zM436 1350l39 202h203l-39 -202h-203zM827 1350l39 202h203l-39 -202h-203z" />
<glyph unicode="&#xec;" d="M358 1120h471l-190 -977h365l-29 -143h-914l29 143h365l161 834h-286zM424 1638h198l197 -376h-143z" />
<glyph unicode="&#xed;" d="M358 1120h471l-190 -977h365l-29 -143h-914l29 143h365l161 834h-286zM546 1262l332 376h219l-395 -376h-156z" />
<glyph unicode="&#xee;" d="M358 1120h471l-190 -977h365l-29 -143h-914l29 143h365l161 834h-286zM368 1262l320 376h147l164 -376h-133l-117 241l-225 -241h-156z" />
<glyph unicode="&#xef;" d="M358 1120h471l-190 -977h365l-29 -143h-914l29 143h365l161 834h-286zM407 1350l39 202h203l-39 -202h-203zM798 1350l39 202h203l-39 -202h-203z" />
<glyph unicode="&#xf0;" d="M119 389q0 119 39 248q37 121 108 227q78 113 191 172q117 61 250 62q33 0 65 -4q29 -4 33 -4q-27 53 -45 81l-68 101l-297 -94l-30 92l274 86l-141 200h213l104 -145l287 88l28 -92l-260 -80q125 -176 179 -319q57 -156 57 -301q0 -137 -37 -267q-37 -127 -108 -233 q-74 -113 -191 -176q-111 -59 -254 -60q-195 0 -295 107q-102 108 -102 311zM313 379q0 -123 58 -186q59 -66 161 -66q164 0 273 160q106 158 106 418q0 59 -10 114t-27 88q-39 20 -77 29q-35 8 -84 8q-178 0 -289 -156q-111 -157 -111 -409z" />
<glyph unicode="&#xf1;" d="M84 0l219 1120h184l-32 -168q68 90 163 146q86 49 185 49q143 0 217 -72q76 -74 76 -203q0 -33 -6 -79q-10 -70 -15 -99l-135 -694h-184l135 694q0 2 4 15q14 66 14 110q0 82 -47 125t-133 43q-127 0 -217 -92q-86 -90 -121 -262l-123 -633h-184zM401 1309q18 139 74 209 q57 74 146 73q41 0 77 -16q35 -14 72 -53l47 -47q22 -22 37 -31q14 -8 33 -8q41 0 65 39q23 37 33 116h125q-18 -137 -73.5 -210.5t-145.5 -73.5q-47 0 -78 14t-72 55l-47 49q-16 16 -36.5 26.5t-34.5 10.5q-41 0 -66 -37q-20 -31 -31 -116h-125z" />
<glyph unicode="&#xf2;" d="M117 393q0 131 41 271q37 125 116 247q78 113 191 176q106 59 248 60q199 0 299 -107q102 -109 102 -313q0 -135 -41 -274q-41 -137 -115 -246q-82 -119 -192 -176q-115 -59 -260 -60q-188 0 -288.5 108.5t-100.5 313.5zM313 385q0 -127 55.5 -192.5t168.5 -65.5 q164 0 274 172q109 168 109 434q0 127 -55.5 192.5t-168.5 65.5q-164 0 -274 -172q-109 -168 -109 -434zM453 1638h198l197 -376h-143z" />
<glyph unicode="&#xf3;" d="M117 393q0 131 41 271q37 125 116 247q78 113 191 176q106 59 248 60q199 0 299 -107q102 -109 102 -313q0 -135 -41 -274q-41 -137 -115 -246q-82 -119 -192 -176q-115 -59 -260 -60q-188 0 -288.5 108.5t-100.5 313.5zM313 385q0 -127 55.5 -192.5t168.5 -65.5 q164 0 274 172q109 168 109 434q0 127 -55.5 192.5t-168.5 65.5q-164 0 -274 -172q-109 -168 -109 -434zM575 1262l332 376h219l-395 -376h-156z" />
<glyph unicode="&#xf4;" d="M117 393q0 131 41 271q37 125 116 247q78 113 191 176q106 59 248 60q199 0 299 -107q102 -109 102 -313q0 -135 -41 -274q-41 -137 -115 -246q-82 -119 -192 -176q-115 -59 -260 -60q-188 0 -288.5 108.5t-100.5 313.5zM313 385q0 -127 55.5 -192.5t168.5 -65.5 q164 0 274 172q109 168 109 434q0 127 -55.5 192.5t-168.5 65.5q-164 0 -274 -172q-109 -168 -109 -434zM397 1262l320 376h147l164 -376h-133l-117 241l-225 -241h-156z" />
<glyph unicode="&#xf5;" d="M117 393q0 131 41 271q37 125 116 247q78 113 191 176q106 59 248 60q199 0 299 -107q102 -109 102 -313q0 -135 -41 -274q-41 -137 -115 -246q-82 -119 -192 -176q-115 -59 -260 -60q-188 0 -288.5 108.5t-100.5 313.5zM313 385q0 -127 55.5 -192.5t168.5 -65.5 q164 0 274 172q109 168 109 434q0 127 -55.5 192.5t-168.5 65.5q-164 0 -274 -172q-109 -168 -109 -434zM401 1309q18 139 74 209q57 74 146 73q41 0 77 -16q35 -14 72 -53l47 -47q22 -22 37 -31q14 -8 33 -8q41 0 65 39q23 37 33 116h125q-18 -137 -73.5 -210.5 t-145.5 -73.5q-47 0 -78 14t-72 55l-47 49q-16 16 -36.5 26.5t-34.5 10.5q-41 0 -66 -37q-20 -31 -31 -116h-125z" />
<glyph unicode="&#xf6;" d="M117 393q0 131 41 271q37 125 116 247q78 113 191 176q106 59 248 60q199 0 299 -107q102 -109 102 -313q0 -135 -41 -274q-41 -137 -115 -246q-82 -119 -192 -176q-115 -59 -260 -60q-188 0 -288.5 108.5t-100.5 313.5zM313 385q0 -127 55.5 -192.5t168.5 -65.5 q164 0 274 172q109 168 109 434q0 127 -55.5 192.5t-168.5 65.5q-164 0 -274 -172q-109 -168 -109 -434zM436 1350l39 202h203l-39 -202h-203zM827 1350l39 202h203l-39 -202h-203z" />
<glyph unicode="&#xf7;" d="M88 557v170h1057v-170h-1057zM494 150v245h245v-245h-245zM494 889v246h245v-246h-245z" />
<glyph unicode="&#xf8;" d="M47 -20l129 153q-29 49 -43 113q-14 59 -14 143q0 137 41 277q39 133 114 245q76 115 193 176q113 59 258 60q76 0 137 -19q63 -18 107 -53l112 137l93 -77l-123 -146q33 -51 47 -115q16 -70 16 -147q0 -135 -41 -274q-41 -137 -115 -246q-82 -119 -192 -176 q-115 -59 -260 -60q-74 0 -135 19q-59 18 -113 55l-119 -141zM313 379q0 -8 1 -20.5t1 -18.5q0 -14 4 -39l533 637q-33 29 -68 41q-37 12 -88 12q-164 0 -274 -172q-109 -168 -109 -440zM377 186q29 -31 69 -45q37 -14 91 -14q164 0 274 172q109 168 109 434q0 35 -2 49 l-3 18q-2 17 -4 25z" />
<glyph unicode="&#xf9;" d="M125 246q0 25 4 86q2 27 14 94l133 694h185l-135 -694q-8 -49 -11 -72q-4 -45 -4 -57q0 -78 47.5 -121t130.5 -43q126 0 216 92q86 90 120 262l123 633h185l-218 -1120h-184l33 168q-74 -98 -162 -148q-86 -47 -194 -47q-129 0 -207 74q-76 74 -76 199zM449 1638h198 l197 -376h-143z" />
<glyph unicode="&#xfa;" d="M125 246q0 25 4 86q2 27 14 94l133 694h185l-135 -694q-8 -49 -11 -72q-4 -45 -4 -57q0 -78 47.5 -121t130.5 -43q126 0 216 92q86 90 120 262l123 633h185l-218 -1120h-184l33 168q-74 -98 -162 -148q-86 -47 -194 -47q-129 0 -207 74q-76 74 -76 199zM571 1262l332 376 h219l-395 -376h-156z" />
<glyph unicode="&#xfb;" d="M125 246q0 25 4 86q2 27 14 94l133 694h185l-135 -694q-8 -49 -11 -72q-4 -45 -4 -57q0 -78 47.5 -121t130.5 -43q126 0 216 92q86 90 120 262l123 633h185l-218 -1120h-184l33 168q-74 -98 -162 -148q-86 -47 -194 -47q-129 0 -207 74q-76 74 -76 199zM393 1262l320 376 h147l164 -376h-133l-117 241l-225 -241h-156z" />
<glyph unicode="&#xfc;" d="M125 246q0 25 4 86q2 27 14 94l133 694h185l-135 -694q-8 -49 -11 -72q-4 -45 -4 -57q0 -78 47.5 -121t130.5 -43q126 0 216 92q86 90 120 262l123 633h185l-218 -1120h-184l33 168q-74 -98 -162 -148q-86 -47 -194 -47q-129 0 -207 74q-76 74 -76 199zM432 1350l39 202 h203l-39 -202h-203zM823 1350l39 202h203l-39 -202h-203z" />
<glyph unicode="&#xfd;" d="M-39 -426l29 154h108q80 0 140 47q57 45 118 159l43 84l-217 1102h183l172 -862l483 862h205l-439 -760l-165 -288q-150 -268 -209 -348q-57 -74 -133 -113q-74 -37 -170 -37h-148zM575 1262l332 376h219l-395 -376h-156z" />
<glyph unicode="&#xfe;" d="M-2 -426l387 1993h184l-114 -590q63 84 147 127q86 43 186 43q162 0 250 -105q90 -106 90 -290q0 -139 -40.5 -287t-108.5 -254q-74 -117 -176.5 -178.5t-224.5 -61.5q-102 0 -170 41q-72 43 -115 129l-111 -567h-184zM354 383q0 -123 56 -190q53 -66 159 -66 q76 0 148 45q66 43 112 129q49 90 76 207q29 121 29 229q0 127 -51.5 190.5t-153.5 63.5q-88 0 -154 -45q-70 -47 -116.5 -133t-75.5 -203q-29 -118 -29 -227z" />
<glyph unicode="&#xff;" d="M-39 -426l29 154h108q80 0 140 47q57 45 118 159l43 84l-217 1102h183l172 -862l483 862h205l-439 -760l-165 -288q-150 -268 -209 -348q-57 -74 -133 -113q-74 -37 -170 -37h-148zM436 1350l39 202h203l-39 -202h-203zM827 1350l39 202h203l-39 -202h-203z" />
<glyph unicode="&#x131;" d="M358 1120h471l-190 -977h365l-29 -143h-914l29 143h365l161 834h-286z" />
<glyph unicode="&#x152;" d="M35 414q0 152 33 327q34 181 86 326q86 227 225 328q137 98 379 98h594l-33 -170h-358l-87 -442h328l-33 -170h-327l-107 -541h369l-33 -170h-604q-217 0 -326 102q-106 101 -106 312zM229 412q0 -119 61.5 -180.5t186.5 -61.5h62l225 1153h-62q-121 0 -200 -53 q-86 -57 -131 -164q-25 -53 -49 -145q-25 -89 -50 -216q-18 -88 -32 -190q-11 -69 -11 -143z" />
<glyph unicode="&#x153;" d="M-6 293q0 31 8 121q6 59 23 145q25 133 51 215q33 98 69 164q57 104 146 156q90 53 207 53q78 0 141 -35t96 -92q57 63 125 94q72 33 148 33q123 0 192 -76q72 -78 72 -209q0 -51 -8 -108q-10 -74 -25 -150l-16 -90h-502l-27 -145q-8 -49 -8 -84q0 -78 49 -121 q51 -45 133 -45q68 0 142 28q63 25 125 80l-35 -172q-61 -43 -125 -63q-61 -20 -137 -21q-92 0 -162 35t-103 98q-61 -68 -128.5 -100.5t-153.5 -32.5q-145 0 -221 82t-76 240zM168 291q0 -82 37 -125t106 -43q61 0 108.5 35t76.5 102q14 31 39 119q16 53 40 180 q12 74 27 176q10 76 10 99q0 76 -36.5 118.5t-102 42.5t-113.5 -34q-49 -37 -75 -105q-14 -33 -41 -127q-18 -61 -39 -170q-16 -74 -27 -160q-10 -81 -10 -108zM754 653h329l15 76q8 41 10 59.5t2 53.5q0 72 -33 110.5t-94 38.5q-86 0 -137 -63q-53 -66 -78 -193z" />
<glyph unicode="&#x178;" d="M195 1493h202l236 -651l497 651h218l-635 -823l-129 -670h-207l131 670zM903 1870h203l-39 -203h-203zM512 1870h204l-41 -203h-202z" />
<glyph unicode="&#x2c6;" d="M397 1262l320 376h147l164 -376h-133l-117 241l-225 -241h-156z" />
<glyph unicode="&#x2da;" d="M930 1595q0 66 -43 109t-108.5 43t-108.5 -43t-43 -108.5t43 -108.5t108 -43q63 0 109 45q43 43 43 106zM1053 1595.5q0 -114.5 -80 -194.5t-194.5 -80t-194.5 80t-80 194.5t80 194.5t194.5 80t194.5 -80t80 -194.5z" />
<glyph unicode="&#x2dc;" d="M401 1309q18 139 74 209q57 74 146 73q41 0 77 -16q35 -14 72 -53l47 -47q22 -22 37 -31q14 -8 33 -8q41 0 65 39q23 37 33 116h125q-18 -137 -73.5 -210.5t-145.5 -73.5q-47 0 -78 14t-72 55l-47 49q-16 16 -36.5 26.5t-34.5 10.5q-41 0 -66 -37q-20 -31 -31 -116h-125z " />
<glyph unicode="&#x327;" d="M555 0q37 -65 55 -111q16 -41 17 -82q0 -92 -70 -147q-71 -55 -190 -55q-29 0 -91 8q-45 6 -94 22l25 129q45 -20 76 -28q41 -10 69 -10q68 0 105 30.5t37 83.5q0 31 -15 68q-10 27 -43 92h119z" />
<glyph unicode="&#x2000;" horiz-adv-x="948" />
<glyph unicode="&#x2001;" horiz-adv-x="1900" />
<glyph unicode="&#x2002;" horiz-adv-x="948" />
<glyph unicode="&#x2003;" horiz-adv-x="1900" />
<glyph unicode="&#x2004;" horiz-adv-x="632" />
<glyph unicode="&#x2005;" horiz-adv-x="473" />
<glyph unicode="&#x2006;" horiz-adv-x="315" />
<glyph unicode="&#x2007;" horiz-adv-x="315" />
<glyph unicode="&#x2008;" horiz-adv-x="235" />
<glyph unicode="&#x2009;" horiz-adv-x="378" />
<glyph unicode="&#x200a;" horiz-adv-x="104" />
<glyph unicode="&#x2010;" d="M303 479l33 164h522l-33 -164h-522z" />
<glyph unicode="&#x2011;" d="M303 479l33 164h522l-33 -164h-522z" />
<glyph unicode="&#x2012;" d="M303 479l33 164h522l-33 -164h-522z" />
<glyph unicode="&#x2013;" d="M-51 492l28 141h1233l-28 -141h-1233z" />
<glyph unicode="&#x2014;" d="M-51 492l28 141h1233l-28 -141h-1233z" />
<glyph unicode="&#x2018;" d="M463 967l41 207l270 382h154l-172 -382l-41 -207h-252z" />
<glyph unicode="&#x2019;" d="M463 967l172 383l41 206h252l-41 -206l-271 -383h-153z" />
<glyph unicode="&#x201a;" d="M203 -287l172 383l41 207h252l-41 -207l-271 -383h-153z" />
<glyph unicode="&#x201c;" d="M246 967l39 207l272 382h154l-174 -382l-39 -207h-252zM705 967l38 207l273 382h153l-172 -382l-41 -207h-251z" />
<glyph unicode="&#x201d;" d="M221 967l172 383l41 206h252l-41 -206l-270 -383h-154zM680 967l172 383l41 206h252l-41 -206l-270 -383h-154z" />
<glyph unicode="&#x201e;" d="M-16 -287l172 383l41 207h252l-39 -207l-273 -383h-153zM442 -287l172 383l41 207h252l-39 -207l-272 -383h-154z" />
<glyph unicode="&#x2022;" d="M319 762q0 123 86.5 209t211 86t210.5 -86t86 -209t-88 -211q-86 -86 -211 -86q-123 0 -209 86t-86 211z" />
<glyph unicode="&#x2026;" d="M-66 0l60 303h252l-60 -303h-252zM344 0l59 303h252l-59 -303h-252zM754 0l59 303h252l-59 -303h-252z" />
<glyph unicode="&#x202f;" horiz-adv-x="378" />
<glyph unicode="&#x2039;" d="M309 559l17 82l551 418l-43 -211l-351 -264l248 -267l-33 -176z" />
<glyph unicode="&#x203a;" d="M317 141l43 211l351 262l-250 269l35 176l387 -418l-17 -82z" />
<glyph unicode="&#x205f;" horiz-adv-x="473" />
<glyph unicode="&#x2074;" d="M764 1503h162l-105 -540h117l-20 -111h-119l-33 -184h-139l35 184h-386l23 121zM760 1354l-342 -391h266z" />
<glyph unicode="&#x20ac;" d="M-10 543l49 110h133q16 98 16 103l19 84h-158l49 108h140q92 281 260 428q164 143 397 144q76 0 149 -21q77 -22 148 -61l-39 -207q-68 61 -135 94q-63 31 -137 31q-139 0 -250 -104.5t-182 -303.5h473l-50 -108h-456q-10 -33 -21 -88q-9 -46 -18 -99h411l-47 -110h-376 v-54q0 -170 73.5 -262t206.5 -92q70 0 162 33q82 29 170 92l-39 -207q-68 -37 -160 -61q-76 -20 -166 -21q-223 0 -336 135q-115 137 -114 392v45h-172z" />
<glyph unicode="&#x2122;" d="M0 1399v94h438v-94h-162v-484h-114v484h-162zM522 915v578h170l137 -256l125 256h172v-578h-114v482l-156 -301h-55l-166 301v-482h-113z" />
<glyph unicode="&#xe000;" horiz-adv-x="1120" d="M0 1120h1120v-1120h-1120v1120z" />
<glyph unicode="&#xfb01;" d="M98 977l29 143h199l16 78q35 188 135 275q96 84 283 83h192l-30 -153h-181q-100 0 -143 -41q-47 -43 -68 -143l-20 -99h661l-219 -1120h-184l190 977h-475l-190 -977h-184l190 977h-201zM1026 1323l45 233h184l-45 -233h-184z" />
<glyph unicode="&#xfb02;" d="M98 977l29 143h199l16 78q35 188 135 275q96 84 283 83h495l-303 -1556h-184l274 1403h-301q-100 0 -143 -41q-47 -43 -68 -143l-20 -99h297l-29 -143h-295l-190 -977h-184l190 977h-201z" />
<glyph unicode="&#xfb03;" horiz-adv-x="3698" d="M2527 0l29 143h365l161 834h-286l28 143h471l-190 -977h365l-29 -143h-914zM3150 1323l45 233h184l-45 -233h-184zM1497 977l29 143h297l16 78q35 188 135 275q96 84 283 83h221l-31 -153h-208q-96 0 -144 -41q-45 -41 -67 -143l-21 -99h385l-26 -143h-385l-191 -977 h-184l190 977h-299zM264 977l29 143h297l16 78q35 188 135 275q96 84 283 83h221l-31 -153h-208q-96 0 -144 -41q-45 -41 -67 -143l-21 -99h385l-26 -143h-385l-191 -977h-184l190 977h-299z" />
<glyph unicode="&#xfb04;" horiz-adv-x="3698" d="M2777 1423l29 144h500l-240 -1159l-10 -62q-4 -37 -4 -45q0 -70 45 -108q43 -37 135 -37h211l-31 -156h-207q-174 0 -258 63.5t-84 194.5q0 41 4 68q10 61 15 86l211 1011h-316zM1497 977l29 143h297l16 78q35 188 135 275q96 84 283 83h221l-31 -153h-208 q-96 0 -144 -41q-45 -41 -67 -143l-21 -99h385l-26 -143h-385l-191 -977h-184l190 977h-299zM264 977l29 143h297l16 78q35 188 135 275q96 84 283 83h221l-31 -153h-208q-96 0 -144 -41q-45 -41 -67 -143l-21 -99h385l-26 -143h-385l-191 -977h-184l190 977h-299z" />
<glyph d="M846 1497h203l-39 -203h-203zM455 1497h204l-41 -203h-202z" />
<glyph d="M834 1526h208l-307 -264h-160z" />
<glyph d="M739 1337l-34 25l-3 2q-43 31 -79 31q-34 0 -62 -25q-25 -23 -45 -76h-125q35 109 96.5 164t147.5 55q35 0 65 -12q39 -16 66 -35l35 -26q16 -14 37 -21q18 -6 36 -6q41 0 68 26.5t39 73.5h125q-31 -111 -94 -163q-66 -55 -156 -56q-29 0 -59 11q-21 5 -58 32z" />
<glyph d="M682 1526l147 -264h-139l-190 264h182z" />
<glyph d="M653 1528h213l158 -266h-133l-139 178l-209 -178h-152z" />
<glyph d="M70 504l-23 108l1059 258l27 -108z" />
</font>
</defs>
</svg>
