<?xml version="1.0" standalone="no"?>
<!DOCTYPE svg PUBLIC "-//W3C//DTD SVG 1.1//EN" "http://www.w3.org/Graphics/SVG/1.1/DTD/svg11.dtd" >
<svg xmlns="http://www.w3.org/2000/svg">
<metadata>
This is a custom SVG webfont generated by Font Squirrel.
Copyright   : Copyright c 2003 by Bitstream Inc All Rights ReservedCopyright c 2006 by Tavmjong Bah All Rights ReservedDejaVu changes are in public domain
Foundry     : DejaVu fonts team
Foundry URL : httpdejavusourceforgenet
</metadata>
<defs>
<font id="DejaVuSansOblique" horiz-adv-x="1303" >
<font-face units-per-em="2048" ascent="1556" descent="-492" />
<missing-glyph horiz-adv-x="651" />
<glyph unicode=" "  horiz-adv-x="651" />
<glyph unicode="&#x09;" horiz-adv-x="651" />
<glyph unicode="&#xa0;" horiz-adv-x="651" />
<glyph unicode="!" horiz-adv-x="821" d="M162 0l51 254h203l-49 -254h-205zM276 481l50 357l127 655h202l-127 -655l-90 -357h-162z" />
<glyph unicode="&#x22;" horiz-adv-x="942" d="M197 938v555h170v-555h-170zM575 938v555h170v-555h-170z" />
<glyph unicode="#" horiz-adv-x="1716" d="M143 414l37 153h330l84 334h-336l39 154h336l102 415h162l-104 -415h292l105 415h160l-103 -415h336l-39 -154h-336l-82 -334h340l-36 -153h-343l-104 -414h-160l103 414h-293l-103 -414h-161l104 414h-330zM672 567h293l82 334h-291z" />
<glyph unicode="$" d="M68 92l34 184q92 -62 192 -96t206 -38l88 456q-189 36 -275 110.5t-86 200.5q0 166 137.5 281t362.5 133l47 233h100l-44 -233q90 -3 175.5 -18.5t161.5 -42.5l-34 -181q-86 46 -169.5 71t-162.5 27l-84 -427q184 -29 280.5 -115t96.5 -221q0 -175 -143 -289.5 t-380 -126.5l-59 -301h-100l59 301q-116 3 -218 26.5t-185 65.5zM418 938q0 -70 47.5 -109.5t155.5 -58.5l79 410q-132 -14 -207 -78t-75 -164zM600 145q139 6 220 70.5t81 167.5q0 84 -51 130t-166 65z" />
<glyph unicode="%" horiz-adv-x="1946" d="M186 1036q0 216 116 350t302 134q136 0 215.5 -89.5t79.5 -242.5q0 -214 -116 -347.5t-302 -133.5q-136 0 -215.5 88.5t-79.5 240.5zM289 -29l1235 1549h159l-1234 -1549h-160zM346 1026q0 -92 40.5 -142t115.5 -50q107 0 172 95t65 253q0 105 -39 158t-116 53 q-112 0 -175 -97t-63 -270zM1049 301q0 216 115.5 349.5t301.5 133.5q136 0 214.5 -88t78.5 -241q0 -215 -115.5 -349.5t-300.5 -134.5q-136 0 -215 89t-79 241zM1208 291q0 -93 40.5 -143t115.5 -50q107 0 171 95t64 253q0 107 -38 160t-115 53q-111 0 -174.5 -97.5 t-63.5 -270.5z" />
<glyph unicode="&#x26;" horiz-adv-x="1597" d="M96 369q0 154 92.5 291t274.5 253q-31 46 -45.5 93.5t-14.5 101.5q0 68 23 129t66 111q69 82 173 127t224 45q78 0 157 -18t160 -54l-35 -182q-75 47 -149.5 71.5t-144.5 24.5q-124 0 -201.5 -64.5t-77.5 -164.5q0 -44 19 -87t88 -131l407 -520q75 79 128 181.5t81 224.5 h186q-45 -159 -118.5 -291t-176.5 -240l209 -270h-252l-106 139q-106 -83 -228 -125.5t-255 -42.5q-221 0 -352.5 109t-131.5 289zM295 414q0 -127 85.5 -204t227.5 -77q94 0 185.5 32.5t173.5 94.5l-426 543q-121 -88 -183.5 -187t-62.5 -202z" />
<glyph unicode="'" horiz-adv-x="563" d="M197 938v555h170v-555h-170z" />
<glyph unicode="(" horiz-adv-x="799" d="M158 383q0 297 137.5 588.5t415.5 582.5h163q-265 -331 -395.5 -628.5t-130.5 -573.5q0 -158 38 -313.5t114 -308.5h-160q-92 172 -137 334.5t-45 318.5z" />
<glyph unicode=")" horiz-adv-x="799" d="M-127 -270q266 331 396 628.5t130 573.5q0 158 -37.5 313.5t-113.5 308.5h160q92 -173 137 -334t45 -317q0 -298 -138.5 -591.5t-414.5 -581.5h-164z" />
<glyph unicode="*" horiz-adv-x="1024" d="M61 858l359 195l-359 194l58 99l336 -203v377h114v-377l336 203l58 -99l-359 -194l359 -195l-58 -98l-336 203v-377h-114v377l-336 -203z" />
<glyph unicode="+" horiz-adv-x="1716" d="M217 557v170h557v557h168v-557h557v-170h-557v-557h-168v557h-557z" />
<glyph unicode="," horiz-adv-x="651" d="M6 -238l144 320l34 172h211l-33 -172l-227 -320h-129z" />
<glyph unicode="-" horiz-adv-x="739" d="M92 479l33 164h539l-31 -164h-541z" />
<glyph unicode="." horiz-adv-x="651" d="M119 0l49 254h211l-49 -254h-211z" />
<glyph unicode="/" horiz-adv-x="690" d="M-150 -190l846 1683h178l-847 -1683h-177z" />
<glyph unicode="0" d="M102 494q0 190 51.5 380.5t143.5 339.5q92 150 215.5 228t269.5 78q203 0 310.5 -135t107.5 -388q0 -192 -50.5 -381.5t-141.5 -339.5q-93 -150 -218.5 -227.5t-277.5 -77.5q-196 0 -303 136t-107 387zM301 465q0 -165 58.5 -249.5t172.5 -84.5q80 0 148 40.5t123 119.5 q91 131 144.5 328.5t53.5 406.5q0 165 -58.5 249.5t-172.5 84.5q-76 0 -144.5 -40.5t-123.5 -119.5q-92 -132 -146.5 -329.5t-54.5 -405.5z" />
<glyph unicode="1" d="M100 0l33 170h330l223 1149l-373 -72l35 174l371 72h203l-258 -1323h329l-32 -170h-861z" />
<glyph unicode="2" d="M8 0l33 170l674 578q135 117 191.5 205.5t56.5 181.5q0 97 -68 158t-178 61q-95 0 -211 -34t-248 -99l37 200q124 49 237 74t209 25q196 0 315.5 -104t119.5 -273q0 -114 -57 -217.5t-175 -204.5l-645 -553h713l-35 -168h-969z" />
<glyph unicode="3" d="M4 45l37 191q94 -52 189.5 -77.5t195.5 -25.5q197 0 319.5 101.5t122.5 263.5q0 104 -78 160.5t-223 56.5h-174l31 164h184q166 0 261.5 76t95.5 206q0 94 -70 145.5t-197 51.5q-96 0 -196.5 -20.5t-208.5 -61.5l31 180q110 32 213.5 48t203.5 16q198 0 314 -88t116 -236 q0 -145 -91.5 -249t-252.5 -142q126 -36 185 -112t59 -201q0 -120 -57.5 -225t-165.5 -181q-82 -58 -196 -86.5t-263 -28.5q-94 0 -190 18.5t-195 55.5z" />
<glyph unicode="4" d="M37 352l39 195l805 946h254l-191 -973h213l-33 -168h-213l-67 -352h-201l68 352h-674zM233 520h510l156 797z" />
<glyph unicode="5" d="M41 35l37 188q92 -45 184.5 -67.5t186.5 -22.5q195 0 322.5 117t127.5 293q0 130 -83.5 202t-233.5 72q-79 0 -164.5 -18.5t-175.5 -55.5l145 750h803l-31 -168h-618l-72 -369q46 15 93.5 22t96.5 7q207 0 327 -111t120 -301q0 -133 -61.5 -255t-174.5 -214 q-80 -64 -195.5 -98.5t-252.5 -34.5q-90 0 -184 16t-197 48z" />
<glyph unicode="6" d="M129 461q0 212 54.5 408.5t152.5 340.5q103 152 249.5 231t323.5 79q78 0 154 -15.5t149 -46.5l-34 -184q-58 38 -133 58t-160 20q-207 0 -332.5 -130t-187.5 -407q73 85 169.5 128.5t208.5 43.5q183 0 291.5 -105.5t108.5 -283.5q0 -146 -53.5 -271.5t-155.5 -220.5 q-70 -65 -163 -100t-198 -35q-206 0 -325 131t-119 359zM332 412q0 -132 64.5 -206.5t178.5 -74.5q156 0 260.5 122.5t104.5 299.5q0 127 -65 200.5t-177 73.5q-155 0 -260.5 -119.5t-105.5 -295.5z" />
<glyph unicode="7" d="M190 0l807 1323h-768l33 170h1022l-18 -86l-854 -1407h-222z" />
<glyph unicode="8" d="M68 358q0 160 109 284.5t284 158.5q-105 36 -160 111.5t-55 183.5q0 181 150.5 302.5t381.5 121.5q193 0 314.5 -98.5t121.5 -250.5q0 -132 -90.5 -235.5t-246.5 -149.5q113 -43 173 -130t60 -210q0 -207 -160 -341t-413 -134q-215 0 -342 105.5t-127 281.5zM266 379 q0 -114 77.5 -181t209.5 -67q157 0 257.5 91t100.5 231q0 113 -79 184.5t-207 71.5q-156 0 -257.5 -93.5t-101.5 -236.5zM444 1090q0 -100 69.5 -161t184.5 -61q138 0 227 79.5t89 201.5q0 95 -70 153t-186 58q-137 0 -225.5 -77t-88.5 -193z" />
<glyph unicode="9" d="M90 33l37 184q58 -38 132 -58t159 -20q207 0 333.5 131t188.5 408q-74 -85 -171.5 -129.5t-209.5 -44.5q-182 0 -289.5 105.5t-107.5 283.5q0 146 53 271.5t156 219.5q70 66 162 101t196 35q207 0 327 -131.5t120 -358.5q0 -211 -55.5 -408t-153.5 -341 q-104 -152 -250 -231t-324 -79q-77 0 -153.5 15.5t-149.5 46.5zM362 940q0 -127 66 -201.5t178 -74.5q155 0 260 119t105 296q0 132 -65 206.5t-179 74.5q-155 0 -260 -121.5t-105 -298.5z" />
<glyph unicode=":" horiz-adv-x="690" d="M106 0l50 254h211l-50 -254h-211zM264 805l49 254h211l-49 -254h-211z" />
<glyph unicode=";" horiz-adv-x="690" d="M2 -238l143 320l35 172h211l-35 -172l-225 -320h-129zM287 805l49 254h211l-49 -254h-211z" />
<glyph unicode="&#x3c;" horiz-adv-x="1716" d="M217 559v166l1282 465v-182l-1032 -367l1032 -365v-182z" />
<glyph unicode="=" horiz-adv-x="1716" d="M217 352v170h1282v-170h-1282zM217 762v168h1282v-168h-1282z" />
<glyph unicode="&#x3e;" horiz-adv-x="1716" d="M217 94v182l1030 365l-1030 367v182l1282 -465v-166z" />
<glyph unicode="?" horiz-adv-x="1087" d="M252 1219l37 188q102 57 203.5 85t207.5 28q161 0 254 -75t93 -204q0 -103 -53.5 -193t-174.5 -188l-104 -84q-84 -66 -112 -113t-46 -139l-25 -123h-190l31 154q18 94 57 159.5t150 157.5l106 89q84 70 118 123t34 110q0 76 -54.5 119t-150.5 43q-80 0 -178.5 -35.5 t-202.5 -101.5zM258 0l49 254h203l-49 -254h-203z" />
<glyph unicode="@" horiz-adv-x="2048" d="M119 401q0 225 104.5 435.5t292.5 363.5q139 114 319 177t369 63q321 0 531.5 -189t210.5 -473q0 -295 -203.5 -491.5t-519.5 -202.5l30 154q-69 -74 -149.5 -112t-167.5 -38q-147 0 -243.5 99t-96.5 251q0 220 148.5 384.5t347.5 164.5q92 0 164.5 -40t111.5 -111 l27 131h143l-143 -738q177 28 291 180t114 361q0 233 -165 380.5t-427 147.5q-178 0 -344 -62.5t-293 -176.5q-145 -134 -226 -310t-81 -360q0 -261 174.5 -431.5t444.5 -170.5q129 0 254 43.5t262 136.5l82 -114q-135 -102 -291.5 -154.5t-321.5 -52.5q-322 0 -535.5 214 t-213.5 541zM756 467q0 -112 57 -175t158 -63q142 0 238 114t96 280q0 102 -57.5 162.5t-153.5 60.5q-141 0 -239.5 -111.5t-98.5 -267.5z" />
<glyph unicode="A" horiz-adv-x="1401" d="M-109 0l863 1493h229l277 -1493h-211l-62 383h-672l-211 -383h-213zM408 551h548l-129 743z" />
<glyph unicode="B" horiz-adv-x="1405" d="M55 0l291 1493h516q210 0 314 -78t104 -235q0 -144 -89.5 -248.5t-234.5 -126.5q124 -28 186 -107t62 -211q0 -225 -166.5 -356t-455.5 -131h-527zM289 166h325q183 0 282 84t99 237q0 118 -65.5 172t-210.5 54h-324zM426 877h301q161 0 251.5 70t90.5 194 q0 97 -61 141.5t-195 44.5h-299z" />
<glyph unicode="C" horiz-adv-x="1430" d="M86 561q0 178 61.5 350t176.5 314q122 151 278.5 223t364.5 72q128 0 242.5 -35.5t213.5 -106.5l-41 -213q-96 97 -203.5 144t-232.5 47q-171 0 -300.5 -82t-223.5 -250q-60 -108 -91.5 -228.5t-31.5 -242.5q0 -204 105.5 -311t306.5 -107q139 0 267 44.5t249 133.5 l-47 -239q-119 -51 -240.5 -77t-243.5 -26q-287 0 -448.5 156t-161.5 434z" />
<glyph unicode="D" horiz-adv-x="1577" d="M55 0l291 1493h434q346 0 522.5 -146.5t176.5 -435.5q0 -191 -67 -367.5t-185 -297.5q-119 -124 -302 -185t-433 -61h-437zM291 166h264q339 0 525 195t186 550q0 215 -120 315.5t-376 100.5h-254z" />
<glyph unicode="E" horiz-adv-x="1294" d="M55 0l291 1493h944l-33 -170h-743l-86 -442h713l-33 -170h-713l-104 -541h760l-33 -170h-963z" />
<glyph unicode="F" horiz-adv-x="1178" d="M55 0l291 1493h856l-33 -170h-655l-86 -440h592l-33 -170h-592l-139 -713h-201z" />
<glyph unicode="G" horiz-adv-x="1587" d="M92 561q0 231 96.5 439.5t266.5 347.5q107 87 234 129.5t282 42.5q140 0 268.5 -35.5t245.5 -106.5l-41 -215q-90 94 -211 143.5t-258 49.5q-159 0 -280 -60.5t-216 -187.5q-81 -108 -127.5 -254.5t-46.5 -298.5q0 -209 107 -314.5t319 -105.5q106 0 205 22.5t182 65.5 l78 391h-332l31 166h530l-129 -657q-133 -73 -290 -112.5t-316 -39.5q-281 0 -439.5 156t-158.5 434z" />
<glyph unicode="H" horiz-adv-x="1540" d="M55 0l291 1493h203l-119 -612h733l119 612h203l-291 -1493h-203l139 711h-733l-139 -711h-203z" />
<glyph unicode="I" horiz-adv-x="604" d="M55 0l291 1493h203l-291 -1493h-203z" />
<glyph unicode="J" horiz-adv-x="604" d="M-336 -410l33 170h63q135 0 205 77t107 267l270 1389h203l-271 -1389q-53 -271 -178.5 -392.5t-351.5 -121.5h-80z" />
<glyph unicode="K" horiz-adv-x="1343" d="M55 0l291 1493h203l-123 -629l784 629h269l-887 -713l649 -780h-246l-596 727l-141 -727h-203z" />
<glyph unicode="L" horiz-adv-x="1141" d="M55 0l289 1493h203l-256 -1325h727l-33 -168h-930z" />
<glyph unicode="M" horiz-adv-x="1767" d="M55 0l291 1493h303l174 -1006l578 1006h311l-291 -1493h-196l254 1309l-586 -1022h-197l-190 1026l-254 -1313h-197z" />
<glyph unicode="N" horiz-adv-x="1532" d="M55 0l291 1493h272l412 -1280l250 1280h197l-291 -1493h-273l-411 1288l-250 -1288h-197z" />
<glyph unicode="O" horiz-adv-x="1612" d="M82 580q0 162 61.5 331t169.5 301q127 155 283 231.5t344 76.5q274 0 432 -161.5t158 -440.5q0 -172 -60 -338t-172 -301q-128 -156 -282.5 -232t-343.5 -76q-275 0 -432.5 163t-157.5 446zM297 569q0 -208 99.5 -321t281.5 -113q164 0 292.5 81.5t219.5 242.5 q61 108 93 226.5t32 236.5q0 207 -100 320.5t-281 113.5q-166 0 -293 -80.5t-221 -245.5q-60 -105 -91.5 -223t-31.5 -238z" />
<glyph unicode="P" horiz-adv-x="1235" d="M55 0l291 1493h467q204 0 311 -95t107 -278q0 -246 -158 -383t-444 -137h-254l-117 -600h-203zM408 766h254q172 0 264 88t92 252q0 105 -62.5 163t-175.5 58h-264z" />
<glyph unicode="Q" horiz-adv-x="1612" d="M84 575q0 167 60.5 335t168.5 302q125 154 281.5 231t345.5 77q274 0 432 -161.5t158 -440.5q0 -301 -165 -551t-431 -353l203 -278h-226l-172 237q-11 -1 -23 -1.5t-36 -0.5q-280 0 -438 160.5t-158 443.5zM297 569q0 -208 99.5 -321t281.5 -113q164 0 292.5 81.5 t219.5 242.5q61 108 93 226.5t32 236.5q0 207 -100 320.5t-281 113.5q-166 0 -293 -80.5t-221 -245.5q-60 -105 -91.5 -223t-31.5 -238z" />
<glyph unicode="R" horiz-adv-x="1423" d="M55 0l291 1493h455q207 0 317.5 -93.5t110.5 -269.5q0 -156 -94 -270t-248 -143q64 -15 106.5 -74t98.5 -235l127 -408h-213l-117 383q-45 148 -104 198t-181 50h-223l-123 -631h-203zM414 797h260q153 0 247.5 84.5t94.5 220.5q0 109 -63.5 167t-182.5 58h-254z" />
<glyph unicode="S" horiz-adv-x="1300" d="M12 66l41 208q111 -69 222.5 -104t222.5 -35q189 0 303 84t114 219q0 90 -45.5 136.5t-195.5 84.5l-121 31q-207 54 -282.5 124.5t-75.5 197.5q0 223 171.5 365.5t446.5 142.5q107 0 212 -19t210 -57l-39 -197q-101 54 -200.5 81.5t-192.5 27.5q-181 0 -288 -79 t-107 -210q0 -72 39.5 -110.5t203.5 -82.5l121 -30q205 -53 285 -134.5t80 -228.5q0 -226 -177.5 -368t-467.5 -142q-119 0 -239 23.5t-241 71.5z" />
<glyph unicode="T" horiz-adv-x="1251" d="M88 1323l33 170h1263l-32 -170h-533l-256 -1323h-203l256 1323h-528z" />
<glyph unicode="U" horiz-adv-x="1499" d="M119 389q0 35 5 78.5t15 93.5l178 932h203l-176 -907q-11 -61 -15.5 -100.5t-4.5 -69.5q0 -138 77 -209.5t226 -71.5q193 0 300.5 106t153.5 345l176 907h203l-180 -932q-59 -302 -224 -446t-452 -144q-224 0 -354.5 112.5t-130.5 305.5z" />
<glyph unicode="V" horiz-adv-x="1401" d="M160 1493h198l217 -1284l725 1284h220l-863 -1493h-235z" />
<glyph unicode="W" horiz-adv-x="2025" d="M197 1493h196l72 -1270l563 1270h225l74 -1270l557 1270h205l-664 -1493h-254l-69 1245l-559 -1245h-254z" />
<glyph unicode="X" horiz-adv-x="1403" d="M-88 0l698 803l-329 690h204l256 -539l463 539h236l-615 -713l371 -780h-203l-301 629l-545 -629h-235z" />
<glyph unicode="Y" horiz-adv-x="1251" d="M129 1493h217l279 -614l532 614h227l-677 -782l-138 -711h-202l137 711z" />
<glyph unicode="Z" horiz-adv-x="1403" d="M-45 0l29 154l1157 1169h-905l32 170h1172l-29 -154l-1157 -1169h952l-32 -170h-1219z" />
<glyph unicode="[" horiz-adv-x="799" d="M82 -270l354 1826h424l-29 -143h-239l-299 -1540h239l-26 -143h-424z" />
<glyph unicode="\" horiz-adv-x="690" d="M174 1493h170l193 -1683h-168z" />
<glyph unicode="]" horiz-adv-x="799" d="M-78 -270l27 143h239l299 1540h-237l26 143h424l-354 -1826h-424z" />
<glyph unicode="^" horiz-adv-x="1716" d="M217 936l543 557h196l543 -557h-201l-440 395l-440 -395h-201z" />
<glyph unicode="_" horiz-adv-x="1024" d="M-20 -340h1064v-143h-1064v143z" />
<glyph unicode="`" horiz-adv-x="1024" d="M389 1638h197l209 -374h-154z" />
<glyph unicode="a" horiz-adv-x="1255" d="M84 283q0 196 156.5 310t431.5 114h256l10 49q2 8 3 17.5t1 29.5q0 89 -72.5 138.5t-203.5 49.5q-90 0 -184.5 -23t-194.5 -69l32 170q104 39 203.5 58.5t192.5 19.5q198 0 301.5 -86t103.5 -250q0 -33 -5 -77.5t-15 -94.5l-125 -639h-184l34 170q-81 -100 -184.5 -149.5 t-230.5 -49.5q-143 0 -234.5 87.5t-91.5 224.5zM274 315q0 -88 55.5 -138t153.5 -50q150 0 262 107.5t148 287.5l8 41h-184q-226 0 -334.5 -60.5t-108.5 -187.5z" />
<glyph unicode="b" horiz-adv-x="1300" d="M74 0l303 1556h184l-119 -606q68 92 170.5 144.5t214.5 52.5q172 0 273.5 -116t101.5 -314q0 -162 -59.5 -314t-169.5 -270q-72 -78 -166 -120t-197 -42q-109 0 -189 50t-130 149l-33 -170h-184zM350 420q0 -138 65.5 -216.5t180.5 -78.5q87 0 161 40.5t130 119.5 q57 82 92 191t35 208q0 145 -66.5 227t-183.5 82q-85 0 -159.5 -41.5t-129.5 -120.5q-58 -83 -91.5 -192.5t-33.5 -218.5z" />
<glyph unicode="c" horiz-adv-x="1126" d="M94 401q0 174 62.5 320.5t185.5 263.5q84 80 197 121t247 41q78 0 155 -17.5t157 -52.5l-37 -182q-66 48 -140.5 72t-154.5 24q-88 0 -167.5 -31t-133.5 -88q-86 -87 -133 -204t-47 -242q0 -151 75.5 -225t229.5 -74q76 0 161.5 23t178.5 69l-35 -182 q-80 -33 -164.5 -49.5t-173.5 -16.5q-223 0 -343 111.5t-120 318.5z" />
<glyph unicode="d" horiz-adv-x="1300" d="M94 399q0 166 59 316.5t171 269.5q74 79 167 120.5t195 41.5q108 0 190.5 -52t127.5 -149l120 610h185l-303 -1556h-185l35 168q-74 -97 -175 -147t-224 -50q-168 0 -265.5 114.5t-97.5 313.5zM285 432q0 -145 65.5 -226t181.5 -81q86 0 159.5 41.5t129.5 122.5 q59 84 93 194t34 217q0 139 -65.5 217t-180.5 78q-87 0 -162 -41t-128 -118q-58 -83 -92.5 -193t-34.5 -211z" />
<glyph unicode="e" horiz-adv-x="1260" d="M94 399q0 175 62.5 325.5t183.5 268.5q78 74 185.5 114t228.5 40q190 0 302.5 -114t112.5 -306q0 -46 -6 -98.5t-18 -112.5h-856q-6 -38 -8 -60t-2 -38q0 -139 85.5 -215t241.5 -76q120 0 227 27t199 79l-35 -182q-99 -40 -204.5 -60t-214.5 -20q-233 0 -358.5 111.5 t-125.5 316.5zM324 659l661 1q3 16 4.5 33t1.5 34q0 122 -71.5 193t-194.5 71q-137 0 -242 -86.5t-159 -245.5z" />
<glyph unicode="f" horiz-adv-x="721" d="M139 0l191 977h-176l26 143h176l15 78q38 198 133.5 278t300.5 80h174l-29 -153h-176q-100 0 -145.5 -39.5t-67.5 -144.5l-20 -99h303l-27 -143h-303l-190 -977h-185z" />
<glyph unicode="g" horiz-adv-x="1300" d="M66 -367l34 179q68 -44 144 -65t162 -21q175 0 287.5 95.5t148.5 274.5l16 84q-77 -88 -179 -134t-220 -46q-170 0 -267.5 112.5t-97.5 309.5q0 155 59 303.5t166 263.5q71 76 165.5 117t197.5 41q113 0 197 -52.5t125 -148.5l32 174h185l-191 -981q-55 -285 -210.5 -425 t-418.5 -140q-97 0 -180 14.5t-155 44.5zM285 440q0 -138 64.5 -212t185.5 -74q175 0 292 158.5t117 396.5q0 136 -64 210t-182 74q-73 0 -139 -29t-113 -81q-76 -86 -118.5 -202.5t-42.5 -240.5z" />
<glyph unicode="h" horiz-adv-x="1298" d="M72 0l303 1556h184l-119 -612q70 94 179 148.5t229 54.5q148 0 229.5 -80t81.5 -225q0 -36 -4.5 -77t-13.5 -89l-131 -676h-185l131 669q9 47 14 83t5 57q0 84 -53 131t-148 47q-148 0 -256.5 -100t-140.5 -266l-121 -621h-184z" />
<glyph unicode="i" horiz-adv-x="569" d="M72 0l219 1120h184l-219 -1120h-184zM330 1323l45 233h184l-45 -233h-184z" />
<glyph unicode="j" horiz-adv-x="569" d="M-231 -426l30 156h47q108 0 153.5 45t76.5 205l221 1140h184l-221 -1140l-1 -5q-37 -191 -85 -262q-45 -67 -131.5 -103t-204.5 -36h-69zM338 1323l45 233h184l-45 -233h-184z" />
<glyph unicode="k" horiz-adv-x="1186" d="M72 0l303 1556h184l-176 -907l631 471h239l-704 -536l514 -584h-223l-478 547l-106 -547h-184z" />
<glyph unicode="l" horiz-adv-x="569" d="M72 0l303 1556h184l-303 -1556h-184z" />
<glyph unicode="m" horiz-adv-x="1995" d="M72 0l219 1120h184l-35 -174q75 98 175.5 149.5t215.5 51.5q122 0 200.5 -64t94.5 -178q84 118 194.5 180t233.5 62q144 0 222.5 -83t78.5 -235q0 -33 -4 -72.5t-12 -80.5l-131 -676h-184l129 670q8 43 12 74t4 53q0 90 -50 140t-140 50q-134 0 -239 -100.5t-136 -261.5 l-123 -625h-184l131 670q8 37 12 68.5t4 56.5q0 91 -50 141.5t-138 50.5q-136 0 -241 -100.5t-136 -261.5l-123 -625h-184z" />
<glyph unicode="n" horiz-adv-x="1298" d="M72 0l217 1120h184l-37 -176q77 97 185 150t227 53q148 0 229.5 -80t81.5 -225q0 -36 -4.5 -77t-13.5 -89l-131 -676h-185l131 669q9 47 14 83t5 57q0 84 -53 131t-148 47q-148 0 -255 -98.5t-140 -267.5l-123 -621h-184z" />
<glyph unicode="o" horiz-adv-x="1253" d="M94 424q0 122 39.5 248.5t102.5 212.5q99 134 221 198t276 64q191 0 308.5 -119t117.5 -311q0 -133 -39 -265t-102 -219q-98 -134 -220 -198t-278 -64q-197 0 -311.5 121.5t-114.5 331.5zM285 430q0 -152 63.5 -227.5t192.5 -75.5q185 0 306.5 161.5t121.5 409.5 q0 145 -65 219t-191 74q-104 0 -185 -48.5t-145 -147.5q-47 -74 -72.5 -169t-25.5 -196z" />
<glyph unicode="p" horiz-adv-x="1300" d="M-6 -426l301 1546h184l-33 -170q74 97 174.5 147t223.5 50q172 0 267 -112.5t95 -315.5q0 -166 -59 -316.5t-170 -269.5q-74 -79 -167 -120.5t-196 -41.5q-119 0 -200 49.5t-121 147.5l-115 -594h-184zM354 416q0 -140 64 -215.5t182 -75.5q87 0 161.5 41t127.5 119 q57 82 92 193t35 212q0 147 -64 225t-184 78q-82 0 -156.5 -42t-132.5 -122q-57 -79 -91 -191t-34 -222z" />
<glyph unicode="q" horiz-adv-x="1300" d="M94 401q0 162 59.5 313t170.5 271q72 78 165.5 120t196.5 42q124 0 204 -49t116 -148l32 168h185l-299 -1540h-185l115 590q-74 -97 -174.5 -147t-222.5 -50q-170 0 -266.5 114.5t-96.5 315.5zM285 428q0 -148 62 -225.5t179 -77.5q174 0 297 166.5t123 404.5 q0 144 -63.5 220.5t-182.5 76.5q-87 0 -161 -40.5t-129 -118.5q-58 -82 -91.5 -192t-33.5 -214z" />
<glyph unicode="r" horiz-adv-x="842" d="M72 0l219 1120h184l-35 -174q73 97 174.5 149t216.5 52q30 0 59 -3.5t58 -11.5l-35 -182q-28 15 -64 23t-77 8q-147 0 -257 -111.5t-146 -298.5l-113 -571h-184z" />
<glyph unicode="s" horiz-adv-x="1067" d="M23 41l36 190q101 -52 199 -79t188 -27q135 0 219.5 58t84.5 147q0 96 -222 155l-19 5l-63 16q-140 37 -205 97.5t-65 154.5q0 179 134.5 284t365.5 105q91 0 177.5 -15t170.5 -45l-35 -174q-73 40 -154 60t-167 20q-145 0 -228.5 -49.5t-83.5 -134.5q0 -99 194 -152 q15 -4 22 -6l59 -18q184 -51 245.5 -107t61.5 -153q0 -178 -141.5 -290t-370.5 -112q-89 0 -187 17t-216 53z" />
<glyph unicode="t" horiz-adv-x="803" d="M131 977l29 143h153l62 318h184l-61 -318h368l-28 -143h-367l-119 -608q-6 -34 -9 -57t-3 -36q0 -64 38.5 -93t123.5 -29h186l-31 -154h-176q-164 0 -244.5 64t-80.5 194q0 23 3 50.5t9 60.5l119 608h-156z" />
<glyph unicode="u" horiz-adv-x="1298" d="M117 276q0 30 5 75t15 93l131 676h185l-131 -669q-10 -49 -14.5 -84t-4.5 -58q0 -85 52 -131.5t147 -46.5q148 0 256 100t141 269l123 620h184l-217 -1120h-184l37 176q-78 -98 -185.5 -151.5t-228.5 -53.5q-147 0 -229 80.5t-82 224.5z" />
<glyph unicode="v" horiz-adv-x="1212" d="M147 1120h195l164 -952l536 952h195l-637 -1120h-248z" />
<glyph unicode="w" horiz-adv-x="1675" d="M174 1120h182l47 -901l418 901h213l62 -901l397 901h184l-512 -1120h-215l-55 928l-428 -928h-217z" />
<glyph unicode="x" horiz-adv-x="1212" d="M-53 0l551 590l-293 530h211l215 -405l375 405h223l-514 -549l315 -571h-211l-237 444l-412 -444h-223z" />
<glyph unicode="y" horiz-adv-x="1212" d="M-51 -426l31 154h106q77 0 131 42t121 164l57 107l-248 1079h195l186 -858l514 858h193l-727 -1224q-128 -215 -208.5 -268.5t-205.5 -53.5h-145z" />
<glyph unicode="z" horiz-adv-x="1075" d="M-6 0l33 168l843 805h-661l29 147h874l-33 -168l-843 -805h696l-29 -147h-909z" />
<glyph unicode="{" d="M248 537l28 147h62q144 0 207.5 54.5t95.5 205.5l47 244q26 123 61.5 194.5t90.5 110.5q46 34 115 48.5t202 14.5h82l-29 -143h-77q-136 0 -183 -39.5t-78 -189.5l-51 -252q-32 -160 -92.5 -232.5t-171.5 -93.5q73 -18 113.5 -69.5t40.5 -126.5q0 -24 -4 -57t-11 -71 l-47 -244q-5 -31 -7.5 -57.5t-2.5 -50.5q0 -63 42.5 -91.5t139.5 -28.5h78l-29 -144h-71q-188 0 -269 54.5t-81 177.5q0 32 3.5 66t10.5 71l45 235q0 3 2 12q10 50 10 95q0 85 -49 122.5t-162 37.5h-61z" />
<glyph unicode="|" horiz-adv-x="690" d="M260 -483v2048h170v-2048h-170z" />
<glyph unicode="}" d="M14 -334l29 144h78q136 0 183 39.5t77 189.5l51 252q33 160 93 232.5t171 92.5q-73 19 -113 70t-40 127q0 25 3.5 57t10.5 70l47 243q6 34 8 59t2 50q0 64 -42.5 92.5t-139.5 28.5h-78l27 143h74q187 0 268.5 -54t81.5 -177q0 -31 -3.5 -65t-11.5 -73l-45 -235 q0 -3 -2 -12q-10 -49 -10 -94q0 -86 49 -123t162 -37h62l-29 -147h-62q-144 0 -207 -55t-92 -205l-53 -244q-26 -126 -61 -196.5t-88 -108.5q-47 -34 -116 -49t-202 -15h-82z" />
<glyph unicode="~" horiz-adv-x="1716" d="M217 467v178q105 79 194.5 113.5t186.5 34.5q110 0 257 -60l15 -6q8 -3 22 -8q155 -62 249 -62q86 0 170.5 38t187.5 122v-178q-105 -79 -194.5 -113t-186.5 -34q-110 0 -256 59q-11 4 -16 6q-7 3 -22 8q-155 62 -249 62q-88 0 -174 -38.5t-184 -121.5z" />
<glyph unicode="&#xa1;" horiz-adv-x="821" d="M174 0l127 655l90 357h162l-49 -357l-127 -655h-203zM414 1239l49 254h205l-52 -254h-202z" />
<glyph unicode="&#xa2;" d="M152 401q0 306 177 513.5t459 230.5l56 285h100l-55 -285q73 -7 137.5 -23.5t126.5 -44.5l-35 -182q-47 37 -109 59.5t-151 34.5l-168 -862q66 5 140 27.5t157 64.5l-35 -182q-65 -28 -138 -44.5t-150 -21.5l-60 -284h-100l59 284q-197 13 -304 124.5t-107 305.5z M340 426q0 -134 61 -207.5t189 -93.5l168 860q-178 -23 -298 -183.5t-120 -375.5z" />
<glyph unicode="&#xa3;" d="M49 0l33 170h235l91 465h-199l29 143h198l45 238q52 262 182.5 383t362.5 121q70 0 140 -15t139 -45l-35 -182q-61 40 -126.5 61t-129.5 21q-147 0 -221 -79.5t-115 -287.5l-41 -215h391l-29 -143h-391l-90 -465h537l-33 -170h-973z" />
<glyph unicode="&#xa4;" d="M94 197l207 206q-37 62 -55.5 121t-18.5 117q0 64 19 122t57 114l-207 206l115 115l207 -207q55 39 113 57.5t122 18.5q60 0 118.5 -18t119.5 -56l207 209l114 -115l-206 -206q37 -59 55 -118.5t18 -121.5q0 -63 -19 -120.5t-59 -114.5l209 -207l-114 -113l-207 207 q-59 -40 -117 -59t-119 -19q-58 0 -118 18.5t-121 55.5l-207 -207zM383 643q0 -114 78.5 -192t191.5 -78t191 78.5t78 191.5q0 112 -77.5 189t-191.5 77q-112 0 -191 -77t-79 -189z" />
<glyph unicode="&#xa5;" d="M92 455l23 123h417l11 51l-54 155h-333l24 123h266l-204 586h190l240 -700l512 700h194l-430 -586h262l-24 -123h-328l-113 -155l-10 -51h410l-23 -123h-411l-88 -455h-203l88 455h-416z" />
<glyph unicode="&#xa6;" horiz-adv-x="690" d="M260 -350v758h170v-758h-170zM260 674v758h170v-758h-170z" />
<glyph unicode="&#xa7;" horiz-adv-x="1024" d="M25 -137l32 164q76 -38 148 -58t131 -20q112 0 179 47.5t67 126.5q0 98 -180 219l-15 10l-76 51q-123 84 -164 140.5t-41 130.5q0 96 64 182.5t182 149.5q-43 38 -62.5 78.5t-19.5 91.5q0 147 121.5 245.5t308.5 98.5q71 0 143.5 -14.5t149.5 -43.5l-32 -164 q-72 39 -140.5 58.5t-126.5 19.5q-103 0 -169 -48.5t-66 -121.5q0 -79 135 -169q30 -20 47 -31l88 -60q122 -85 164.5 -143.5t42.5 -128.5q0 -101 -66 -191t-180 -143q41 -35 61.5 -80t20.5 -100q0 -157 -121.5 -256t-320.5 -99q-69 0 -146 14.5t-159 43.5zM274 717 q0 -50 42.5 -98.5t168.5 -131.5l117 -77q82 49 125 104.5t43 112.5q0 54 -53.5 110.5t-196.5 147.5l-80 51q-81 -51 -123.5 -107t-42.5 -112z" />
<glyph unicode="&#xa8;" horiz-adv-x="1024" d="M377 1350l39 202h205l-41 -202h-203zM768 1350l39 202h203l-39 -202h-203z" />
<glyph unicode="&#xa9;" horiz-adv-x="2048" d="M283 741q0 154 54 285t163 240t240.5 164t283.5 55t283.5 -55t240.5 -164t163 -240t54 -285q0 -152 -54 -282.5t-163 -239.5t-240.5 -164t-283.5 -55t-283.5 55t-240.5 164t-163 239.5t-54 282.5zM383 741q0 -129 48 -242.5t142 -207.5t207 -141.5t244 -47.5 q132 0 245.5 47.5t207.5 141.5q93 93 139.5 206t46.5 244q0 133 -47 246.5t-139 206.5q-94 94 -207.5 141t-245.5 47q-131 0 -244 -47t-207 -141t-142 -208.5t-48 -244.5zM582 741q0 209 125.5 330t341.5 121q73 0 141 -14t133 -41v-129q-66 33 -131 49t-131 16 q-149 0 -232.5 -87.5t-83.5 -244.5q0 -159 85.5 -246t240.5 -87q64 0 125 15.5t127 49.5v-127q-67 -29 -135.5 -43t-138.5 -14q-216 0 -341.5 122t-125.5 330z" />
<glyph unicode="&#xaa;" horiz-adv-x="965" d="M82 469l22 123h689l-23 -123h-688zM143 920q0 140 115.5 219.5t323.5 79.5h182v4q2 19 3 29.5t1 17.5q0 70 -46.5 102.5t-146.5 32.5q-70 0 -142.5 -17t-145.5 -51l24 127q79 28 155 42t144 14q150 0 226.5 -62t76.5 -182q0 -27 -2.5 -54.5t-7.5 -56.5l-88 -448h-149 l22 112q-58 -65 -134.5 -98t-172.5 -33q-107 0 -172.5 61t-65.5 161zM295 946q0 -59 38 -94t103 -35q115 0 193.5 67.5t105.5 190.5l6 29h-147q-157 0 -228 -37.5t-71 -120.5z" />
<glyph unicode="&#xab;" horiz-adv-x="1264" d="M127 559l16 82l549 418l-39 -201l-354 -270l252 -266l-37 -181zM571 559l17 82l549 418l-39 -201l-355 -270l252 -266l-37 -181z" />
<glyph unicode="&#xac;" horiz-adv-x="1716" d="M217 692v170h1282v-575h-168v405h-1114z" />
<glyph unicode="&#xad;" horiz-adv-x="739" d="M92 479l33 164h539l-31 -164h-541z" />
<glyph unicode="&#xae;" horiz-adv-x="2048" d="M283 741q0 154 54 285t163 240t240.5 164t283.5 55t283.5 -55t240.5 -164t163 -240t54 -285q0 -152 -54 -282.5t-163 -239.5t-240.5 -164t-283.5 -55t-283.5 55t-240.5 164t-163 239.5t-54 282.5zM383 741q0 -129 48 -242.5t142 -207.5t207 -141.5t244 -47.5 q132 0 245.5 47.5t207.5 141.5q93 93 139.5 206t46.5 244q0 133 -47 246.5t-139 206.5q-94 94 -207.5 141t-245.5 47q-131 0 -244 -47t-207 -141t-142 -208.5t-48 -244.5zM719 338v836h285q176 0 263 -59.5t87 -180.5q0 -86 -52.5 -142t-148.5 -73q24 -8 57.5 -46.5 t79.5 -111.5l137 -223h-172l-129 209q-59 96 -95.5 121.5t-90.5 25.5h-66v-356h-155zM874 795h123q110 0 153.5 31t43.5 106q0 76 -44 107.5t-153 31.5h-123v-276z" />
<glyph unicode="&#xaf;" horiz-adv-x="1024" d="M381 1378l29 148h598l-29 -148h-598z" />
<glyph unicode="&#xb0;" horiz-adv-x="1024" d="M195 1200q0 134 92 227t225 93q64 0 123 -24.5t102 -70.5q46 -45 69 -102t23 -123q0 -132 -92.5 -223.5t-226.5 -91.5q-135 0 -225 90t-90 225zM322 1200q0 -79 55 -133.5t135 -54.5t135 54.5t55 133.5t-55.5 135t-134.5 56q-80 0 -135 -55.5t-55 -135.5z" />
<glyph unicode="&#xb1;" horiz-adv-x="1716" d="M217 0v170h1282v-170h-1282zM217 727v170h557v387h168v-387h557v-170h-557v-387h-168v387h-557z" />
<glyph unicode="&#xb2;" horiz-adv-x="821" d="M74 668l22 110l422 340q59 46 88 89t29 83q0 54 -42 87.5t-112 33.5q-55 0 -121 -17t-149 -53l25 123q76 28 144 42t132 14q123 0 199.5 -57t76.5 -146q0 -62 -32 -118.5t-97 -108.5l-385 -308h441l-23 -114h-618z" />
<glyph unicode="&#xb3;" horiz-adv-x="821" d="M33 694l24 121q53 -27 109 -40t119 -13q123 0 192.5 46t69.5 128q0 62 -48.5 93.5t-146.5 31.5h-86l23 108h92q102 0 159.5 36t57.5 100q0 53 -41 79.5t-123 26.5q-56 0 -118 -10.5t-123 -30.5l22 115q83 18 146 26.5t118 8.5q125 0 200 -52.5t75 -138.5q0 -77 -57 -134 t-154 -75q75 -16 115 -63t40 -119q0 -127 -111.5 -206t-295.5 -79q-64 0 -129 10.5t-129 30.5z" />
<glyph unicode="&#xb4;" horiz-adv-x="1024" d="M516 1262l354 376h199l-399 -376h-154z" />
<glyph unicode="&#xb5;" d="M-27 -426l301 1546h185l-136 -697q-4 -21 -7 -47t-3 -52q0 -93 58.5 -143t167.5 -50q148 0 239 84t123 252l127 653h184l-167 -861q-4 -19 -5.5 -33t-1.5 -25q0 -31 12.5 -45.5t39.5 -14.5q10 0 27.5 5t49.5 18l-28 -148q-44 -22 -84 -33.5t-78 -11.5q-66 0 -103.5 42 t-37.5 116q-56 -80 -133.5 -119t-182.5 -39q-93 0 -162.5 43t-91.5 113l-108 -553h-185z" />
<glyph unicode="&#xb6;" d="M160 1001q0 211 172 351.5t436 140.5h406l-328 -1690h-139l305 1567h-191l-305 -1567h-141l164 846q-178 6 -278.5 100t-100.5 252z" />
<glyph unicode="&#xb7;" horiz-adv-x="651" d="M233 584l50 254h211l-50 -254h-211z" />
<glyph unicode="&#xb8;" horiz-adv-x="1024" d="M100 -371l23 131q39 -16 78.5 -24t81.5 -8q60 0 95.5 30.5t35.5 83.5q0 29 -12.5 65t-43.5 93h119q36 -51 53 -94.5t17 -85.5q0 -100 -73.5 -157.5t-201.5 -57.5q-43 0 -86 6t-86 18z" />
<glyph unicode="&#xb9;" horiz-adv-x="821" d="M135 668l21 110h204l119 611l-229 -41l22 116l230 39h145l-141 -725h205l-23 -110h-553z" />
<glyph unicode="&#xba;" horiz-adv-x="965" d="M82 469l22 123h689l-23 -123h-688zM152 1032q0 68 19 134.5t56 129.5q62 106 166 165t228 59q148 0 236.5 -86t88.5 -230q0 -220 -133 -363t-336 -143q-150 0 -237.5 90t-87.5 244zM307 1040q0 -109 49.5 -168t141.5 -59q122 0 206 105.5t84 261.5q0 110 -49.5 167.5 t-146.5 57.5q-116 0 -200.5 -107t-84.5 -258z" />
<glyph unicode="&#xbb;" horiz-adv-x="1264" d="M127 141l39 201l352 270l-250 267l37 180l385 -418l-14 -82zM569 141l39 201l355 270l-252 267l39 180l385 -418l-15 -82z" />
<glyph unicode="&#xbc;" horiz-adv-x="1985" d="M1247 186l25 131l493 518h166l-106 -540h137l-21 -109h-137l-37 -186h-141l37 186h-416zM1372 295h311l82 415zM135 668l21 110h204l119 611l-229 -41l22 116l230 39h145l-141 -725h205l-23 -110h-553zM284 -29l1235 1549h179l-1233 -1549h-181z" />
<glyph unicode="&#xbd;" horiz-adv-x="1985" d="M135 668l21 110h204l119 611l-229 -41l22 116l230 39h145l-141 -725h205l-23 -110h-553zM284 -29l1235 1549h179l-1233 -1549h-181zM1237 0l22 110l422 340q59 46 88 89t29 83q0 54 -42 87.5t-112 33.5q-55 0 -121 -17t-149 -53l25 123q76 28 144 42t132 14 q123 0 199.5 -57t76.5 -146q0 -62 -32 -118.5t-97 -108.5l-385 -308h441l-23 -114h-618z" />
<glyph unicode="&#xbe;" horiz-adv-x="1985" d="M1247 186l25 131l493 518h166l-106 -540h137l-21 -109h-137l-37 -186h-141l37 186h-416zM1372 295h311l82 415zM33 694l24 121q53 -27 109 -40t119 -13q123 0 192.5 46t69.5 128q0 62 -48.5 93.5t-146.5 31.5h-86l23 108h92q102 0 159.5 36t57.5 100q0 53 -41 79.5 t-123 26.5q-56 0 -118 -10.5t-123 -30.5l22 115q83 18 146 26.5t118 8.5q125 0 200 -52.5t75 -138.5q0 -77 -57 -134t-154 -75q75 -16 115 -63t40 -119q0 -127 -111.5 -206t-295.5 -79q-64 0 -129 10.5t-129 30.5zM284 -29l1235 1549h179l-1233 -1549h-181z" />
<glyph unicode="&#xbf;" horiz-adv-x="1087" d="M76 252q0 103 53.5 193t173.5 188l103 84q85 68 113.5 115t45.5 137l25 123h190l-30 -154q-19 -94 -58 -159.5t-149 -157.5l-107 -89q-84 -70 -117.5 -123t-33.5 -110q0 -76 54.5 -119t149.5 -43q81 0 179 35.5t202 101.5l-36 -188q-103 -57 -204 -85t-208 -28 q-161 0 -253.5 75t-92.5 204zM612 1239l50 254h202l-49 -254h-203z" />
<glyph unicode="&#xc0;" horiz-adv-x="1401" d="M-109 0l863 1493h229l277 -1493h-211l-62 383h-672l-211 -383h-213zM408 551h548l-129 743zM682 1899h182l148 -264h-140z" />
<glyph unicode="&#xc1;" horiz-adv-x="1401" d="M-109 0l863 1493h229l277 -1493h-211l-62 383h-672l-211 -383h-213zM408 551h548l-129 743zM733 1635l258 264h207l-307 -264h-158z" />
<glyph unicode="&#xc2;" horiz-adv-x="1401" d="M-109 0l863 1493h229l277 -1493h-211l-62 383h-672l-211 -383h-213zM408 551h548l-129 743zM555 1635l262 266h215l158 -266h-135l-140 178l-209 -178h-151z" />
<glyph unicode="&#xc3;" horiz-adv-x="1401" d="M-109 0l863 1493h229l277 -1493h-211l-62 383h-672l-211 -383h-213zM408 551h548l-129 743zM549 1667q35 109 96.5 164t146.5 55q35 0 65.5 -11t66.5 -36l32 -26q18 -14 37 -20.5t39 -6.5q39 0 67.5 27t39.5 73h125q-33 -109 -95.5 -164t-154.5 -55q-31 0 -58.5 10.5 t-58.5 32.5l-35 25l-1 1q-43 32 -81 32q-34 0 -61 -25.5t-45 -75.5h-125z" />
<glyph unicode="&#xc4;" horiz-adv-x="1401" d="M-109 0l863 1493h229l277 -1493h-211l-62 383h-672l-211 -383h-213zM408 551h548l-129 743zM584 1667l39 203h204l-41 -203h-202zM975 1667l39 203h202l-38 -203h-203z" />
<glyph unicode="&#xc5;" horiz-adv-x="1401" d="M-109 0l814 1407q-54 37 -82.5 93.5t-28.5 125.5q0 114 80 194.5t194 80.5t194.5 -80.5t80.5 -194.5q0 -79 -36.5 -140t-105.5 -97l259 -1389h-211l-62 383h-672l-211 -383h-213zM408 551h548l-129 743zM717 1626q0 -63 43.5 -107t107.5 -44q63 0 107.5 44t44.5 107 t-44.5 107.5t-107.5 44.5q-64 0 -107.5 -43.5t-43.5 -108.5z" />
<glyph unicode="&#xc6;" horiz-adv-x="1995" d="M-92 0l915 1493h1213l-33 -170h-741l-88 -442h712l-33 -170h-712l-105 -541h760l-33 -170h-962l73 383h-526l-235 -383h-205zM449 551h458l154 784h-129z" />
<glyph unicode="&#xc7;" horiz-adv-x="1430" d="M86 561q0 178 61.5 350t176.5 314q122 151 278.5 223t364.5 72q128 0 242.5 -35.5t213.5 -106.5l-41 -213q-96 97 -203.5 144t-232.5 47q-171 0 -300.5 -82t-223.5 -250q-60 -108 -91.5 -228.5t-31.5 -242.5q0 -204 105.5 -311t306.5 -107q139 0 267 44.5t249 133.5 l-47 -239q-119 -51 -240.5 -77t-243.5 -26q-287 0 -448.5 156t-161.5 434zM370 -371l23 131q39 -16 78.5 -24t81.5 -8q60 0 95.5 30.5t35.5 83.5q0 29 -12.5 65t-43.5 93h119q36 -51 53 -94.5t17 -85.5q0 -100 -73.5 -157.5t-201.5 -57.5q-43 0 -86 6t-86 18z" />
<glyph unicode="&#xc8;" horiz-adv-x="1294" d="M55 0l291 1493h944l-33 -170h-743l-86 -442h713l-33 -170h-713l-104 -541h760l-33 -170h-963zM625 1899h182l148 -264h-140z" />
<glyph unicode="&#xc9;" horiz-adv-x="1294" d="M55 0l291 1493h944l-33 -170h-743l-86 -442h713l-33 -170h-713l-104 -541h760l-33 -170h-963zM676 1635l258 264h207l-307 -264h-158z" />
<glyph unicode="&#xca;" horiz-adv-x="1294" d="M55 0l291 1493h944l-33 -170h-743l-86 -442h713l-33 -170h-713l-104 -541h760l-33 -170h-963zM498 1635l262 266h215l158 -266h-135l-140 178l-209 -178h-151z" />
<glyph unicode="&#xcb;" horiz-adv-x="1294" d="M55 0l291 1493h944l-33 -170h-743l-86 -442h713l-33 -170h-713l-104 -541h760l-33 -170h-963zM527 1667l39 203h204l-41 -203h-202zM918 1667l39 203h202l-38 -203h-203z" />
<glyph unicode="&#xcc;" horiz-adv-x="604" d="M55 0l291 1493h203l-291 -1493h-203zM268 1899h182l148 -264h-140z" />
<glyph unicode="&#xcd;" horiz-adv-x="604" d="M55 0l291 1493h203l-291 -1493h-203zM319 1635l258 264h207l-307 -264h-158z" />
<glyph unicode="&#xce;" horiz-adv-x="604" d="M55 0l291 1493h203l-291 -1493h-203zM141 1635l262 266h215l158 -266h-135l-140 178l-209 -178h-151z" />
<glyph unicode="&#xcf;" horiz-adv-x="604" d="M55 0l291 1493h203l-291 -1493h-203zM170 1667l39 203h204l-41 -203h-202zM561 1667l39 203h202l-38 -203h-203z" />
<glyph unicode="&#xd0;" horiz-adv-x="1587" d="M0 700l29 144h200l127 649h435q345 0 521.5 -146.5t176.5 -435.5q0 -190 -67.5 -366.5t-186.5 -298.5q-119 -124 -301 -185t-432 -61h-436l135 700h-201zM301 166h264q340 0 525.5 195t185.5 550q0 215 -120 315.5t-376 100.5h-254l-94 -483h336l-29 -144h-336z" />
<glyph unicode="&#xd1;" horiz-adv-x="1532" d="M55 0l291 1493h272l412 -1280l250 1280h197l-291 -1493h-273l-411 1288l-250 -1288h-197zM586 1667q35 109 96.5 164t146.5 55q35 0 65.5 -11t66.5 -36l32 -26q18 -14 37 -20.5t39 -6.5q39 0 67.5 27t39.5 73h125q-33 -109 -95.5 -164t-154.5 -55q-31 0 -58.5 10.5 t-58.5 32.5l-35 25l-1 1q-43 32 -81 32q-34 0 -61 -25.5t-45 -75.5h-125z" />
<glyph unicode="&#xd2;" horiz-adv-x="1612" d="M82 580q0 162 61.5 331t169.5 301q127 155 283 231.5t344 76.5q274 0 432 -161.5t158 -440.5q0 -172 -60 -338t-172 -301q-128 -156 -282.5 -232t-343.5 -76q-275 0 -432.5 163t-157.5 446zM297 569q0 -208 99.5 -321t281.5 -113q164 0 292.5 81.5t219.5 242.5 q61 108 93 226.5t32 236.5q0 207 -100 320.5t-281 113.5q-166 0 -293 -80.5t-221 -245.5q-60 -105 -91.5 -223t-31.5 -238zM805 1899h182l148 -264h-140z" />
<glyph unicode="&#xd3;" horiz-adv-x="1612" d="M82 580q0 162 61.5 331t169.5 301q127 155 283 231.5t344 76.5q274 0 432 -161.5t158 -440.5q0 -172 -60 -338t-172 -301q-128 -156 -282.5 -232t-343.5 -76q-275 0 -432.5 163t-157.5 446zM297 569q0 -208 99.5 -321t281.5 -113q164 0 292.5 81.5t219.5 242.5 q61 108 93 226.5t32 236.5q0 207 -100 320.5t-281 113.5q-166 0 -293 -80.5t-221 -245.5q-60 -105 -91.5 -223t-31.5 -238zM856 1635l258 264h207l-307 -264h-158z" />
<glyph unicode="&#xd4;" horiz-adv-x="1612" d="M82 580q0 162 61.5 331t169.5 301q127 155 283 231.5t344 76.5q274 0 432 -161.5t158 -440.5q0 -172 -60 -338t-172 -301q-128 -156 -282.5 -232t-343.5 -76q-275 0 -432.5 163t-157.5 446zM297 569q0 -208 99.5 -321t281.5 -113q164 0 292.5 81.5t219.5 242.5 q61 108 93 226.5t32 236.5q0 207 -100 320.5t-281 113.5q-166 0 -293 -80.5t-221 -245.5q-60 -105 -91.5 -223t-31.5 -238zM678 1635l262 266h215l158 -266h-135l-140 178l-209 -178h-151z" />
<glyph unicode="&#xd5;" horiz-adv-x="1612" d="M82 580q0 162 61.5 331t169.5 301q127 155 283 231.5t344 76.5q274 0 432 -161.5t158 -440.5q0 -172 -60 -338t-172 -301q-128 -156 -282.5 -232t-343.5 -76q-275 0 -432.5 163t-157.5 446zM297 569q0 -208 99.5 -321t281.5 -113q164 0 292.5 81.5t219.5 242.5 q61 108 93 226.5t32 236.5q0 207 -100 320.5t-281 113.5q-166 0 -293 -80.5t-221 -245.5q-60 -105 -91.5 -223t-31.5 -238zM672 1667q35 109 96.5 164t146.5 55q35 0 65.5 -11t66.5 -36l32 -26q18 -14 37 -20.5t39 -6.5q39 0 67.5 27t39.5 73h125q-33 -109 -95.5 -164 t-154.5 -55q-31 0 -58.5 10.5t-58.5 32.5l-35 25l-1 1q-43 32 -81 32q-34 0 -61 -25.5t-45 -75.5h-125z" />
<glyph unicode="&#xd6;" horiz-adv-x="1612" d="M82 580q0 162 61.5 331t169.5 301q127 155 283 231.5t344 76.5q274 0 432 -161.5t158 -440.5q0 -172 -60 -338t-172 -301q-128 -156 -282.5 -232t-343.5 -76q-275 0 -432.5 163t-157.5 446zM297 569q0 -208 99.5 -321t281.5 -113q164 0 292.5 81.5t219.5 242.5 q61 108 93 226.5t32 236.5q0 207 -100 320.5t-281 113.5q-166 0 -293 -80.5t-221 -245.5q-60 -105 -91.5 -223t-31.5 -238zM707 1667l39 203h204l-41 -203h-202zM1098 1667l39 203h202l-38 -203h-203z" />
<glyph unicode="&#xd7;" horiz-adv-x="1716" d="M281 184l456 457l-456 459l118 121l459 -459l459 459l119 -121l-457 -459l457 -457l-119 -121l-459 459l-459 -459z" />
<glyph unicode="&#xd8;" horiz-adv-x="1612" d="M-70 33l230 213q-39 80 -58.5 162t-19.5 167q0 166 61 334t170 303q125 154 281.5 231t345.5 77q130 0 235 -38.5t189 -115.5l203 193l90 -99l-209 -198q40 -73 60 -157.5t20 -182.5q0 -177 -59 -342.5t-171 -300.5q-128 -156 -282.5 -232t-343.5 -76q-139 0 -247.5 42 t-184.5 124l-220 -203zM295 571q0 -45 6 -88.5t18 -87.5l904 840q-45 60 -118 90.5t-171 30.5q-165 0 -292.5 -81t-219.5 -243q-62 -109 -94.5 -228t-32.5 -233zM381 270q51 -68 124.5 -101.5t172.5 -33.5q164 0 292.5 81.5t219.5 242.5q62 112 93.5 229.5t31.5 239.5 q0 56 -6.5 102.5t-20.5 85.5z" />
<glyph unicode="&#xd9;" horiz-adv-x="1499" d="M119 389q0 35 5 78.5t15 93.5l178 932h203l-176 -907q-11 -61 -15.5 -100.5t-4.5 -69.5q0 -138 77 -209.5t226 -71.5q193 0 300.5 106t153.5 345l176 907h203l-180 -932q-59 -302 -224 -446t-452 -144q-224 0 -354.5 112.5t-130.5 305.5zM715 1899h182l148 -264h-140z " />
<glyph unicode="&#xda;" horiz-adv-x="1499" d="M119 389q0 35 5 78.5t15 93.5l178 932h203l-176 -907q-11 -61 -15.5 -100.5t-4.5 -69.5q0 -138 77 -209.5t226 -71.5q193 0 300.5 106t153.5 345l176 907h203l-180 -932q-59 -302 -224 -446t-452 -144q-224 0 -354.5 112.5t-130.5 305.5zM766 1635l258 264h207l-307 -264 h-158z" />
<glyph unicode="&#xdb;" horiz-adv-x="1499" d="M119 389q0 35 5 78.5t15 93.5l178 932h203l-176 -907q-11 -61 -15.5 -100.5t-4.5 -69.5q0 -138 77 -209.5t226 -71.5q193 0 300.5 106t153.5 345l176 907h203l-180 -932q-59 -302 -224 -446t-452 -144q-224 0 -354.5 112.5t-130.5 305.5zM588 1635l262 266h215l158 -266 h-135l-140 178l-209 -178h-151z" />
<glyph unicode="&#xdc;" horiz-adv-x="1499" d="M119 389q0 35 5 78.5t15 93.5l178 932h203l-176 -907q-11 -61 -15.5 -100.5t-4.5 -69.5q0 -138 77 -209.5t226 -71.5q193 0 300.5 106t153.5 345l176 907h203l-180 -932q-59 -302 -224 -446t-452 -144q-224 0 -354.5 112.5t-130.5 305.5zM617 1667l39 203h204l-41 -203 h-202zM1008 1667l39 203h202l-38 -203h-203z" />
<glyph unicode="&#xdd;" horiz-adv-x="1251" d="M129 1493h217l279 -614l532 614h227l-677 -782l-138 -711h-202l137 711zM643 1635l258 264h207l-307 -264h-158z" />
<glyph unicode="&#xde;" horiz-adv-x="1245" d="M55 0l291 1493h203l-51 -264h266q204 0 311 -95t107 -278q0 -246 -158 -382t-444 -136h-256l-66 -338h-203zM358 504h254q172 0 264.5 87.5t92.5 252.5q0 104 -62 161.5t-176 57.5h-264z" />
<glyph unicode="&#xdf;" horiz-adv-x="1290" d="M96 0l221 1137q38 197 170.5 308t329.5 111q174 0 282.5 -93t108.5 -240q0 -25 -3 -55.5t-9 -67.5q-162 -8 -262 -75.5t-100 -164.5q0 -40 21 -76t69 -73l49 -39q119 -94 160 -159.5t41 -145.5q0 -172 -139 -284t-357 -112q-76 0 -146 12.5t-133 36.5l31 164 q65 -29 134.5 -44t140.5 -15q124 0 201 57t77 148q0 45 -23.5 84t-101.5 106l-51 43q-97 82 -130.5 137.5t-33.5 122.5q0 126 106 227t279 138q2 8 3 18t1 29q0 78 -56.5 123t-156.5 45q-133 0 -213 -68t-106 -202l-219 -1133h-185z" />
<glyph unicode="&#xe0;" horiz-adv-x="1255" d="M84 283q0 196 156.5 310t431.5 114h256l10 49q2 8 3 17.5t1 29.5q0 89 -72.5 138.5t-203.5 49.5q-90 0 -184.5 -23t-194.5 -69l32 170q104 39 203.5 58.5t192.5 19.5q198 0 301.5 -86t103.5 -250q0 -33 -5 -77.5t-15 -94.5l-125 -639h-184l34 170q-81 -100 -184.5 -149.5 t-230.5 -49.5q-143 0 -234.5 87.5t-91.5 224.5zM274 315q0 -88 55.5 -138t153.5 -50q150 0 262 107.5t148 287.5l8 41h-184q-226 0 -334.5 -60.5t-108.5 -187.5zM489 1638h197l209 -374h-154z" />
<glyph unicode="&#xe1;" horiz-adv-x="1255" d="M84 283q0 196 156.5 310t431.5 114h256l10 49q2 8 3 17.5t1 29.5q0 89 -72.5 138.5t-203.5 49.5q-90 0 -184.5 -23t-194.5 -69l32 170q104 39 203.5 58.5t192.5 19.5q198 0 301.5 -86t103.5 -250q0 -33 -5 -77.5t-15 -94.5l-125 -639h-184l34 170q-81 -100 -184.5 -149.5 t-230.5 -49.5q-143 0 -234.5 87.5t-91.5 224.5zM274 315q0 -88 55.5 -138t153.5 -50q150 0 262 107.5t148 287.5l8 41h-184q-226 0 -334.5 -60.5t-108.5 -187.5zM616 1262l354 376h199l-399 -376h-154z" />
<glyph unicode="&#xe2;" horiz-adv-x="1255" d="M84 283q0 196 156.5 310t431.5 114h256l10 49q2 8 3 17.5t1 29.5q0 89 -72.5 138.5t-203.5 49.5q-90 0 -184.5 -23t-194.5 -69l32 170q104 39 203.5 58.5t192.5 19.5q198 0 301.5 -86t103.5 -250q0 -33 -5 -77.5t-15 -94.5l-125 -639h-184l34 170q-81 -100 -184.5 -149.5 t-230.5 -49.5q-143 0 -234.5 87.5t-91.5 224.5zM274 315q0 -88 55.5 -138t153.5 -50q150 0 262 107.5t148 287.5l8 41h-184q-226 0 -334.5 -60.5t-108.5 -187.5zM438 1262l319 376h148l172 -376h-139l-127 237l-234 -237h-139z" />
<glyph unicode="&#xe3;" horiz-adv-x="1255" d="M84 283q0 196 156.5 310t431.5 114h256l10 49q2 8 3 17.5t1 29.5q0 89 -72.5 138.5t-203.5 49.5q-90 0 -184.5 -23t-194.5 -69l32 170q104 39 203.5 58.5t192.5 19.5q198 0 301.5 -86t103.5 -250q0 -33 -5 -77.5t-15 -94.5l-125 -639h-184l34 170q-81 -100 -184.5 -149.5 t-230.5 -49.5q-143 0 -234.5 87.5t-91.5 224.5zM274 315q0 -88 55.5 -138t153.5 -50q150 0 262 107.5t148 287.5l8 41h-184q-226 0 -334.5 -60.5t-108.5 -187.5zM436 1309q30 137 94.5 209.5t155.5 72.5q37 0 69 -15.5t58 -45.5l47 -55q12 -16 26 -25t33 -14q38 0 62.5 35.5 t44.5 119.5h125q-29 -137 -93.5 -209.5t-156.5 -72.5q-38 0 -71 15.5t-56 45.5l-45 55q-13 16 -29 26t-32 13q-39 0 -64.5 -36.5t-42.5 -118.5h-125z" />
<glyph unicode="&#xe4;" horiz-adv-x="1255" d="M84 283q0 196 156.5 310t431.5 114h256l10 49q2 8 3 17.5t1 29.5q0 89 -72.5 138.5t-203.5 49.5q-90 0 -184.5 -23t-194.5 -69l32 170q104 39 203.5 58.5t192.5 19.5q198 0 301.5 -86t103.5 -250q0 -33 -5 -77.5t-15 -94.5l-125 -639h-184l34 170q-81 -100 -184.5 -149.5 t-230.5 -49.5q-143 0 -234.5 87.5t-91.5 224.5zM274 315q0 -88 55.5 -138t153.5 -50q150 0 262 107.5t148 287.5l8 41h-184q-226 0 -334.5 -60.5t-108.5 -187.5zM477 1350l39 202h205l-41 -202h-203zM868 1350l39 202h203l-39 -202h-203z" />
<glyph unicode="&#xe5;" horiz-adv-x="1255" d="M84 283q0 196 156.5 310t431.5 114h256l10 49q2 8 3 17.5t1 29.5q0 89 -72.5 138.5t-203.5 49.5q-90 0 -184.5 -23t-194.5 -69l32 170q104 39 203.5 58.5t192.5 19.5q198 0 301.5 -86t103.5 -250q0 -33 -5 -77.5t-15 -94.5l-125 -639h-184l34 170q-81 -100 -184.5 -149.5 t-230.5 -49.5q-143 0 -234.5 87.5t-91.5 224.5zM274 315q0 -88 55.5 -138t153.5 -50q150 0 262 107.5t148 287.5l8 41h-184q-226 0 -334.5 -60.5t-108.5 -187.5zM528 1524q0 116 79.5 195t194.5 79q116 0 195.5 -79t79.5 -195q0 -115 -79.5 -195t-195.5 -80 q-115 0 -194.5 80t-79.5 195zM651 1524q0 -66 42.5 -109t108.5 -43q67 0 109.5 43t42.5 109q0 64 -43.5 107.5t-108.5 43.5q-66 0 -108.5 -42.5t-42.5 -108.5z" />
<glyph unicode="&#xe6;" horiz-adv-x="2038" d="M84 283q0 196 156.5 310t431.5 114h256l10 49q2 8 3 17.5t1 29.5q0 89 -72.5 138.5t-203.5 49.5q-90 0 -184.5 -23t-194.5 -69l32 170q104 39 203.5 58.5t192.5 19.5q144 0 237 -45t138 -137q86 90 198 136t244 46q190 0 303 -114t113 -306q0 -46 -6.5 -98.5 t-18.5 -112.5h-856q-6 -38 -8 -60t-2 -38q0 -139 85.5 -215t241.5 -76q120 0 227.5 27t198.5 79l-34 -182q-100 -40 -205.5 -60t-214.5 -20q-168 0 -281.5 57.5t-169.5 170.5q-102 -118 -212 -173t-242 -55q-174 0 -270.5 82t-96.5 230zM274 315q0 -88 55.5 -138t153.5 -50 q150 0 262 107.5t148 287.5l8 41h-184q-226 0 -334.5 -60.5t-108.5 -187.5zM1102 659l661 1q3 16 4.5 33t1.5 34q0 122 -71 193t-195 71q-137 0 -242 -86.5t-159 -245.5z" />
<glyph unicode="&#xe7;" horiz-adv-x="1126" d="M94 401q0 174 62.5 320.5t185.5 263.5q84 80 197 121t247 41q78 0 155 -17.5t157 -52.5l-37 -182q-66 48 -140.5 72t-154.5 24q-88 0 -167.5 -31t-133.5 -88q-86 -87 -133 -204t-47 -242q0 -151 75.5 -225t229.5 -74q76 0 161.5 23t178.5 69l-35 -182 q-80 -33 -164.5 -49.5t-173.5 -16.5q-223 0 -343 111.5t-120 318.5zM219 -371l23 131q39 -16 78.5 -24t81.5 -8q60 0 95.5 30.5t35.5 83.5q0 29 -12.5 65t-43.5 93h119q36 -51 53 -94.5t17 -85.5q0 -100 -73.5 -157.5t-201.5 -57.5q-43 0 -86 6t-86 18z" />
<glyph unicode="&#xe8;" horiz-adv-x="1260" d="M94 399q0 175 62.5 325.5t183.5 268.5q78 74 185.5 114t228.5 40q190 0 302.5 -114t112.5 -306q0 -46 -6 -98.5t-18 -112.5h-856q-6 -38 -8 -60t-2 -38q0 -139 85.5 -215t241.5 -76q120 0 227 27t199 79l-35 -182q-99 -40 -204.5 -60t-214.5 -20q-233 0 -358.5 111.5 t-125.5 316.5zM324 659l661 1q3 16 4.5 33t1.5 34q0 122 -71.5 193t-194.5 71q-137 0 -242 -86.5t-159 -245.5zM500 1638h197l209 -374h-154z" />
<glyph unicode="&#xe9;" horiz-adv-x="1260" d="M94 399q0 175 62.5 325.5t183.5 268.5q78 74 185.5 114t228.5 40q190 0 302.5 -114t112.5 -306q0 -46 -6 -98.5t-18 -112.5h-856q-6 -38 -8 -60t-2 -38q0 -139 85.5 -215t241.5 -76q120 0 227 27t199 79l-35 -182q-99 -40 -204.5 -60t-214.5 -20q-233 0 -358.5 111.5 t-125.5 316.5zM324 659l661 1q3 16 4.5 33t1.5 34q0 122 -71.5 193t-194.5 71q-137 0 -242 -86.5t-159 -245.5zM627 1262l354 376h199l-399 -376h-154z" />
<glyph unicode="&#xea;" horiz-adv-x="1260" d="M94 399q0 175 62.5 325.5t183.5 268.5q78 74 185.5 114t228.5 40q190 0 302.5 -114t112.5 -306q0 -46 -6 -98.5t-18 -112.5h-856q-6 -38 -8 -60t-2 -38q0 -139 85.5 -215t241.5 -76q120 0 227 27t199 79l-35 -182q-99 -40 -204.5 -60t-214.5 -20q-233 0 -358.5 111.5 t-125.5 316.5zM324 659l661 1q3 16 4.5 33t1.5 34q0 122 -71.5 193t-194.5 71q-137 0 -242 -86.5t-159 -245.5zM449 1262l319 376h148l172 -376h-139l-127 237l-234 -237h-139z" />
<glyph unicode="&#xeb;" horiz-adv-x="1260" d="M94 399q0 175 62.5 325.5t183.5 268.5q78 74 185.5 114t228.5 40q190 0 302.5 -114t112.5 -306q0 -46 -6 -98.5t-18 -112.5h-856q-6 -38 -8 -60t-2 -38q0 -139 85.5 -215t241.5 -76q120 0 227 27t199 79l-35 -182q-99 -40 -204.5 -60t-214.5 -20q-233 0 -358.5 111.5 t-125.5 316.5zM324 659l661 1q3 16 4.5 33t1.5 34q0 122 -71.5 193t-194.5 71q-137 0 -242 -86.5t-159 -245.5zM488 1350l39 202h205l-41 -202h-203zM879 1350l39 202h203l-39 -202h-203z" />
<glyph unicode="&#xec;" horiz-adv-x="569" d="M72 0l219 1120h184l-219 -1120h-184zM131 1638h197l209 -374h-154z" />
<glyph unicode="&#xed;" horiz-adv-x="569" d="M72 0l219 1120h184l-219 -1120h-184zM258 1262l354 376h199l-399 -376h-154z" />
<glyph unicode="&#xee;" horiz-adv-x="569" d="M72 0l219 1120h184l-219 -1120h-184zM80 1262l319 376h148l172 -376h-139l-127 237l-234 -237h-139z" />
<glyph unicode="&#xef;" horiz-adv-x="569" d="M72 0l219 1120h184l-219 -1120h-184zM119 1350l39 202h205l-41 -202h-203zM510 1350l39 202h203l-39 -202h-203z" />
<glyph unicode="&#xf0;" horiz-adv-x="1253" d="M92 401q0 120 41 238t117 219q88 116 209 178t260 62q20 0 49 -2.5t69 -7.5l-124 180l-351 -107l-32 94l327 97l-139 204h217l96 -145l336 109l35 -95l-313 -98l127 -186q68 -102 102.5 -212.5t34.5 -228.5q0 -136 -39.5 -262.5t-114.5 -226.5q-84 -116 -206.5 -178 t-266.5 -62q-198 0 -316 117.5t-118 312.5zM283 408q0 -138 65.5 -209.5t192.5 -71.5q182 0 304 161.5t122 405.5q0 68 -13 122t-41 99q-43 17 -86.5 25t-87.5 8q-202 0 -329 -150.5t-127 -389.5z" />
<glyph unicode="&#xf1;" horiz-adv-x="1298" d="M72 0l217 1120h184l-37 -176q77 97 185 150t227 53q148 0 229.5 -80t81.5 -225q0 -36 -4.5 -77t-13.5 -89l-131 -676h-185l131 669q9 47 14 83t5 57q0 84 -53 131t-148 47q-148 0 -255 -98.5t-140 -267.5l-123 -621h-184zM473 1309q30 137 94.5 209.5t155.5 72.5 q37 0 69 -15.5t58 -45.5l47 -55q12 -16 26 -25t33 -14q38 0 62.5 35.5t44.5 119.5h125q-29 -137 -93.5 -209.5t-156.5 -72.5q-38 0 -71 15.5t-56 45.5l-45 55q-13 16 -29 26t-32 13q-39 0 -64.5 -36.5t-42.5 -118.5h-125z" />
<glyph unicode="&#xf2;" horiz-adv-x="1253" d="M94 424q0 122 39.5 248.5t102.5 212.5q99 134 221 198t276 64q191 0 308.5 -119t117.5 -311q0 -133 -39 -265t-102 -219q-98 -134 -220 -198t-278 -64q-197 0 -311.5 121.5t-114.5 331.5zM285 430q0 -152 63.5 -227.5t192.5 -75.5q185 0 306.5 161.5t121.5 409.5 q0 145 -65 219t-191 74q-104 0 -185 -48.5t-145 -147.5q-47 -74 -72.5 -169t-25.5 -196zM504 1638h197l209 -374h-154z" />
<glyph unicode="&#xf3;" horiz-adv-x="1253" d="M94 424q0 122 39.5 248.5t102.5 212.5q99 134 221 198t276 64q191 0 308.5 -119t117.5 -311q0 -133 -39 -265t-102 -219q-98 -134 -220 -198t-278 -64q-197 0 -311.5 121.5t-114.5 331.5zM285 430q0 -152 63.5 -227.5t192.5 -75.5q185 0 306.5 161.5t121.5 409.5 q0 145 -65 219t-191 74q-104 0 -185 -48.5t-145 -147.5q-47 -74 -72.5 -169t-25.5 -196zM631 1262l354 376h199l-399 -376h-154z" />
<glyph unicode="&#xf4;" horiz-adv-x="1253" d="M94 424q0 122 39.5 248.5t102.5 212.5q99 134 221 198t276 64q191 0 308.5 -119t117.5 -311q0 -133 -39 -265t-102 -219q-98 -134 -220 -198t-278 -64q-197 0 -311.5 121.5t-114.5 331.5zM285 430q0 -152 63.5 -227.5t192.5 -75.5q185 0 306.5 161.5t121.5 409.5 q0 145 -65 219t-191 74q-104 0 -185 -48.5t-145 -147.5q-47 -74 -72.5 -169t-25.5 -196zM453 1262l319 376h148l172 -376h-139l-127 237l-234 -237h-139z" />
<glyph unicode="&#xf5;" horiz-adv-x="1253" d="M94 424q0 122 39.5 248.5t102.5 212.5q99 134 221 198t276 64q191 0 308.5 -119t117.5 -311q0 -133 -39 -265t-102 -219q-98 -134 -220 -198t-278 -64q-197 0 -311.5 121.5t-114.5 331.5zM285 430q0 -152 63.5 -227.5t192.5 -75.5q185 0 306.5 161.5t121.5 409.5 q0 145 -65 219t-191 74q-104 0 -185 -48.5t-145 -147.5q-47 -74 -72.5 -169t-25.5 -196zM451 1309q30 137 94.5 209.5t155.5 72.5q37 0 69 -15.5t58 -45.5l47 -55q12 -16 26 -25t33 -14q38 0 62.5 35.5t44.5 119.5h125q-29 -137 -93.5 -209.5t-156.5 -72.5q-38 0 -71 15.5 t-56 45.5l-45 55q-13 16 -29 26t-32 13q-39 0 -64.5 -36.5t-42.5 -118.5h-125z" />
<glyph unicode="&#xf6;" horiz-adv-x="1253" d="M94 424q0 122 39.5 248.5t102.5 212.5q99 134 221 198t276 64q191 0 308.5 -119t117.5 -311q0 -133 -39 -265t-102 -219q-98 -134 -220 -198t-278 -64q-197 0 -311.5 121.5t-114.5 331.5zM285 430q0 -152 63.5 -227.5t192.5 -75.5q185 0 306.5 161.5t121.5 409.5 q0 145 -65 219t-191 74q-104 0 -185 -48.5t-145 -147.5q-47 -74 -72.5 -169t-25.5 -196zM492 1350l39 202h205l-41 -202h-203zM883 1350l39 202h203l-39 -202h-203z" />
<glyph unicode="&#xf7;" horiz-adv-x="1716" d="M217 557v170h1282v-170h-1282zM735 150v245h246v-245h-246zM735 889v246h246v-246h-246z" />
<glyph unicode="&#xf8;" horiz-adv-x="1253" d="M-29 -10l183 182q-30 49 -45 112t-15 138q0 122 39.5 249.5t102.5 213.5q98 134 219.5 198t277.5 64q87 0 161 -26t132 -77l162 164l86 -86l-172 -172q28 -55 42.5 -117.5t14.5 -130.5q0 -124 -39.5 -253.5t-101.5 -215.5q-97 -134 -218.5 -198t-279.5 -64 q-87 0 -160.5 26.5t-130.5 78.5l-172 -170zM287 420q0 -47 1.5 -67.5t6.5 -37.5l606 607q-37 35 -83.5 52t-104.5 17q-186 0 -306 -160.5t-120 -410.5zM352 199q39 -37 84.5 -54.5t104.5 -17.5q189 0 308.5 163.5t119.5 426.5q0 39 -2 58t-6 34z" />
<glyph unicode="&#xf9;" horiz-adv-x="1298" d="M117 276q0 30 5 75t15 93l131 676h185l-131 -669q-10 -49 -14.5 -84t-4.5 -58q0 -85 52 -131.5t147 -46.5q148 0 256 100t141 269l123 620h184l-217 -1120h-184l37 176q-78 -98 -185.5 -151.5t-228.5 -53.5q-147 0 -229 80.5t-82 224.5zM495 1638h197l209 -374h-154z" />
<glyph unicode="&#xfa;" horiz-adv-x="1298" d="M117 276q0 30 5 75t15 93l131 676h185l-131 -669q-10 -49 -14.5 -84t-4.5 -58q0 -85 52 -131.5t147 -46.5q148 0 256 100t141 269l123 620h184l-217 -1120h-184l37 176q-78 -98 -185.5 -151.5t-228.5 -53.5q-147 0 -229 80.5t-82 224.5zM622 1262l354 376h199l-399 -376 h-154z" />
<glyph unicode="&#xfb;" horiz-adv-x="1298" d="M117 276q0 30 5 75t15 93l131 676h185l-131 -669q-10 -49 -14.5 -84t-4.5 -58q0 -85 52 -131.5t147 -46.5q148 0 256 100t141 269l123 620h184l-217 -1120h-184l37 176q-78 -98 -185.5 -151.5t-228.5 -53.5q-147 0 -229 80.5t-82 224.5zM444 1262l319 376h148l172 -376 h-139l-127 237l-234 -237h-139z" />
<glyph unicode="&#xfc;" horiz-adv-x="1298" d="M117 276q0 30 5 75t15 93l131 676h185l-131 -669q-10 -49 -14.5 -84t-4.5 -58q0 -85 52 -131.5t147 -46.5q148 0 256 100t141 269l123 620h184l-217 -1120h-184l37 176q-78 -98 -185.5 -151.5t-228.5 -53.5q-147 0 -229 80.5t-82 224.5zM483 1350l39 202h205l-41 -202 h-203zM874 1350l39 202h203l-39 -202h-203z" />
<glyph unicode="&#xfd;" horiz-adv-x="1212" d="M-51 -426l31 154h106q77 0 131 42t121 164l57 107l-248 1079h195l186 -858l514 858h193l-727 -1224q-128 -215 -208.5 -268.5t-205.5 -53.5h-145zM610 1262l354 376h199l-399 -376h-154z" />
<glyph unicode="&#xfe;" horiz-adv-x="1300" d="M-6 -426l381 1982h184l-113 -606q74 97 174.5 147t223.5 50q172 0 267 -112.5t95 -315.5q0 -166 -59 -316.5t-170 -269.5q-74 -79 -167 -120.5t-196 -41.5q-119 0 -200 49.5t-121 147.5l-115 -594h-184zM354 416q0 -140 64 -215.5t182 -75.5q87 0 161.5 41t127.5 119 q57 82 92 193t35 212q0 147 -64 225t-184 78q-82 0 -156.5 -42t-132.5 -122q-57 -79 -91 -191t-34 -222z" />
<glyph unicode="&#xff;" horiz-adv-x="1212" d="M-51 -426l31 154h106q77 0 131 42t121 164l57 107l-248 1079h195l186 -858l514 858h193l-727 -1224q-128 -215 -208.5 -268.5t-205.5 -53.5h-145zM471 1350l39 202h205l-41 -202h-203zM862 1350l39 202h203l-39 -202h-203z" />
<glyph unicode="&#x131;" horiz-adv-x="569" d="M72 0l219 1120h184l-219 -1120h-184z" />
<glyph unicode="&#x152;" horiz-adv-x="2191" d="M94 582q0 209 92.5 395t264.5 321q123 98 298 146.5t400 48.5h1036l-33 -170h-739l-88 -442h711l-33 -170h-711l-104 -541h760l-33 -170h-1090q-162 0 -250.5 15.5t-166.5 50.5q-157 70 -235.5 199t-78.5 317zM307 582q0 -203 126.5 -307.5t373.5 -104.5h49h129l225 1153 h-120q-166 0 -295.5 -38t-216.5 -111q-133 -110 -202 -260.5t-69 -331.5z" />
<glyph unicode="&#x153;" horiz-adv-x="2105" d="M94 401q0 137 38 266.5t104 217.5q99 134 221 198t276 64q130 0 229.5 -58.5t153.5 -166.5q99 112 220 168.5t263 56.5q191 0 303.5 -114t112.5 -306q0 -46 -6 -98.5t-18 -112.5h-856q-4 -27 -6.5 -52t-2.5 -46q0 -139 85 -215t241 -76q120 0 228.5 27t199.5 79l-37 -182 q-99 -39 -204 -59.5t-214 -20.5q-161 0 -276 55t-162 154q-101 -105 -216.5 -157t-250.5 -52q-191 0 -308.5 119t-117.5 311zM285 430q0 -152 63.5 -227.5t192.5 -75.5q185 0 306.5 160t121.5 409q0 147 -64.5 221t-191.5 74q-104 0 -185 -48.5t-145 -147.5 q-47 -74 -72.5 -169t-25.5 -196zM1169 659l662 1q3 16 4.5 33t1.5 34q0 122 -71.5 193t-194.5 71q-138 0 -242.5 -86.5t-159.5 -245.5z" />
<glyph unicode="&#x178;" horiz-adv-x="1251" d="M129 1493h217l279 -614l532 614h227l-677 -782l-138 -711h-202l137 711zM494 1667l39 203h204l-41 -203h-202zM885 1667l39 203h202l-38 -203h-203z" />
<glyph unicode="&#x2c6;" horiz-adv-x="1024" d="M338 1262l319 376h148l172 -376h-139l-127 237l-234 -237h-139z" />
<glyph unicode="&#x2da;" horiz-adv-x="1024" d="M428 1524q0 116 79.5 195t194.5 79q116 0 195.5 -79t79.5 -195q0 -115 -79.5 -195t-195.5 -80q-115 0 -194.5 80t-79.5 195zM551 1524q0 -66 42.5 -109t108.5 -43q67 0 109.5 43t42.5 109q0 64 -43.5 107.5t-108.5 43.5q-66 0 -108.5 -42.5t-42.5 -108.5z" />
<glyph unicode="&#x2dc;" horiz-adv-x="1024" d="M336 1309q30 137 94.5 209.5t155.5 72.5q37 0 69 -15.5t58 -45.5l47 -55q12 -16 26 -25t33 -14q38 0 62.5 35.5t44.5 119.5h125q-29 -137 -93.5 -209.5t-156.5 -72.5q-38 0 -71 15.5t-56 45.5l-45 55q-13 16 -29 26t-32 13q-39 0 -64.5 -36.5t-42.5 -118.5h-125z" />
<glyph unicode="&#x2000;" horiz-adv-x="950" />
<glyph unicode="&#x2001;" horiz-adv-x="1901" />
<glyph unicode="&#x2002;" horiz-adv-x="950" />
<glyph unicode="&#x2003;" horiz-adv-x="1901" />
<glyph unicode="&#x2004;" horiz-adv-x="633" />
<glyph unicode="&#x2005;" horiz-adv-x="475" />
<glyph unicode="&#x2006;" horiz-adv-x="316" />
<glyph unicode="&#x2007;" horiz-adv-x="316" />
<glyph unicode="&#x2008;" horiz-adv-x="237" />
<glyph unicode="&#x2009;" horiz-adv-x="380" />
<glyph unicode="&#x200a;" horiz-adv-x="105" />
<glyph unicode="&#x2010;" horiz-adv-x="739" d="M92 479l33 164h539l-31 -164h-541z" />
<glyph unicode="&#x2011;" horiz-adv-x="739" d="M92 479l33 164h539l-31 -164h-541z" />
<glyph unicode="&#x2012;" horiz-adv-x="739" d="M92 479l33 164h539l-31 -164h-541z" />
<glyph unicode="&#x2013;" horiz-adv-x="1024" d="M86 489l28 144h824l-28 -144h-824z" />
<glyph unicode="&#x2014;" horiz-adv-x="2048" d="M86 489l28 144h1848l-28 -144h-1848z" />
<glyph unicode="&#x2018;" horiz-adv-x="651" d="M268 1001l35 173l225 319h129l-143 -319l-35 -173h-211z" />
<glyph unicode="&#x2019;" horiz-adv-x="651" d="M276 1001l144 320l35 172h211l-33 -172l-227 -320h-130z" />
<glyph unicode="&#x201a;" horiz-adv-x="651" d="M6 -238l144 320l34 172h211l-35 -172l-225 -320h-129z" />
<glyph unicode="&#x201c;" horiz-adv-x="1061" d="M268 1001l35 173l225 319h129l-143 -319l-35 -173h-211zM678 1001l35 173l225 319h129l-143 -319l-35 -173h-211z" />
<glyph unicode="&#x201d;" horiz-adv-x="1061" d="M276 1001l144 320l35 172h211l-35 -172l-225 -320h-130zM686 1001l143 320l35 172h211l-35 -172l-225 -320h-129z" />
<glyph unicode="&#x201e;" horiz-adv-x="1061" d="M6 -238l144 320l34 172h211l-35 -172l-225 -320h-129zM416 -238l143 320l35 172h211l-35 -172l-225 -320h-129z" />
<glyph unicode="&#x2022;" horiz-adv-x="1208" d="M307 762q0 124 86.5 209.5t212.5 85.5q124 0 209.5 -85.5t85.5 -209.5q0 -125 -86 -211t-211 -86t-211 86t-86 211z" />
<glyph unicode="&#x2026;" horiz-adv-x="2048" d="M133 0l49 254h211l-49 -254h-211zM815 0l49 254h211l-49 -254h-211zM1499 0l49 254h211l-49 -254h-211z" />
<glyph unicode="&#x202f;" horiz-adv-x="380" />
<glyph unicode="&#x2039;" horiz-adv-x="819" d="M127 559l16 82l549 418l-37 -201l-356 -270l252 -266l-37 -181z" />
<glyph unicode="&#x203a;" horiz-adv-x="819" d="M127 141l39 201l356 270l-252 267l35 180l387 -418l-14 -82z" />
<glyph unicode="&#x2044;" horiz-adv-x="342" d="M-537 -29l1235 1549h179l-1233 -1549h-181z" />
<glyph unicode="&#x205f;" horiz-adv-x="475" />
<glyph unicode="&#x2074;" horiz-adv-x="821" d="M84 854l25 131l493 518h166l-106 -540h137l-21 -109h-137l-37 -186h-141l37 186h-416zM209 963h311l82 415z" />
<glyph unicode="&#x20ac;" d="M-39 520l55 123h145q5 55 13 106.5t19 100.5h-173l56 123h151q97 276 257 411.5t388 135.5q103 0 195.5 -35.5t175.5 -106.5l-33 -213q-83 101 -166.5 148t-179.5 47q-143 0 -251 -97.5t-179 -289.5h520l-53 -123h-504q-12 -50 -20 -101t-12 -106h444l-55 -123h-393 q9 -195 88.5 -292t230.5 -97q109 0 205 43t198 139l-39 -239q-94 -51 -193 -77t-196 -26q-223 0 -354.5 146t-141.5 403h-198z" />
<glyph unicode="&#x2122;" horiz-adv-x="2048" d="M295 1399v94h518v-94h-203v-484h-114v484h-201zM926 915v578h172l174 -256l164 256h170v-578h-113v484l-195 -303h-55l-203 303v-484h-114z" />
<glyph unicode="&#xe000;" horiz-adv-x="1120" d="M0 1120h1120v-1120h-1120v1120z" />
<glyph unicode="&#xfb01;" horiz-adv-x="1323" d="M139 0l191 977h-176l26 143h176l15 78q38 198 133 278q96 80 301 80h174l-29 -153h-176q-100 0 -145.5 -39.5t-67.5 -144.5l-20 -99h688l-219 -1120h-185l195 978h-506l-190 -978h-185zM1083 1323l45 233h185l-45 -233h-185z" />
<glyph unicode="&#xfb02;" horiz-adv-x="1323" d="M139 0l191 977h-176l26 143h176l15 78q38 199 133 278.5t301 79.5h508l-303 -1556h-185l279 1403h-330q-100 0 -145.5 -39.5t-67.5 -144.5l-20 -99h303l-27 -143h-303l-190 -977h-185z" />
<glyph unicode="&#xfb03;" horiz-adv-x="2047" d="M139 0l190 977h-176l27 143h176l16 78q36 187 140 272q103 86 292 86h174l-30 -153h-176q-99 0 -145 -40t-66 -144l-20 -99h505l16 78q36 187 140 272q33 28 76 47q86 39 216 39h174l-30 -153h-176q-99 0 -145 -40t-66 -144l-20 -99h690l-217 -1120h-185l190 977h-505 l-190 -977h-185l190 977h-505l-190 -977h-185zM1776 1321l45 233h185l-45 -233h-185z" />
<glyph unicode="&#xfb04;" horiz-adv-x="2047" d="M139 0l190 977h-176l27 143h176l16 78q36 187 140 272q103 86 292 86h174l-30 -153h-176q-99 0 -145 -40t-66 -144l-20 -99h505l16 78q36 187 140 272q103 86 292 86h512l-302 -1556h-185l272 1403h-329q-99 0 -145 -40t-66 -144l-20 -99h303l-27 -143h-303l-190 -977 h-185l190 977h-505l-190 -977h-185z" />
<glyph horiz-adv-x="0" d="M-657 1294l39 203h204l-41 -203h-202zM-266 1294l39 203h202l-38 -203h-203z" />
<glyph horiz-adv-x="0" d="M-508 1262l258 264h207l-307 -264h-158z" />
<glyph horiz-adv-x="0" d="M-692 1294q35 109 96.5 164t146.5 55q35 0 65.5 -11t66.5 -36l32 -26q18 -14 37 -20.5t39 -6.5q39 0 67.5 27t39.5 73h125q-33 -109 -95.5 -164t-154.5 -55q-31 0 -58.5 10.5t-58.5 32.5l-35 25l-1 1q-43 32 -81 32q-34 0 -61 -25.5t-45 -75.5h-125z" />
<glyph horiz-adv-x="0" d="M-559 1526h182l148 -264h-140z" />
<glyph horiz-adv-x="0" d="M-686 1262l262 266h215l158 -266h-135l-140 178l-209 -178h-151z" />
</font>
</defs>
</svg>
