<?xml version="1.0" standalone="no"?>
<!DOCTYPE svg PUBLIC "-//W3C//DTD SVG 1.1//EN" "http://www.w3.org/Graphics/SVG/1.1/DTD/svg11.dtd" >
<svg xmlns="http://www.w3.org/2000/svg">
<metadata>
This is a custom SVG webfont generated by Font Squirrel.
Copyright   : Copyright c 2003 by Bitstream Inc All Rights ReservedDejaVu changes are in public domain
Foundry     : DejaVu fonts team
Foundry URL : httpdejavusourceforgenet
</metadata>
<defs>
<font id="webfontsb7bS26H" horiz-adv-x="1232" >
<font-face units-per-em="2048" ascent="1556" descent="-492" />
<missing-glyph horiz-adv-x="500" />
<glyph unicode=" " />
<glyph unicode="!" d="M516 0v254h203v-254h-203zM516 838v655h203v-655l-21 -357h-161z" />
<glyph unicode="&#x22;" d="M338 938v555h174v-555h-174zM721 938v555h174v-555h-174z" />
<glyph unicode="#" d="M2 414v153h297l84 334h-266v154h303l104 415h160l-104 -415h245l105 415h160l-105 -415h244v-154h-281l-84 -334h250v-153h-289l-104 -414h-160l105 414h-246l-105 -414h-159l104 414h-258zM459 567h246l83 334h-245z" />
<glyph unicode="$" d="M190 92v180q109 -66 201 -96q94 -31 201 -35v459q-200 31 -301 123q-100 92 -101 240q0 160 105 251q102 90 297 107v235h100v-235q92 -6 162 -21q74 -14 164 -40v-173q-76 37 -166 66q-84 27 -160 29v-432q209 -31 314 -127q109 -98 108 -252q0 -152 -117 -256 q-115 -102 -305 -113v-303h-100v301q-94 6 -203 29q-88 18 -199 63zM371 973q0 -86 55 -135.5t166 -67.5v414q-100 -2 -162 -62q-59 -55 -59 -149zM692 145q111 3 172 62t62 158q0 94 -56 145q-53 51 -178 70v-435z" />
<glyph unicode="%" d="M33 1112q0 135 92 227.5t227 92.5q70 0 123 -23q57 -25 102.5 -70t69.5 -104q25 -58 25 -123q0 -135 -92.5 -227t-227.5 -92t-227 92t-92 227zM86 561l1042 418l41 -96l-1048 -418zM168 1112q0 -78 53 -131t131 -53q74 0 131 53q53 51 53.5 131t-53.5 131q-57 53 -131 53 q-78 0 -131 -53t-53 -131zM561 319q0 135 92 227.5t226 92.5q65 0 122 -25t103 -69q47 -47 72 -105q25 -59 24 -121q0 -135 -92 -227t-229 -92q-135 0 -228 92q-90 90 -90 227zM696 319.5q0 -79.5 52 -131.5q53 -53 130.5 -53t131 53.5t53.5 131t-53.5 131t-131 53.5 t-130.5 -53q-52 -52 -52 -131.5z" />
<glyph unicode="&#x26;" d="M57 444q0 133 70 254q66 113 207 217q-47 68 -74 142q-25 68 -24 139q0 150 100 238q98 86 272 86q68 0 131 -13q55 -10 135 -34v-183q-53 37 -122 58q-61 18 -131 18q-98 0 -152 -45q-57 -47 -57 -123q0 -55 28 -123q25 -55 107 -168l416 -559q41 51 59 123 q18 74 18 180q0 8 -4 103v6h164v-39q0 -160 -37 -283q-35 -115 -112 -209l170 -229h-213l-78 109q-82 -70 -176 -105q-90 -33 -199 -33q-215 0 -356.5 135t-141.5 338zM233 475q0 -152 101 -250q104 -100 254 -100q43 0 88 12q43 12 90 35q31 16 45 27q12 8 33 24l-428 580 q-94 -74 -137 -154q-46 -82 -46 -174z" />
<glyph unicode="'" d="M528 938v555h174v-555h-174z" />
<glyph unicode="(" d="M426 643q0 221 74 449q72 221 225 462h160q-135 -233 -199 -454q-66 -231 -65.5 -456.5t65.5 -457.5q61 -219 199 -456h-160q-152 238 -225.5 463t-73.5 450z" />
<glyph unicode=")" d="M348 -270q137 244 199 458q66 231 65.5 454.5t-65.5 455.5q-61 219 -199 456h160q154 -242 225 -462q74 -227 74 -449q0 -223 -74 -450q-72 -221 -225 -463h-160z" />
<glyph unicode="*" d="M166 858l358 195l-358 194l57 99l336 -203v377h115v-377l336 203l57 -99l-358 -194l358 -195l-57 -98l-336 203v-377h-115v377l-336 -203z" />
<glyph unicode="+" d="M88 557v170h444v444h168v-444h445v-170h-445v-444h-168v444h-444z" />
<glyph unicode="," d="M403 -287l99 383v207h252v-207l-197 -383h-154z" />
<glyph unicode="-" d="M356 479v164h521v-164h-521z" />
<glyph unicode="." d="M489 0v305h252v-305h-252z" />
<glyph unicode="/" d="M102 -190l787 1683h190l-786 -1683h-191z" />
<glyph unicode="0" d="M133 745.5q0 380.5 123 577.5t360.5 197t360.5 -197t123 -577.5t-123 -577.5t-360.5 -197t-360.5 197t-123 577.5zM336 745.5q0 -315.5 70 -462.5q72 -152 211 -152t210 152q70 147 70 462.5t-70 462.5q-72 152 -211 152t-210 -152q-70 -147 -70 -462.5zM483 750 q0 57 39 96t92 39q57 0 96.5 -39t39.5 -96q0 -55 -39 -94.5t-96.5 -39.5t-94.5 37.5t-37 96.5z" />
<glyph unicode="1" d="M246 1235v184l336 74h202v-1323h310v-170h-824v170h314v1141z" />
<glyph unicode="2" d="M152 0v170l327 348q121 129 193 213q104 127 135 197q35 80 35 155q0 126 -74 197q-72 70 -201 70q-92 0 -190 -33q-106 -35 -213 -100v204q104 49 202.5 74t196.5 25q219 0 352.5 -117t133.5 -305q0 -92 -45 -193q-43 -96 -144 -211q-55 -66 -162 -180l-325 -344h686 v-170h-907z" />
<glyph unicode="3" d="M137 45v201q104 -53 201 -78q106 -27 197 -27q166 0 256 74q88 74 88 217q0 131 -88.5 207t-241.5 76h-154v166h154q139 0 217 61.5t78 169.5q0 117 -72 176q-74 61 -207 62q-94 0 -184 -21q-106 -25 -199 -59v186q131 33 215 47q102 16 168 17q221 0 348 -109 q131 -113 131 -291q0 -119 -69 -205q-68 -84 -199 -116q150 -41 225 -137q78 -100 78 -250q0 -207 -139 -324q-137 -117 -383 -117q-102 0 -211 19q-103 18 -209 55z" />
<glyph unicode="4" d="M102 356v191l600 946h234v-973h199v-164h-199v-356h-201v356h-633zM264 520h471v789z" />
<glyph unicode="5" d="M143 35v205q92 -49 184.5 -74t190.5 -25q170 0 258 88q90 90 90 250q0 158 -94 248t-260 90q-82 0 -158 -18q-77 -18 -147 -56v750h756v-170h-572v-367q47 16 86 23q57 8 88 8q233 0 368.5 -137t135.5 -371q0 -236 -143 -373q-141 -135 -389 -135q-113 0 -218 17 q-96 14 -176 47z" />
<glyph unicode="6" d="M133 745q0 375 146 576q143 199 421 199q78 0 148 -15q68 -14 143 -45v-186q-72 41 -135 57q-71 18 -147 19q-193 0 -291 -144q-98 -145 -99 -426q49 102 134 154q88 53 194 53q213 0 334 -133q119 -131 119 -375q0 -246 -121 -375q-123 -133 -344 -133q-262 0 -381 187 q-121 188 -121 587zM354 479q0 -166 74 -258t203 -92q135 0 203 88q68 90 67.5 262t-67.5 262q-68 88 -203 88q-127 0 -203 -94q-74 -92 -74 -256z" />
<glyph unicode="7" d="M139 1323v170h940v-86l-534 -1407h-211l520 1323h-715z" />
<glyph unicode="8" d="M131 399q0 158 80 260q78 98 229 134q-129 34 -202 122q-72 86 -72 218q0 178 121 282q119 104 329.5 104.5t329.5 -104.5q121 -104 121 -282q0 -131 -72 -218q-74 -89 -202 -122q152 -35 229 -134q80 -102 80 -258q0 -201 -129 -315q-131 -115 -357 -115 q-229 0 -356 113q-129 112 -129 315zM334 420q0 -138 74 -215q74 -76 209 -76t208 76q74 78 74 215t-73.5 213t-209 76t-209 -76t-73.5 -213zM367 1114q0 -119 63.5 -182.5t186 -63.5t186 63.5t63.5 182.5q0 123 -63.5 186.5t-186 63.5t-186 -63.5t-63.5 -186.5z" />
<glyph unicode="9" d="M127 1014q0 244 121 372q123 133 344 134q262 0 381 -187q121 -188 121 -588q0 -375 -146 -575q-143 -199 -422 -199q-78 0 -147 15q-68 14 -143 45v186q72 -41 135 -57q71 -18 147 -19q193 0 291 144q98 145 98 426q-45 -100 -133 -153.5t-194 -53.5q-213 0 -334 133 q-119 131 -119 377zM326 1012q0 -172 67 -262q68 -88 203 -88q127 0 203 94q74 92 73 256q0 166 -73.5 258t-202.5 92q-135 0 -203 -88q-67 -90 -67 -262z" />
<glyph unicode=":" d="M489 0v305h252v-305h-252zM489 760v303h252v-303h-252z" />
<glyph unicode=";" d="M403 -287l99 383v207h252v-207l-197 -383h-154zM489 760v303h252v-303h-252z" />
<glyph unicode="&#x3c;" d="M88 559v166l1057 418v-182l-850 -320l850 -317v-183z" />
<glyph unicode="=" d="M88 352v172h1057v-172h-1057zM88 760v170h1057v-170h-1057z" />
<glyph unicode="&#x3e;" d="M88 141v183l850 317l-850 320v182l1057 -418v-166z" />
<glyph unicode="?" d="M244 1219v188q95 58 190 86q92 27 199 27q184 0 297 -97q111 -96 110 -256q0 -76 -34 -141q-37 -70 -127 -158l-88 -86q-70 -68 -89 -108q-18 -43 -18 -103v-47v-123h-190v154q0 98 30.5 165.5t114.5 151.5l90 89q57 55 86 104q23 39 23 92q0 88 -66 143q-63 55 -174 56 q-76 0 -168 -35q-84 -30 -186 -102zM487 0v254h203v-254h-203z" />
<glyph unicode="@" d="M27 543q0 389 188 620.5t504 231.5q207 0 334 -133q125 -131 125 -357v-770h-144v111q-35 -61 -102 -96q-66 -35 -148 -35q-162 0 -266 121q-106 123 -106 309t106 309q104 121 266 121q78 0 148 -35q63 -33 102 -96v63q0 156 -88 250q-90 96 -233 96 q-246 0 -391.5 -192.5t-145.5 -517.5q0 -330 166 -524.5t438 -194.5q47 0 109 10q49 8 110 31l48 -135q-66 -25 -125 -37q-61 -12 -119 -12q-358 0 -567 233.5t-209 628.5zM567 545q0 -131 64 -207q66 -78 172 -78t172 78q63 76 63 207t-63 207q-66 78 -172.5 77.5 t-171.5 -77.5q-64 -76 -64 -207z" />
<glyph unicode="A" d="M37 0l457 1493h245l457 -1493h-209l-110 389h-523l-108 -389h-209zM403 551h426l-213 764z" />
<glyph unicode="B" d="M166 0v1493h442q229 0 353 -98q125 -100 124 -281q0 -135 -65 -217q-61 -76 -197 -98q147 -20 230 -125q84 -106 84 -264q0 -201 -133 -306q-131 -104 -396 -104h-442zM369 166h239q176 0 250 61q76 63 76 203q0 147 -80 215t-246 68h-239v-547zM369 877h235 q143 0 211 57q66 55 66 180q0 115 -63.5 164t-213.5 49h-235v-450z" />
<glyph unicode="C" d="M139 745q0 365 160 570t444 205q96 0 172 -21q82 -23 158 -61v-207q-74 61 -160 92q-92 33 -170 33q-197 0 -295 -151.5t-98 -459t98.5 -459t294.5 -151.5q80 0 172 33q82 29 158 92v-207q-76 -39 -158 -61q-76 -20 -172 -21q-287 0 -446 203q-158 200 -158 571z" />
<glyph unicode="D" d="M137 0v1493h303q340 0 504 -182q162 -180 162 -566q0 -383 -162 -563q-164 -182 -504 -182h-303zM340 166h96q256 0 356.5 125t100.5 454q0 332 -100.5 457t-356.5 125h-96v-1161z" />
<glyph unicode="E" d="M197 0v1493h886v-170h-684v-442h654v-170h-654v-541h703v-170h-905z" />
<glyph unicode="F" d="M233 0v1493h879v-170h-676v-440h613v-170h-613v-713h-203z" />
<glyph unicode="G" d="M102 745q0 365 160 570t445 205q98 0 180 -27q94 -31 166 -80v-207q-78 76 -166 113q-86 37 -180 37q-199 0 -295 -152q-98 -154 -99 -459q0 -311 94.5 -460.5t294.5 -149.5q72 0 117 15q53 16 92 49v401h-217v166h410v-643q-78 -72 -182 -113q-98 -39 -220 -39 q-285 0 -442 203q-158 204 -158 571z" />
<glyph unicode="H" d="M137 0v1493h203v-612h553v612h203v-1493h-203v711h-553v-711h-203z" />
<glyph unicode="I" d="M201 0v170h313v1153h-313v170h829v-170h-313v-1153h313v-170h-829z" />
<glyph unicode="J" d="M109 61v236q96 -84 188 -121q100 -41 201 -41q145 0 200.5 74t55.5 278v836h-381v170h583v-1006q0 -281 -106 -399q-104 -117 -352 -117q-90 0 -191 23q-92 20 -198 67z" />
<glyph unicode="K" d="M137 0v1493h203v-664l631 664h237l-581 -610l598 -883h-244l-487 748l-154 -164v-584h-203z" />
<glyph unicode="L" d="M215 0v1493h203v-1323h721v-170h-924z" />
<glyph unicode="M" d="M86 0v1493h270l258 -760l260 760h271v-1493h-187v1319l-266 -787h-153l-267 787v-1319h-186z" />
<glyph unicode="N" d="M139 0v1493h256l504 -1229v1229h195v-1493h-256l-504 1229v-1229h-195z" />
<glyph unicode="O" d="M117 745q0 391 123 582q125 193 376.5 193t376.5 -193q123 -190 123 -581.5t-123 -581.5q-125 -193 -377 -193q-254 0 -376.5 190.5t-122.5 583.5zM328 745.5q0 -327.5 67.5 -469t221 -141.5t221 141.5t67.5 469t-67.5 469t-221 141.5t-221 -141.5t-67.5 -469z" />
<glyph unicode="P" d="M197 0v1493h436q252 0 379 -113q129 -115 129 -334t-129 -333q-127 -113 -379 -113h-234v-600h-202zM399 766h234q139 0 219 74q78 72 78 207q0 133 -78 206.5t-219 73.5h-234v-561z" />
<glyph unicode="Q" d="M117 745.5q0 391.5 123 581.5q125 193 376.5 193t376.5 -193q123 -190 123 -582q0 -289 -69 -473q-70 -182 -207 -252l200 -190l-151 -100l-234 243q-2 0 -9 -1t-11 -1h-21q-250 0 -374 193q-123 190 -123 581.5zM328 745.5q0 -327.5 67.5 -469t221 -141.5t221 141.5 t67.5 469t-67.5 469t-221 141.5t-221 -141.5t-67.5 -469z" />
<glyph unicode="R" d="M143 0v1493h416q244 0 377 -111q131 -111 131 -321q0 -150 -80 -242q-80 -94 -227 -114q80 -23 133 -76.5t137 -220.5l203 -408h-217l-178 377q-78 162 -138 207q-63 47 -161 47h-193v-631h-203zM346 797h221q143 0 215 65.5t72 198.5q0 131 -76 199q-78 68 -219 67h-213 v-530z" />
<glyph unicode="S" d="M139 1079q0 200 135 320q137 121 357 121q86 0 180 -19q92 -18 201 -59v-205q-88 55 -185 88q-92 31 -186 31q-145 0 -225 -66q-84 -68 -84 -180q0 -98 55 -151.5t203 -86.5l106 -24q211 -49 305 -154q96 -106 97 -286q0 -213 -131 -324q-135 -113 -385 -113 q-98 0 -211 23q-104 20 -213 67v215q109 -70 217 -106q104 -35 207 -35q152 0 237.5 67.5t85.5 192.5q0 111 -59 170q-61 61 -203 92l-108 25q-205 45 -302 141q-94 94 -94 256z" />
<glyph unicode="T" d="M47 1323v170h1139v-170h-467v-1323h-203v1323h-469z" />
<glyph unicode="U" d="M147 573v920h203v-1012q0 -109 6 -155q6 -49 21 -72q31 -57 92 -88t147 -31t148 31q57 29 92 88q14 23 21 72q6 46 6 153v1014h202v-920q0 -227 -28 -325q-28 -95 -99 -160q-68 -61 -151 -88q-90 -29 -190.5 -29t-190.5 29q-80 25 -152 88q-72 66 -98 160 q-29 102 -29 325z" />
<glyph unicode="V" d="M57 1493h209l350 -1323l351 1323h209l-437 -1493h-245z" />
<glyph unicode="W" d="M0 1493h197l143 -1212l170 802h211l172 -804l143 1214h197l-223 -1493h-191l-203 887l-202 -887h-191z" />
<glyph unicode="X" d="M18 0l500 791l-432 702h217l328 -563l334 563h217l-447 -702l479 -791h-217l-366 643l-395 -643h-218z" />
<glyph unicode="Y" d="M37 1493h215l364 -659l363 659h217l-479 -823v-670h-203v670z" />
<glyph unicode="Z" d="M156 0v154l759 1169h-737v170h969v-154l-780 -1169h802v-170h-1013z" />
<glyph unicode="[" d="M463 -270v1826h424v-143h-240v-1540h240v-143h-424z" />
<glyph unicode="\" d="M102 1493h191l786 -1683h-190z" />
<glyph unicode="]" d="M346 -127h240v1540h-240v143h424v-1826h-424v143z" />
<glyph unicode="^" d="M72 936l456 557h177l456 -557h-178l-367 395l-366 -395h-178z" />
<glyph unicode="_" d="M0 -403h1233v-80h-1233v80z" />
<glyph unicode="`" d="M279 1638h198l281 -376h-154z" />
<glyph unicode="a" d="M133 326q0 186 125 284q123 96 369 97h247v28q0 133 -67.5 194.5t-214.5 61.5q-98 0 -190.5 -26.5t-186.5 -79.5v184q106 41 195 59q92 18 182 19q137 0 237 -41q98 -40 160 -123q39 -51 53 -123q16 -78 17 -221v-639h-185v166q-57 -100 -149 -148q-90 -47 -217 -47 q-170 0 -272.5 96.5t-102.5 258.5zM317 338q0 -102 61.5 -157.5t168.5 -55.5q152 0 239.5 106.5t87.5 290.5v41h-172h-61q-156 0 -242 -57q-82 -55 -82 -168z" />
<glyph unicode="b" d="M193 0v1556h184v-579q43 84 121 127q76 43 180 43q201 0 317.5 -155.5t116.5 -428.5q0 -276 -116.5 -434t-319.5 -158q-98 0 -176 43q-76 43 -123 127v-141h-184zM377 559q0 -207 69 -321q68 -111 203 -111q133 0 201 108.5t68 323.5t-68 323.5t-201 108.5 q-135 0 -203 -110q-69 -115 -69 -322z" />
<glyph unicode="c" d="M195 559q0 276 147 432t406 156q84 0 157 -21q78 -23 156 -65v-193q-80 70 -146 95q-76 29 -167 28q-172 0 -267 -112q-92 -111 -92 -320q0 -203 94 -319q92 -113 265 -113q100 0 172 29q77 31 141 92v-191q-78 -45 -152 -65q-76 -20 -161 -21q-258 0 -405.5 156 t-147.5 432z" />
<glyph unicode="d" d="M123 563q0 272 116.5 428t319.5 156q101 0 178 -43q78 -43 121 -127v579h184v-1556h-184v141q-47 -84 -123 -127t-176 -43q-203 0 -319.5 158t-116.5 434zM317 559q0 -215 68 -323.5t201 -108.5q132 0 202 111q70 109 70 321.5t-70 321.5q-71 111 -202 110 q-133 0 -201 -108.5t-68 -323.5z" />
<glyph unicode="e" d="M123 559q0 270 143 428q143 160 385 160q215 0 338 -145.5t123 -395.5v-90h-797v-6q0 -182 94.5 -282.5t270.5 -100.5q86 0 184 29q109 31 205 84v-183q-111 -45 -203 -65q-94 -20 -188 -21q-260 0 -407.5 156t-147.5 432zM322 659h606q-4 164 -76 248t-209 84 q-133 0 -219 -88q-88 -90 -102 -244z" />
<glyph unicode="f" d="M195 977v143h299v78q0 186 84 270q88 88 264 88h221v-153h-209q-96 0 -137 -41q-39 -39 -39 -143v-99h385v-143h-385v-977h-184v977h-299z" />
<glyph unicode="g" d="M123 569q0 262 116.5 420t313.5 158q109 0 182 -43q78 -45 123 -133v145h184v-1044q0 -254 -118 -381q-121 -131 -351 -131q-82 0 -159 14q-96 18 -166 41v182q98 -46 178 -67q84 -23 147 -23q150 0 217.5 80t67.5 258v8v125q-41 -92 -121 -139q-78 -47 -184 -47 q-197 0 -313.5 157.5t-116.5 419.5zM317 569q0 -207 72 -315.5t207 -108.5q127 0 195 109q68 106 67 315q0 206 -67 314q-68 109 -197 108q-135 0 -207 -108q-70 -107 -70 -314z" />
<glyph unicode="h" d="M195 0v1556h184v-604q49 96 133 146q82 49 199 49q170 0 256 -113q84 -111 84 -340v-694h-185v694q0 150 -53 221.5t-166 71.5q-127 0 -198 -92q-70 -90 -70 -262v-633h-184z" />
<glyph unicode="i" d="M178 0v143h365v834h-287v143h471v-977h365v-143h-914zM543 1323v233h184v-233h-184z" />
<glyph unicode="j" d="M186 -270h234q88 0 135 63q45 59 45 187v997h-317v143h501v-1140q0 -193 -90 -299.5t-254 -106.5h-254v156zM600 1323v233h184v-233h-184z" />
<glyph unicode="k" d="M236 0v1556h190v-901l483 465h224l-441 -422l510 -698h-225l-414 578l-137 -129v-449h-190z" />
<glyph unicode="l" d="M160 1423v144h479v-1161q0 -123 45 -186.5t135 -63.5h215v-156h-233q-168 0 -256 106q-90 109 -90 300v1017h-295z" />
<glyph unicode="m" d="M109 0v1120h167v-96q35 61 82 92q49 31 113 31q76 0 127 -35q49 -35 78 -106q35 74 86 106q53 35 127 35q135 0 190.5 -104.5t55.5 -393.5v-649h-168v641q0 240 -27 295q-27 57 -96 57q-78 0 -108.5 -61.5t-30.5 -290.5v-641h-168v641q0 240 -29 297q-29 55 -102.5 55 t-100.5 -61q-29 -63 -29 -291v-641h-167z" />
<glyph unicode="n" d="M195 0v1120h184v-168q49 96 133 146q82 49 199 49q170 0 256 -113q84 -111 84 -340v-694h-185v694q0 150 -53 221.5t-166 71.5q-127 0 -198 -92q-70 -90 -70 -262v-633h-184z" />
<glyph unicode="o" d="M137 559q0 286 123 436q123 152 356.5 152t356.5 -152q123 -151 123 -436q0 -289 -123 -438.5t-356.5 -149.5t-356.5 149.5t-123 438.5zM332 559q0 -211 71 -323q70 -109 213.5 -109t212.5 109q72 113 72 323q0 215 -71.5 323.5t-213 108.5t-213 -108.5t-71.5 -323.5z " />
<glyph unicode="p" d="M190 -426v1546h185v-143q47 84 122.5 127t176.5 43q203 0 319 -158q115 -154 115 -434q0 -272 -117 -428t-317 -156q-101 0 -178 43q-78 43 -121 127v-567h-185zM375 559q0 -207 69 -321q68 -111 203 -111q133 0 200.5 108.5t67.5 323.5t-67.5 323.5t-200.5 108.5 q-135 0 -203 -110q-69 -115 -69 -322z" />
<glyph unicode="q" d="M137 551q0 276 117 434t317 158q100 0 176 -43t123 -127v143h185v-1546h-185v569q-47 -84 -122 -127q-80 -45 -177 -45q-201 0 -317.5 156t-116.5 428zM332 555q0 -215 67.5 -323.5t200.5 -108.5t201 110q70 115 69.5 322t-69.5 322q-68 111 -201 110.5t-200.5 -109 t-67.5 -323.5z" />
<glyph unicode="r" d="M362 0v1120h185v-219q45 117 141 182q94 63 227 64q76 0 127 -17q61 -20 113 -53v-188q-57 45 -121 67q-59 20 -133 21q-170 0 -262 -109q-92 -106 -92 -311v-557h-185z" />
<glyph unicode="s" d="M213 41v190q109 -55 197 -79q92 -27 178 -27q121 0 188.5 49t67.5 139q0 127 -246 176l-6 3l-70 14q-158 31 -231.5 104.5t-73.5 200.5q0 162 109 248q111 88 311 88q86 0 174 -17q82 -14 162 -49v-180q-86 49 -160 70q-84 23 -162 22q-123 0 -186 -41q-61 -40 -62 -123 q0 -76 46 -112q47 -39 229 -72l74 -14q135 -25 209 -105q70 -76 69 -202q0 -166 -119 -261q-117 -92 -327 -92q-92 0 -174 17q-74 14 -197 53z" />
<glyph unicode="t" d="M131 977v143h299v318h184v-318h418v-143h-418v-608q0 -121 48 -172q47 -49 163 -50h207v-147h-225q-205 0 -293 84q-84 82 -84 285v608h-299z" />
<glyph unicode="u" d="M195 424v694h184v-694q0 -150 53 -221.5t166 -71.5q131 0 199 92q70 94 69 262v633h185v-1118h-185v168q-49 -100 -133 -148q-86 -49 -198 -49q-174 0 -256 113q-84 115 -84 340z" />
<glyph unicode="v" d="M100 1120h191l325 -940l326 940h191l-398 -1120h-237z" />
<glyph unicode="w" d="M0 1120h182l195 -905l160 578h157l162 -578l195 905h182l-262 -1120h-176l-179 614l-178 -614h-176z" />
<glyph unicode="x" d="M76 0l440 584l-401 536h204l297 -405l295 405h207l-401 -536l440 -584h-213l-328 449l-327 -449h-213z" />
<glyph unicode="y" d="M104 1120h195l332 -876l327 876h195l-295 -760l-117 -309q-96 -256 -133 -321q-45 -76 -114 -117q-66 -39 -162 -39h-148v154h109q80 0 127 47q45 45 117 243z" />
<glyph unicode="z" d="M203 0v170l643 805h-619v147h813v-168l-643 -804h643v-150h-837z" />
<glyph unicode="{" d="M221 541v143h62q143 0 194 57q53 59 53 207v240q0 223 84 295q86 74 334 73h64v-143h-70q-139 0 -182 -43t-43 -186v-248q0 -158 -45 -227q-47 -72 -156 -97q109 -27 156 -98q45 -70 45 -227v-248q0 -143 43 -186t182 -43h70v-144h-64q-248 0 -334 74q-84 72 -84 295v239 q0 150 -53 209q-51 57 -194 58h-62z" />
<glyph unicode="|" d="M530 -483v2048h172v-2048h-172z" />
<glyph unicode="}" d="M221 -190h68q139 0 184 45q43 43 43 184v248q0 158 45 227q47 72 156 98q-109 25 -156 97q-45 70 -45 227v248q0 141 -43 184q-45 45 -184 45h-68v143h62q250 0 333.5 -73.5t83.5 -294.5v-240q0 -147 54 -207q51 -57 194 -57h64v-143h-64q-143 0 -194 -58 q-53 -59 -54 -209v-239q0 -221 -84 -295t-333 -74h-62v144z" />
<glyph unicode="~" d="M88 492v174q74 59 152 88q72 27 155 26q53 0 103 -12q68 -16 125 -41q4 -2 32 -14q117 -55 209 -56q72 0 139.5 31t141.5 92v-174q-74 -57 -146 -86q-74 -29 -151 -28q-92 0 -203 51q-6 2 -13 5t-11.5 6t-8.5 3q-72 31 -129 45q-53 12 -102 12q-78 0 -150 -30 q-75 -33 -143 -92z" />
<glyph unicode="&#xa0;" />
<glyph unicode="&#xa1;" d="M516 0v655l21 357h161l21 -357v-655h-203zM516 1239v254h203v-254h-203z" />
<glyph unicode="&#xa2;" d="M213 559q0 250 131 408q131 160 354 178v287h103v-287q63 -4 123 -21q78 -23 137 -47v-172q-70 41 -131 62q-72 25 -129 26v-870q70 6 129 27q61 20 131 63v-172q-59 -25 -137 -47q-59 -16 -123 -21v-286h-103v286q-227 23 -356 178.5t-129 407.5zM406 559 q0 -184 79 -301q82 -119 213 -131v864q-131 -12 -213 -131q-79 -117 -79 -301z" />
<glyph unicode="&#xa3;" d="M139 0v170h236v465h-199v143h199v238q0 254 110.5 379t331.5 125q70 0 133 -15q68 -15 142 -43v-184q-66 45 -125 65q-68 23 -131 23q-131 0 -197 -90q-63 -88 -64 -281v-217h371v-143h-371v-465h537v-170h-973z" />
<glyph unicode="&#xa4;" d="M205 285l166 166q-29 49 -45 98q-14 43 -15 92q0 53 14.5 96t47.5 92l-168 166l94 95l166 -168q49 33 92 47t96 14q49 0 92 -14q49 -16 99 -45l166 166l90 -93l-166 -166q29 -45 45 -96q14 -43 14 -94q0 -53 -14 -96q-12 -39 -47 -90l168 -166l-94 -94l-166 167 q-49 -33 -92 -47t-94.5 -14t-96.5 14.5t-96 42.5l-164 -163zM438 643q0 -92 62 -154q63 -63 153 -63q92 0 153.5 63.5t61.5 153.5t-61.5 151.5t-153.5 61.5t-153.5 -61.5t-61.5 -151.5z" />
<glyph unicode="&#xa5;" d="M37 1493h215l364 -659l363 659h217l-330 -561h252v-111h-315l-86 -151v-35h401v-111h-401v-524h-203v524h-399v111h399v35l-90 151h-309v111h243z" />
<glyph unicode="&#xa6;" d="M530 -350v758h172v-758h-172zM530 674v758h172v-758h-172z" />
<glyph unicode="&#xa7;" d="M199 723q0 90 47 162q47 74 137 121q-55 39 -90 100q-29 51 -29 125q0 129 101 209q102 80 266 80q78 0 149 -15q74 -14 156 -43v-164q-78 37 -154 58q-78 20 -129 20q-98 0 -151 -41t-53 -110q0 -92 204 -205l41 -23q212 -120 277 -196q66 -78 65 -178q0 -90 -45 -160 t-139 -123q63 -55 90 -107q29 -57 29 -118q0 -141 -102.5 -225.5t-274.5 -84.5q-78 0 -150 15q-84 16 -165 43v164q78 -37 161 -58q82 -20 131 -20q102 0 158 43q57 45 57 117q0 102 -221 225l-24 14q-213 119 -279 197q-63 76 -63 178zM362 754q0 -76 70 -144 q72 -70 318 -200q63 49 92 90q31 46 30 92q0 76 -71 143q-70 68 -316 201q-63 -47 -92 -90q-31 -46 -31 -92z" />
<glyph unicode="&#xa8;" d="M319 1350v202h203v-202h-203zM711 1350v202h202v-202h-202z" />
<glyph unicode="&#xa9;" d="M0 741q0 127 45 236q43 102 137 201q88 88 199 135q104 45 235.5 45t235.5 -45q111 -47 199 -135q94 -98 137 -201q45 -109 45 -236q0 -129 -45 -233q-47 -111 -137 -201q-92 -90 -199 -137q-104 -45 -236 -45q-129 0 -233 45q-111 47 -201 137t-137 201q-45 104 -45 233 zM102 741.5q0 -106.5 39 -196.5q41 -94 113 -166q78 -78 166 -115t196 -37t197 37q88 37 166 115q76 76 113 166q39 94 38 196q0 98 -38 197q-37 92 -113 168t-166 113q-89 37 -196.5 36.5t-196.5 -36.5q-90 -37 -166 -113q-70 -70 -113 -168q-39 -90 -39 -196.5zM250 741 q0 172 104 275q102 100 283 100q70 0 119 -10t108 -35v-108q-61 29 -114 41q-66 14 -113 14q-117 0 -184.5 -74t-67.5 -203q0 -133 70 -202q72 -72 200 -72q53 0 107 12q47 10 102 39v-104q-49 -20 -108.5 -32.5t-118.5 -12.5q-180 0 -283 100q-104 100 -104 272z" />
<glyph unicode="&#xaa;" d="M270 950q0 127 92 199q90 70 267 70h182v4q0 90 -59 137q-57 45 -177 45q-53 0 -114 -19q-76 -23 -129 -49v127q57 23 135 41q63 14 131 15q184 0 270 -86t86 -269v-448h-143v112q-49 -63 -115 -98q-63 -33 -147 -33q-131 0 -205 67.5t-74 184.5zM293 469v123h668v-123 h-668zM416 958q0 -61 43 -102q41 -39 116 -39q104 0 170 72t66 186v29h-127q-143 0 -207 -35q-61 -34 -61 -111z" />
<glyph unicode="&#xab;" d="M119 559v82l469 418v-191l-301 -268l301 -268v-191zM573 559v82l469 418v-191l-301 -268l301 -268v-191z" />
<glyph unicode="&#xac;" d="M88 690v172h1057v-491h-168v319h-889z" />
<glyph unicode="&#xad;" d="M356 479v164h521v-164h-521z" />
<glyph unicode="&#xae;" d="M0 741q0 127 45 236q43 102 137 201q88 88 199 135q104 45 235.5 45t235.5 -45q111 -47 199 -135q94 -98 137 -201q45 -109 45 -236q0 -129 -45 -233q-47 -111 -137 -201q-92 -90 -199 -137q-104 -45 -236 -45q-129 0 -233 45q-111 47 -201 137t-137 201q-45 104 -45 233 zM102 741.5q0 -106.5 39 -196.5q41 -94 113 -166q78 -78 166 -115t196 -37t197 37q88 37 166 115q76 76 113 166q39 94 38 196q0 98 -38 197q-37 92 -113 168t-166 113q-89 37 -196.5 36.5t-196.5 -36.5q-90 -37 -166 -113q-70 -70 -113 -168q-39 -90 -39 -196.5zM362 406 v694h238q150 0 219 -49q72 -49 72 -150q0 -71 -43 -117q-43 -45 -125 -61q20 -6 47 -39q41 -51 68 -92l114 -186h-143l-107 174q-51 82 -79.5 102t-75.5 20h-55v-296h-130zM492 784h102q92 0 127 27q37 29 37 90.5t-37 87.5q-35 27 -127 27h-102v-232z" />
<glyph unicode="&#xaf;" d="M317 1378v148h598v-148h-598z" />
<glyph unicode="&#xb0;" d="M299 1200q0 135 92 227.5t225 92.5q65 0 123 -25q61 -27 103 -70q45 -45 69 -102q23 -53 23 -123q0 -131 -92 -223t-227.5 -92t-225.5 90t-90 225zM426 1200q0 -78 55.5 -133t132.5 -55q80 0 136 55q57 57 57 133q0 80 -55.5 135.5t-135.5 55.5t-135 -55.5t-55 -135.5z " />
<glyph unicode="&#xb1;" d="M88 0v170h1057v-170h-1057zM88 672v170h444v329h168v-329h445v-170h-445v-332h-168v332h-444z" />
<glyph unicode="&#xb2;" d="M322 668v110l231 226q104 102 141 157q41 63 41 113q0 59 -51 98t-131 39q-49 0 -104 -18q-66 -23 -121 -54v125q55 23 125 41q57 14 120 15q143 0 228 -66q86 -68 86 -174q0 -58 -37 -117q-41 -63 -156 -176l-211 -205h410v-114h-571z" />
<glyph unicode="&#xb3;" d="M326 694v121q70 -29 125 -41t102 -12q100 0 159.5 41t59.5 108q0 76 -55 113t-164 37h-66v108h74q92 0 141.5 31t49.5 92q0 59 -47 88q-49 31 -136 31q-45 0 -100 -12q-51 -12 -115 -35v121q57 16 127 26q51 8 109 9q145 0 229 -59.5t84 -157.5q0 -68 -45 -117 q-43 -47 -127 -66q94 -20 143.5 -75.5t49.5 -133.5q0 -123 -95 -190q-96 -68 -272 -68q-49 0 -115 11q-58 8 -116 30z" />
<glyph unicode="&#xb4;" d="M475 1262l281 376h198l-325 -376h-154z" />
<glyph unicode="&#xb5;" d="M195 -428v1548h184v-696q0 -143 59 -217q61 -76 172 -76q127 0 191 84q66 88 65 252v653h185v-864q0 -57 16 -86t49 -29q12 0 23 4q15 6 43 19v-148q-39 -23 -72 -34q-29 -10 -68 -11q-63 0 -100 39q-37 41 -49 119q-45 -80 -113 -119q-66 -39 -155 -39q-92 0 -156 37 q-61 35 -107 119v-555h-167z" />
<glyph unicode="&#xb6;" d="M106 1071q0 188 129.5 305t346.5 117h448v-1690h-141v1567h-191v-1567h-141v846q-219 18 -334 127q-117 111 -117 295z" />
<glyph unicode="&#xb7;" d="M489 559v305h252v-305h-252z" />
<glyph unicode="&#xb8;" d="M700 0q51 -57 82 -115q27 -51 27 -100q0 -90 -59.5 -135t-178.5 -45q-45 0 -88 6q-47 6 -88 18v131q33 -18 72 -24q49 -8 84 -8q57 0 88 24.5t31 69.5q0 29 -23 74q-18 39 -65 104h118z" />
<glyph unicode="&#xb9;" d="M344 1348v116l229 39h138v-725h204v-110h-553v110h205v611z" />
<glyph unicode="&#xba;" d="M244 1108q0 188 102 301q101 111 270 111t271 -111q102 -113 102 -301q0 -190 -100 -299q-102 -111 -272.5 -111t-272.5 111q-100 109 -100 299zM276 469v123h676v-123h-676zM399 1108q0 -139 58 -215q59 -78 159 -78q102 0 160 78t58 215q0 141 -58 217 q-59 78 -159.5 78t-159.5 -78q-58 -76 -58 -217z" />
<glyph unicode="&#xbb;" d="M193 141v191l301 268l-301 268v191l469 -418v-82zM647 141v191l301 268l-301 268v191l469 -418v-82z" />
<glyph unicode="&#xbc;" d="M815 565h162v-538h116v-111h-116v-186h-138v186h-387v121zM839 440l-274 -413h274v413zM86 1504v116l229 39h138v-725h204v-110h-553v110h205v611zM51 504l-24 108l1060 262l27 -108z" />
<glyph unicode="&#xbd;" d="M86 1504v116l229 39h138v-725h204v-110h-553v110h205v611zM51 504l-24 108l1060 262l27 -108zM523 -270v110l231 226q104 102 141 157q41 63 41 113q0 59 -51 98t-131 39q-49 0 -104 -18q-66 -23 -121 -54v125q55 23 125 41q57 14 120 15q143 0 228 -66q86 -68 86 -174 q0 -58 -37 -117q-41 -63 -156 -176l-211 -205h410v-114h-571z" />
<glyph unicode="&#xbe;" d="M815 565h162v-538h116v-111h-116v-186h-138v186h-387v121zM839 440l-274 -413h274v413zM99 850v121q70 -29 125 -41t102 -12q100 0 159.5 41t59.5 108q0 76 -55 113t-164 37h-66v108h74q92 0 141.5 31t49.5 92q0 59 -47 88q-49 31 -136 31q-45 0 -100 -12 q-51 -12 -115 -35v121q57 16 127 26q51 8 109 9q145 0 229 -59.5t84 -157.5q0 -68 -45 -117q-43 -47 -127 -66q94 -20 143.5 -75.5t49.5 -133.5q0 -123 -95 -190q-96 -68 -272 -68q-49 0 -115 11q-58 8 -116 30zM51 504l-24 108l1060 262l27 -108z" />
<glyph unicode="&#xbf;" d="M193 326q0 76 34 141q37 70 127 158l88 86q68 66 86 106q18 43 19 105v6q2 14 2 41v123h190v-154q0 -98 -30.5 -165.5t-114.5 -151.5l-90 -89q-57 -55 -86 -104q-23 -39 -23 -92q0 -88 66 -143q63 -55 174 -56q76 0 168 35q84 31 186 102v-188q-95 -58 -190 -86 q-92 -27 -199 -27q-184 0 -297 97q-110 94 -110 256zM543 1239v254h202v-254h-202z" />
<glyph unicode="&#xc0;" d="M37 0l457 1493h245l457 -1493h-209l-110 389h-523l-108 -389h-209zM403 551h426l-213 764zM561 1899l197 -264h-154l-227 264h184z" />
<glyph unicode="&#xc1;" d="M37 0l457 1493h245l457 -1493h-209l-110 389h-523l-108 -389h-209zM403 551h426l-213 764zM672 1899h186l-229 -264h-154z" />
<glyph unicode="&#xc2;" d="M37 0l457 1493h245l457 -1493h-209l-110 389h-523l-108 -389h-209zM403 551h426l-213 764zM522 1901h189l211 -266h-140l-166 178l-165 -178h-140z" />
<glyph unicode="&#xc3;" d="M37 0l457 1493h245l457 -1493h-209l-110 389h-523l-108 -389h-209zM403 551h426l-213 764zM612 1710l-57 33q-8 6 -41 19q-14 6 -27 6q-34 0 -55 -25q-20 -23 -20 -70v-6h-125q0 102 51 160q53 59 137 59q39 0 66 -8q39 -12 80 -35l57 -30q23 -12 39 -19q18 -6 33 -6 q29 0 51 25q20 23 20 67v6h125q-4 -104 -53 -159q-53 -59 -135 -60q-37 0 -64 9q-37 9 -82 34z" />
<glyph unicode="&#xc4;" d="M37 0l457 1493h245l457 -1493h-209l-110 389h-523l-108 -389h-209zM403 551h426l-213 764zM319 1870h203v-203h-203v203zM711 1870h202v-203h-202v203z" />
<glyph unicode="&#xc5;" d="M37 0l428 1399q-55 33 -90 94q-33 59 -33 133q0 115 80 195t194.5 80t194.5 -80t80 -195q0 -72 -33 -133q-29 -55 -90 -94l428 -1399h-209l-110 389h-523l-108 -389h-209zM403 551h426l-213 760zM465 1626q0 -61 45 -106t106.5 -45t106.5 45t45 106.5t-45 106.5t-107 45 q-66 0 -108.5 -43t-42.5 -109z" />
<glyph unicode="&#xc6;" d="M0 0l410 1493h751v-170h-338v-442h307v-170h-307v-541h357v-170h-543v383h-352l-101 -383h-184zM328 551h309v772h-107z" />
<glyph unicode="&#xc7;" d="M800 0q51 -57 82 -115q27 -51 27 -100q0 -90 -59.5 -135t-178.5 -45q-45 0 -88 6q-47 6 -88 18v131q33 -18 72 -24q49 -8 84 -8q57 0 88 24.5t31 69.5q0 29 -23 74q-18 39 -65 104h118zM139 745q0 365 160 570t444 205q96 0 172 -21q82 -23 158 -61v-207q-74 61 -160 92 q-92 33 -170 33q-197 0 -295 -151.5t-98 -459t98.5 -459t294.5 -151.5q80 0 172 33q82 29 158 92v-207q-76 -39 -158 -61q-76 -20 -172 -21q-287 0 -446 203q-158 200 -158 571z" />
<glyph unicode="&#xc8;" d="M197 0v1493h886v-170h-684v-442h654v-170h-654v-541h703v-170h-905zM579 1899l197 -264h-154l-227 264h184z" />
<glyph unicode="&#xc9;" d="M197 0v1493h886v-170h-684v-442h654v-170h-654v-541h703v-170h-905zM690 1899h186l-229 -264h-154z" />
<glyph unicode="&#xca;" d="M197 0v1493h886v-170h-684v-442h654v-170h-654v-541h703v-170h-905zM540 1901h189l211 -266h-140l-166 178l-165 -178h-140z" />
<glyph unicode="&#xcb;" d="M197 0v1493h886v-170h-684v-442h654v-170h-654v-541h703v-170h-905zM337 1870h203v-203h-203v203zM729 1870h202v-203h-202v203z" />
<glyph unicode="&#xcc;" d="M201 0v170h313v1153h-313v170h829v-170h-313v-1153h313v-170h-829zM561 1899l197 -264h-154l-227 264h184z" />
<glyph unicode="&#xcd;" d="M201 0v170h313v1153h-313v170h829v-170h-313v-1153h313v-170h-829zM672 1899h186l-229 -264h-154z" />
<glyph unicode="&#xce;" d="M201 0v170h313v1153h-313v170h829v-170h-313v-1153h313v-170h-829zM522 1901h189l211 -266h-140l-166 178l-165 -178h-140z" />
<glyph unicode="&#xcf;" d="M201 0v170h313v1153h-313v170h829v-170h-313v-1153h313v-170h-829zM319 1870h203v-203h-203v203zM711 1870h202v-203h-202v203z" />
<glyph unicode="&#xd0;" d="M8 709v149h125v635h303q340 0 504 -182q162 -180 162 -566q0 -383 -162 -563q-164 -182 -504 -182h-303v709h-125zM340 166h96q256 0 356.5 125t100.5 454q0 332 -100.5 457t-356.5 125h-96v-469h264v-149h-264v-543z" />
<glyph unicode="&#xd1;" d="M139 0v1493h256l504 -1229v1229h195v-1493h-256l-504 1229v-1229h-195zM612 1714l-57 33q-8 6 -41 19q-14 6 -27 6q-34 0 -55 -25q-20 -23 -20 -70v-6h-125q0 102 51 160q53 59 137 59q39 0 66 -8q39 -12 80 -35l57 -30q23 -12 39 -19q18 -6 33 -6q29 0 51 25 q20 23 20 67v6h125q-4 -104 -53 -159q-53 -59 -135 -60q-37 0 -64 9q-37 9 -82 34z" />
<glyph unicode="&#xd2;" d="M117 745q0 391 123 582q125 193 376.5 193t376.5 -193q123 -190 123 -581.5t-123 -581.5q-125 -193 -377 -193q-254 0 -376.5 190.5t-122.5 583.5zM328 745.5q0 -327.5 67.5 -469t221 -141.5t221 141.5t67.5 469t-67.5 469t-221 141.5t-221 -141.5t-67.5 -469zM561 1899 l197 -264h-154l-227 264h184z" />
<glyph unicode="&#xd3;" d="M117 745q0 391 123 582q125 193 376.5 193t376.5 -193q123 -190 123 -581.5t-123 -581.5q-125 -193 -377 -193q-254 0 -376.5 190.5t-122.5 583.5zM328 745.5q0 -327.5 67.5 -469t221 -141.5t221 141.5t67.5 469t-67.5 469t-221 141.5t-221 -141.5t-67.5 -469zM672 1899 h186l-229 -264h-154z" />
<glyph unicode="&#xd4;" d="M117 745q0 391 123 582q125 193 376.5 193t376.5 -193q123 -190 123 -581.5t-123 -581.5q-125 -193 -377 -193q-254 0 -376.5 190.5t-122.5 583.5zM328 745.5q0 -327.5 67.5 -469t221 -141.5t221 141.5t67.5 469t-67.5 469t-221 141.5t-221 -141.5t-67.5 -469zM522 1901 h189l211 -266h-140l-166 178l-165 -178h-140z" />
<glyph unicode="&#xd5;" d="M117 745q0 391 123 582q125 193 376.5 193t376.5 -193q123 -190 123 -581.5t-123 -581.5q-125 -193 -377 -193q-254 0 -376.5 190.5t-122.5 583.5zM328 745.5q0 -327.5 67.5 -469t221 -141.5t221 141.5t67.5 469t-67.5 469t-221 141.5t-221 -141.5t-67.5 -469zM612 1710 l-57 33q-8 6 -41 19q-14 6 -27 6q-34 0 -55 -25q-20 -23 -20 -70v-6h-125q0 102 51 160q53 59 137 59q39 0 66 -8q39 -12 80 -35l57 -30q23 -12 39 -19q18 -6 33 -6q29 0 51 25q20 23 20 67v6h125q-4 -104 -53 -159q-53 -59 -135 -60q-37 0 -64 9q-37 9 -82 34z" />
<glyph unicode="&#xd6;" d="M117 745q0 391 123 582q125 193 376.5 193t376.5 -193q123 -190 123 -581.5t-123 -581.5q-125 -193 -377 -193q-254 0 -376.5 190.5t-122.5 583.5zM328 745.5q0 -327.5 67.5 -469t221 -141.5t221 141.5t67.5 469t-67.5 469t-221 141.5t-221 -141.5t-67.5 -469zM319 1870 h203v-203h-203v203zM711 1870h202v-203h-202v203z" />
<glyph unicode="&#xd7;" d="M150 293l350 348l-350 350l116 117l350 -350l351 350l116 -117l-350 -350l348 -348l-116 -119l-349 350l-348 -350z" />
<glyph unicode="&#xd8;" d="M8 0l178 252q-35 82 -51 205q-18 132 -18 288q0 391 123 582q125 193 376 193q113 0 201 -41q84 -39 144 -121l139 201l100 -74l-168 -238q39 -80 62 -211q23 -135 22 -291q0 -391 -123 -581q-125 -193 -377 -193q-119 0 -210 41q-90 41 -152 121l-143 -203zM328 686 q0 -98 2 -131q4 -59 8 -84l504 719q-25 80 -82 123q-59 43 -144 43q-160 0 -223 -146q-65 -149 -65 -524zM371 303q31 -76 96 -123q63 -45 149 -45q154 0 221.5 141.5t67.5 468.5q0 111 -6 179q-6 76 -14 112z" />
<glyph unicode="&#xd9;" d="M147 573v920h203v-1012q0 -109 6 -155q6 -49 21 -72q31 -57 92 -88t147 -31t148 31q57 29 92 88q14 23 21 72q6 46 6 153v1014h202v-920q0 -227 -28 -325q-28 -95 -99 -160q-68 -61 -151 -88q-90 -29 -190.5 -29t-190.5 29q-80 25 -152 88q-72 66 -98 160 q-29 102 -29 325zM561 1899l197 -264h-154l-227 264h184z" />
<glyph unicode="&#xda;" d="M147 573v920h203v-1012q0 -109 6 -155q6 -49 21 -72q31 -57 92 -88t147 -31t148 31q57 29 92 88q14 23 21 72q6 46 6 153v1014h202v-920q0 -227 -28 -325q-28 -95 -99 -160q-68 -61 -151 -88q-90 -29 -190.5 -29t-190.5 29q-80 25 -152 88q-72 66 -98 160 q-29 102 -29 325zM672 1899h186l-229 -264h-154z" />
<glyph unicode="&#xdb;" d="M147 573v920h203v-1012q0 -109 6 -155q6 -49 21 -72q31 -57 92 -88t147 -31t148 31q57 29 92 88q14 23 21 72q6 46 6 153v1014h202v-920q0 -227 -28 -325q-28 -95 -99 -160q-68 -61 -151 -88q-90 -29 -190.5 -29t-190.5 29q-80 25 -152 88q-72 66 -98 160 q-29 102 -29 325zM522 1901h189l211 -266h-140l-166 178l-165 -178h-140z" />
<glyph unicode="&#xdc;" d="M147 573v920h203v-1012q0 -109 6 -155q6 -49 21 -72q31 -57 92 -88t147 -31t148 31q57 29 92 88q14 23 21 72q6 46 6 153v1014h202v-920q0 -227 -28 -325q-28 -95 -99 -160q-68 -61 -151 -88q-90 -29 -190.5 -29t-190.5 29q-80 25 -152 88q-72 66 -98 160 q-29 102 -29 325zM319 1870h203v-203h-203v203zM711 1870h202v-203h-202v203z" />
<glyph unicode="&#xdd;" d="M37 1493h215l364 -659l363 659h217l-479 -823v-670h-203v670zM672 1899h186l-229 -264h-154z" />
<glyph unicode="&#xde;" d="M201 0v1493h202v-270h254q260 0 383 -105q125 -106 125 -323t-125 -324q-123 -104 -383 -104h-254v-367h-202zM403 532h234q156 0 237 66q78 63 78 196.5t-78 196.5q-82 66 -237 66h-234v-525z" />
<glyph unicode="&#xdf;" d="M188 0v1137q0 211 104.5 315t321.5 104q205 0 310 -110q102 -109 106 -328q-160 -16 -239 -76q-84 -61 -84 -161q0 -47 28 -88q25 -35 94 -80l58 -37q154 -94 207 -174q55 -84 55 -199q0 -154 -113 -244q-109 -88 -307 -88q-70 0 -137 13q-70 12 -133 36v164 q84 -33 143 -47q63 -14 125 -14q108 0 172 49q63 49 64 129q0 74 -33 119q-37 51 -152 121l-67 39q-90 53 -138 122q-45 66 -45 146q0 127 80 213t238 121q-4 109 -62 164q-59 57 -174 57q-119 0 -178 -66q-57 -63 -57 -204v-1133h-187z" />
<glyph unicode="&#xe0;" d="M133 326q0 186 125 284q123 96 369 97h247v28q0 133 -67.5 194.5t-214.5 61.5q-98 0 -190.5 -26.5t-186.5 -79.5v184q106 41 195 59q92 18 182 19q137 0 237 -41q98 -40 160 -123q39 -51 53 -123q16 -78 17 -221v-639h-185v166q-57 -100 -149 -148q-90 -47 -217 -47 q-170 0 -272.5 96.5t-102.5 258.5zM317 338q0 -102 61.5 -157.5t168.5 -55.5q152 0 239.5 106.5t87.5 290.5v41h-172h-61q-156 0 -242 -57q-82 -55 -82 -168zM279 1638h198l281 -376h-154z" />
<glyph unicode="&#xe1;" d="M133 326q0 186 125 284q123 96 369 97h247v28q0 133 -67.5 194.5t-214.5 61.5q-98 0 -190.5 -26.5t-186.5 -79.5v184q106 41 195 59q92 18 182 19q137 0 237 -41q98 -40 160 -123q39 -51 53 -123q16 -78 17 -221v-639h-185v166q-57 -100 -149 -148q-90 -47 -217 -47 q-170 0 -272.5 96.5t-102.5 258.5zM317 338q0 -102 61.5 -157.5t168.5 -55.5q152 0 239.5 106.5t87.5 290.5v41h-172h-61q-156 0 -242 -57q-82 -55 -82 -168zM475 1262l281 376h198l-325 -376h-154z" />
<glyph unicode="&#xe2;" d="M133 326q0 186 125 284q123 96 369 97h247v28q0 133 -67.5 194.5t-214.5 61.5q-98 0 -190.5 -26.5t-186.5 -79.5v184q106 41 195 59q92 18 182 19q137 0 237 -41q98 -40 160 -123q39 -51 53 -123q16 -78 17 -221v-639h-185v166q-57 -100 -149 -148q-90 -47 -217 -47 q-170 0 -272.5 96.5t-102.5 258.5zM317 338q0 -102 61.5 -157.5t168.5 -55.5q152 0 239.5 106.5t87.5 290.5v41h-172h-61q-156 0 -242 -57q-82 -55 -82 -168zM297 1262l246 376h147l246 -376h-139l-181 245l-180 -245h-139z" />
<glyph unicode="&#xe3;" d="M133 326q0 186 125 284q123 96 369 97h247v28q0 133 -67.5 194.5t-214.5 61.5q-98 0 -190.5 -26.5t-186.5 -79.5v184q106 41 195 59q92 18 182 19q137 0 237 -41q98 -40 160 -123q39 -51 53 -123q16 -78 17 -221v-639h-185v166q-57 -100 -149 -148q-90 -47 -217 -47 q-170 0 -272.5 96.5t-102.5 258.5zM317 338q0 -102 61.5 -157.5t168.5 -55.5q152 0 239.5 106.5t87.5 290.5v41h-172h-61q-156 0 -242 -57q-82 -55 -82 -168zM287 1309q0 133 53 209q53 74 141 73q43 0 72 -14q35 -18 68 -47l57 -55q16 -16 37 -29q16 -10 30 -10 q39 0 57.5 36.5t18.5 118.5h125q0 -137 -51 -209q-51 -74 -143 -73q-41 0 -70 14q-41 20 -70 47l-57 55q-16 16 -37 29q-16 10 -31 10q-39 0 -57 -37q-14 -31 -18 -118h-125z" />
<glyph unicode="&#xe4;" d="M133 326q0 186 125 284q123 96 369 97h247v28q0 133 -67.5 194.5t-214.5 61.5q-98 0 -190.5 -26.5t-186.5 -79.5v184q106 41 195 59q92 18 182 19q137 0 237 -41q98 -40 160 -123q39 -51 53 -123q16 -78 17 -221v-639h-185v166q-57 -100 -149 -148q-90 -47 -217 -47 q-170 0 -272.5 96.5t-102.5 258.5zM317 338q0 -102 61.5 -157.5t168.5 -55.5q152 0 239.5 106.5t87.5 290.5v41h-172h-61q-156 0 -242 -57q-82 -55 -82 -168zM319 1350v202h203v-202h-203zM711 1350v202h202v-202h-202z" />
<glyph unicode="&#xe5;" d="M133 326q0 186 125 284q123 96 369 97h247v28q0 133 -67.5 194.5t-214.5 61.5q-98 0 -190.5 -26.5t-186.5 -79.5v184q106 41 195 59q92 18 182 19q137 0 237 -41q98 -40 160 -123q39 -51 53 -123q16 -78 17 -221v-639h-185v166q-57 -100 -149 -148q-90 -47 -217 -47 q-170 0 -272.5 96.5t-102.5 258.5zM317 338q0 -102 61.5 -157.5t168.5 -55.5q152 0 239.5 106.5t87.5 290.5v41h-172h-61q-156 0 -242 -57q-82 -55 -82 -168zM891 1524q0 -115 -80 -195t-194.5 -80t-194.5 80t-80 194.5t80 194.5t194.5 80t194.5 -79.5t80 -194.5zM768 1524 q0 63 -43 106q-45 45 -109 45q-66 0 -108.5 -43t-42.5 -108.5t43 -108.5t108.5 -43t108.5 43t43 109z" />
<glyph unicode="&#xe6;" d="M41 307q0 172 100 260q102 90 291 90h117v88q0 120 -49 185q-49 63 -144 63q-55 0 -123 -22q-74 -25 -127 -60v168q84 37 144 51q70 16 125 17q92 0 153.5 -31t98.5 -96q33 59 98 94q63 33 156 33q174 0 247 -119q72 -117 72 -424v-90h-491q0 -4 -1 -15.5t-1 -17.5v-51 q0 -160 51 -233q49 -72 162 -72q80 0 143 25q66 25 115 77v-172q-59 -43 -121 -63.5t-137 -20.5q-109 0 -185 41t-106 119q-41 -84 -105 -121q-66 -39 -164 -39q-156 0 -237 86q-82 84 -82 250zM205 311q0 -86 45 -137q43 -49 127 -49q92 0 129 67.5t37 249.5v72h-49 q-170 0 -229.5 -45t-59.5 -158zM709 657h327v52q0 152 -39 217q-39 68 -125 67q-88 0 -124 -67q-39 -72 -39 -226v-43z" />
<glyph unicode="&#xe7;" d="M804 0q51 -57 82 -115q27 -51 27 -100q0 -90 -59.5 -135t-178.5 -45q-45 0 -88 6q-47 6 -88 18v131q33 -18 72 -24q49 -8 84 -8q57 0 88 24.5t31 69.5q0 29 -23 74q-18 39 -65 104h118zM195 559q0 276 147 432t406 156q84 0 157 -21q78 -23 156 -65v-193q-80 70 -146 95 q-76 29 -167 28q-172 0 -267 -112q-92 -111 -92 -320q0 -203 94 -319q92 -113 265 -113q100 0 172 29q77 31 141 92v-191q-78 -45 -152 -65q-76 -20 -161 -21q-258 0 -405.5 156t-147.5 432z" />
<glyph unicode="&#xe8;" d="M123 559q0 270 143 428q143 160 385 160q215 0 338 -145.5t123 -395.5v-90h-797v-6q0 -182 94.5 -282.5t270.5 -100.5q86 0 184 29q109 31 205 84v-183q-111 -45 -203 -65q-94 -20 -188 -21q-260 0 -407.5 156t-147.5 432zM322 659h606q-4 164 -76 248t-209 84 q-133 0 -219 -88q-88 -90 -102 -244zM293 1638h198l281 -376h-154z" />
<glyph unicode="&#xe9;" d="M123 559q0 270 143 428q143 160 385 160q215 0 338 -145.5t123 -395.5v-90h-797v-6q0 -182 94.5 -282.5t270.5 -100.5q86 0 184 29q109 31 205 84v-183q-111 -45 -203 -65q-94 -20 -188 -21q-260 0 -407.5 156t-147.5 432zM322 659h606q-4 164 -76 248t-209 84 q-133 0 -219 -88q-88 -90 -102 -244zM489 1262l281 376h198l-325 -376h-154z" />
<glyph unicode="&#xea;" d="M123 559q0 270 143 428q143 160 385 160q215 0 338 -145.5t123 -395.5v-90h-797v-6q0 -182 94.5 -282.5t270.5 -100.5q86 0 184 29q109 31 205 84v-183q-111 -45 -203 -65q-94 -20 -188 -21q-260 0 -407.5 156t-147.5 432zM322 659h606q-4 164 -76 248t-209 84 q-133 0 -219 -88q-88 -90 -102 -244zM311 1262l246 376h147l246 -376h-139l-181 245l-180 -245h-139z" />
<glyph unicode="&#xeb;" d="M123 559q0 270 143 428q143 160 385 160q215 0 338 -145.5t123 -395.5v-90h-797v-6q0 -182 94.5 -282.5t270.5 -100.5q86 0 184 29q109 31 205 84v-183q-111 -45 -203 -65q-94 -20 -188 -21q-260 0 -407.5 156t-147.5 432zM322 659h606q-4 164 -76 248t-209 84 q-133 0 -219 -88q-88 -90 -102 -244zM333 1350v202h203v-202h-203zM725 1350v202h202v-202h-202z" />
<glyph unicode="&#xec;" d="M256 1120h471v-977h365v-143h-914v143h365v834h-287v143zM279 1638h198l281 -376h-154z" />
<glyph unicode="&#xed;" d="M256 1120h471v-977h365v-143h-914v143h365v834h-287v143zM475 1262l281 376h198l-325 -376h-154z" />
<glyph unicode="&#xee;" d="M256 1120h471v-977h365v-143h-914v143h365v834h-287v143zM297 1262l246 376h147l246 -376h-139l-181 245l-180 -245h-139z" />
<glyph unicode="&#xef;" d="M256 1120h471v-977h365v-143h-914v143h365v834h-287v143zM344 1350v202h203v-202h-203zM736 1350v202h202v-202h-202z" />
<glyph unicode="&#xf0;" d="M137 535q0 268 125 413q126 147 350 148h52q12 0 32 -4q-45 61 -69 90q-55 70 -74 88l-279 -92l-30 98l237 80l-182 200h219l127 -145l289 94l33 -98l-250 -80q199 -213 289 -401q90 -186 90 -391q0 -270 -125 -416q-127 -147 -354.5 -147.5t-354.5 147.5 q-125 146 -125 416zM332 535q0 -195 73.5 -301.5t211 -106.5t211 106.5t73.5 301.5q0 109 -29 213q-25 90 -79 170q-43 14 -76 20q-40 6 -86 6q-147 0 -223 -104q-76 -102 -76 -305z" />
<glyph unicode="&#xf1;" d="M195 0v1120h184v-168q49 96 133 146q82 49 199 49q170 0 256 -113q84 -111 84 -340v-694h-185v694q0 150 -53 221.5t-166 71.5q-127 0 -198 -92q-70 -90 -70 -262v-633h-184zM287 1309q0 133 53 209q53 74 141 73q43 0 72 -14q35 -18 68 -47l57 -55q16 -16 37 -29 q16 -10 30 -10q39 0 57.5 36.5t18.5 118.5h125q0 -137 -51 -209q-51 -74 -143 -73q-41 0 -70 14q-41 20 -70 47l-57 55q-16 16 -37 29q-16 10 -31 10q-39 0 -57 -37q-14 -31 -18 -118h-125z" />
<glyph unicode="&#xf2;" d="M137 559q0 286 123 436q123 152 356.5 152t356.5 -152q123 -151 123 -436q0 -289 -123 -438.5t-356.5 -149.5t-356.5 149.5t-123 438.5zM332 559q0 -211 71 -323q70 -109 213.5 -109t212.5 109q72 113 72 323q0 215 -71.5 323.5t-213 108.5t-213 -108.5t-71.5 -323.5z M279 1638h198l281 -376h-154z" />
<glyph unicode="&#xf3;" d="M137 559q0 286 123 436q123 152 356.5 152t356.5 -152q123 -151 123 -436q0 -289 -123 -438.5t-356.5 -149.5t-356.5 149.5t-123 438.5zM332 559q0 -211 71 -323q70 -109 213.5 -109t212.5 109q72 113 72 323q0 215 -71.5 323.5t-213 108.5t-213 -108.5t-71.5 -323.5z M475 1262l281 376h198l-325 -376h-154z" />
<glyph unicode="&#xf4;" d="M137 559q0 286 123 436q123 152 356.5 152t356.5 -152q123 -151 123 -436q0 -289 -123 -438.5t-356.5 -149.5t-356.5 149.5t-123 438.5zM332 559q0 -211 71 -323q70 -109 213.5 -109t212.5 109q72 113 72 323q0 215 -71.5 323.5t-213 108.5t-213 -108.5t-71.5 -323.5z M297 1262l246 376h147l246 -376h-139l-181 245l-180 -245h-139z" />
<glyph unicode="&#xf5;" d="M137 559q0 286 123 436q123 152 356.5 152t356.5 -152q123 -151 123 -436q0 -289 -123 -438.5t-356.5 -149.5t-356.5 149.5t-123 438.5zM332 559q0 -211 71 -323q70 -109 213.5 -109t212.5 109q72 113 72 323q0 215 -71.5 323.5t-213 108.5t-213 -108.5t-71.5 -323.5z M287 1309q0 133 53 209q53 74 141 73q43 0 72 -14q35 -18 68 -47l57 -55q16 -16 37 -29q16 -10 30 -10q39 0 57.5 36.5t18.5 118.5h125q0 -137 -51 -209q-51 -74 -143 -73q-41 0 -70 14q-41 20 -70 47l-57 55q-16 16 -37 29q-16 10 -31 10q-39 0 -57 -37q-14 -31 -18 -118 h-125z" />
<glyph unicode="&#xf6;" d="M137 559q0 286 123 436q123 152 356.5 152t356.5 -152q123 -151 123 -436q0 -289 -123 -438.5t-356.5 -149.5t-356.5 149.5t-123 438.5zM332 559q0 -211 71 -323q70 -109 213.5 -109t212.5 109q72 113 72 323q0 215 -71.5 323.5t-213 108.5t-213 -108.5t-71.5 -323.5z M319 1350v202h203v-202h-203zM711 1350v202h202v-202h-202z" />
<glyph unicode="&#xf7;" d="M88 557v170h1057v-170h-1057zM494 150v245h245v-245h-245zM494 889v246h245v-246h-245z" />
<glyph unicode="&#xf8;" d="M47 -20l170 200q-37 66 -59 168q-20 94 -21 211q0 286 123 436q123 152 356 152q100 0 179 -27q74 -27 139 -84l147 176l93 -77l-164 -195q41 -61 63.5 -161.5t22.5 -219.5q0 -289 -123 -438.5t-357 -149.5q-109 0 -182 29q-78 31 -135 90l-160 -186zM328 575 q0 -29 8 -106q6 -68 20 -129l461 557q-35 49 -84 72q-51 23 -117 22q-139 0 -213 -106q-75 -111 -75 -310zM414 221q39 -47 86 -71q45 -23 116 -23q143 0 213 109q72 113 72 323q0 51 -6 107q-6 57 -18 114z" />
<glyph unicode="&#xf9;" d="M195 424v694h184v-694q0 -150 53 -221.5t166 -71.5q131 0 199 92q70 94 69 262v633h185v-1118h-185v168q-49 -100 -133 -148q-86 -49 -198 -49q-174 0 -256 113q-84 115 -84 340zM279 1638h198l281 -376h-154z" />
<glyph unicode="&#xfa;" d="M195 424v694h184v-694q0 -150 53 -221.5t166 -71.5q131 0 199 92q70 94 69 262v633h185v-1118h-185v168q-49 -100 -133 -148q-86 -49 -198 -49q-174 0 -256 113q-84 115 -84 340zM475 1262l281 376h198l-325 -376h-154z" />
<glyph unicode="&#xfb;" d="M195 424v694h184v-694q0 -150 53 -221.5t166 -71.5q131 0 199 92q70 94 69 262v633h185v-1118h-185v168q-49 -100 -133 -148q-86 -49 -198 -49q-174 0 -256 113q-84 115 -84 340zM297 1262l246 376h147l246 -376h-139l-181 245l-180 -245h-139z" />
<glyph unicode="&#xfc;" d="M195 424v694h184v-694q0 -150 53 -221.5t166 -71.5q131 0 199 92q70 94 69 262v633h185v-1118h-185v168q-49 -100 -133 -148q-86 -49 -198 -49q-174 0 -256 113q-84 115 -84 340zM319 1350v202h203v-202h-203zM711 1350v202h202v-202h-202z" />
<glyph unicode="&#xfd;" d="M104 1120h195l332 -876l327 876h195l-295 -760l-117 -309q-96 -256 -133 -321q-45 -76 -114 -117q-66 -39 -162 -39h-148v154h109q80 0 127 47q45 45 117 243zM475 1262l281 376h198l-325 -376h-154z" />
<glyph unicode="&#xfe;" d="M190 -426v1993h185v-590q47 84 122.5 127t176.5 43q203 0 319 -158q115 -154 115 -434q0 -272 -117 -428t-317 -156q-101 0 -178 43q-78 43 -121 127v-567h-185zM375 559q0 -207 69 -321q68 -111 203 -111q133 0 200.5 108.5t67.5 323.5t-67.5 323.5t-200.5 108.5 q-135 0 -203 -110q-69 -115 -69 -322z" />
<glyph unicode="&#xff;" d="M104 1120h195l332 -876l327 876h195l-295 -760l-117 -309q-96 -256 -133 -321q-45 -76 -114 -117q-66 -39 -162 -39h-148v154h109q80 0 127 47q45 45 117 243zM319 1350v202h203v-202h-203zM711 1350v202h202v-202h-202z" />
<glyph unicode="&#x131;" d="M256 1120h471v-977h365v-143h-914v143h365v834h-287v143z" />
<glyph unicode="&#x152;" d="M72 745q0 416 122.5 582t417.5 166h594v-170h-358v-442h328v-170h-328v-541h369v-170h-605q-295 0 -417.5 165.5t-122.5 579.5zM274 745q0 -348 70 -460q72 -115 246 -115h61v1153h-61q-174 0 -246 -115q-70 -113 -70 -463z" />
<glyph unicode="&#x153;" d="M14 559q0 315 84 451q86 137 275 137q89 0 153 -31q63 -31 111 -96q35 59 102 94q63 33 152 33q178 0 248 -119q72 -121 71 -424v-90h-491v-84q0 -164 49 -235.5t162 -71.5q84 0 145 27q72 31 113 77v-172q-55 -41 -121 -63q-59 -20 -137 -21q-100 0 -172 33 q-68 31 -121 100q-51 -66 -117 -100q-63 -33 -147 -33q-188 0 -275 138q-84 135 -84 450zM190 559q0 -272 39 -352q41 -84 143.5 -84t143.5 84q41 86 41 323q0 289 -41 377t-143.5 88t-143.5 -84q-39 -80 -39 -352zM719 657h328q0 4 1 13.5t1 15.5v29q0 147 -39 213 q-39 68 -127 67q-84 0 -125 -69q-39 -66 -39 -226v-43z" />
<glyph unicode="&#x178;" d="M37 1493h215l364 -659l363 659h217l-479 -823v-670h-203v670zM319 1870h203v-203h-203v203zM711 1870h202v-203h-202v203z" />
<glyph unicode="&#x2c6;" d="M297 1262l246 376h147l246 -376h-139l-181 245l-180 -245h-139z" />
<glyph unicode="&#x2da;" d="M891 1524q0 -115 -80 -195t-194.5 -80t-194.5 80t-80 194.5t80 194.5t194.5 80t194.5 -79.5t80 -194.5zM768 1524q0 63 -43 106q-45 45 -109 45q-66 0 -108.5 -43t-42.5 -108.5t43 -108.5t108.5 -43t108.5 43t43 109z" />
<glyph unicode="&#x2dc;" d="M287 1309q0 133 53 209q53 74 141 73q43 0 72 -14q35 -18 68 -47l57 -55q16 -16 37 -29q16 -10 30 -10q39 0 57.5 36.5t18.5 118.5h125q0 -137 -51 -209q-51 -74 -143 -73q-41 0 -70 14q-41 20 -70 47l-57 55q-16 16 -37 29q-16 10 -31 10q-39 0 -57 -37 q-14 -31 -18 -118h-125z" />
<glyph unicode="&#x327;" d="M700 0q51 -57 82 -115q27 -51 27 -100q0 -90 -59.5 -135t-178.5 -45q-45 0 -88 6q-47 6 -88 18v131q33 -18 72 -24q49 -8 84 -8q57 0 88 24.5t31 69.5q0 29 -23 74q-18 39 -65 104h118z" />
<glyph unicode="&#x2000;" horiz-adv-x="948" />
<glyph unicode="&#x2001;" horiz-adv-x="1900" />
<glyph unicode="&#x2002;" horiz-adv-x="948" />
<glyph unicode="&#x2003;" horiz-adv-x="1900" />
<glyph unicode="&#x2004;" horiz-adv-x="632" />
<glyph unicode="&#x2005;" horiz-adv-x="473" />
<glyph unicode="&#x2006;" horiz-adv-x="315" />
<glyph unicode="&#x2007;" horiz-adv-x="315" />
<glyph unicode="&#x2008;" horiz-adv-x="235" />
<glyph unicode="&#x2009;" horiz-adv-x="378" />
<glyph unicode="&#x200a;" horiz-adv-x="104" />
<glyph unicode="&#x2010;" d="M356 479v164h521v-164h-521z" />
<glyph unicode="&#x2011;" d="M356 479v164h521v-164h-521z" />
<glyph unicode="&#x2012;" d="M356 479v164h521v-164h-521z" />
<glyph unicode="&#x2013;" d="M0 492v141h1233v-141h-1233z" />
<glyph unicode="&#x2014;" d="M0 492v141h1233v-141h-1233z" />
<glyph unicode="&#x2018;" d="M463 967v207l196 382h154l-98 -382v-207h-252z" />
<glyph unicode="&#x2019;" d="M463 967l98 383v206h252v-206l-197 -383h-153z" />
<glyph unicode="&#x201a;" d="M403 -287l99 383v207h252v-207l-197 -383h-154z" />
<glyph unicode="&#x201c;" d="M211 967v207l199 382h153l-98 -382v-207h-254zM672 967v207l196 382h154l-98 -382v-207h-252z" />
<glyph unicode="&#x201d;" d="M211 967l98 383v206h252v-206l-196 -383h-154zM670 967l98 383v206h252v-206l-197 -383h-153z" />
<glyph unicode="&#x201e;" d="M211 -287l98 383v207h252v-207l-196 -383h-154zM670 -287l98 383v207h252v-207l-197 -383h-153z" />
<glyph unicode="&#x2022;" d="M319 762q0 123 86.5 209t211 86t210.5 -86t86 -209t-88 -211q-86 -86 -211 -86q-123 0 -209 86t-86 211z" />
<glyph unicode="&#x2026;" d="M80 0v305h252v-305h-252zM489 0v305h252v-305h-252zM899 0v305h252v-305h-252z" />
<glyph unicode="&#x202f;" horiz-adv-x="378" />
<glyph unicode="&#x2039;" d="M346 559v82l469 418v-191l-301 -268l301 -268v-191z" />
<glyph unicode="&#x203a;" d="M420 141v191l301 268l-301 268v191l469 -418v-82z" />
<glyph unicode="&#x205f;" horiz-adv-x="473" />
<glyph unicode="&#x2074;" d="M631 1503h162v-538h116v-111h-116v-186h-138v186h-387v121zM655 1378l-274 -413h274v413z" />
<glyph unicode="&#x20ac;" d="M37 543l49 110h117q0 4 -1 13.5t-1 17.5q-2 31 -2 61q0 35 2 66q0 6 1 15.5t1 13.5h-166l49 108h125q49 289 184 428q137 143 361 144q88 0 157 -21q84 -25 148 -61v-207q-61 59 -146 94q-82 35 -157 35q-147 0 -233.5 -104.5t-110.5 -307.5h481l-49 -108h-443 q-2 -14 -2 -43v-68v-35q0 -6 1 -19t1 -22h361l-49 -110h-301q20 -199 110 -307q86 -104 234 -105q80 0 157 33q74 31 146 96v-207q-59 -37 -146 -61q-70 -20 -159 -21q-225 0 -363 144q-139 145 -182 428h-174z" />
<glyph unicode="&#x2122;" d="M0 1399v94h438v-94h-162v-484h-114v484h-162zM522 915v578h170l137 -256l125 256h172v-578h-114v482l-156 -301h-55l-166 301v-482h-113z" />
<glyph unicode="&#xe000;" horiz-adv-x="1120" d="M0 1120h1120v-1120h-1120v1120z" />
<glyph unicode="&#xfb01;" d="M35 977v143h201v78q0 186 83 270q88 88 265 88h192v-153h-180q-96 0 -137 -41q-39 -39 -39 -143v-101h659v-1118h-184v977h-475v-977h-184v977h-201zM895 1321v233h184v-233h-184z" />
<glyph unicode="&#xfb02;" d="M35 977v143h201v78q0 186 83 270q88 88 265 88h495v-1556h-184v1403h-299q-96 0 -137 -41q-39 -39 -39 -143v-101h293v-141h-293v-977h-184v977h-201z" />
<glyph unicode="&#xfb03;" horiz-adv-x="3698" d="M2644 0v143h365v834h-287v143h471v-977h365v-143h-914zM3009 1323v233h184v-233h-184zM1428 977v143h299v78q0 186 84 270q88 88 264 88h221v-153h-209q-96 0 -137 -41q-39 -39 -39 -143v-99h385v-143h-385v-977h-184v977h-299zM195 977v143h299v78q0 186 84 270 q88 88 264 88h221v-153h-209q-96 0 -137 -41q-39 -39 -39 -143v-99h385v-143h-385v-977h-184v977h-299z" />
<glyph unicode="&#xfb04;" horiz-adv-x="3698" d="M2626 1423v144h479v-1161q0 -123 45 -186.5t135 -63.5h215v-156h-233q-168 0 -256 106q-90 109 -90 300v1017h-295zM1428 977v143h299v78q0 186 84 270q88 88 264 88h221v-153h-209q-96 0 -137 -41q-39 -39 -39 -143v-99h385v-143h-385v-977h-184v977h-299zM195 977v143 h299v78q0 186 84 270q88 88 264 88h221v-153h-209q-96 0 -137 -41q-39 -39 -39 -143v-99h385v-143h-385v-977h-184v977h-299z" />
<glyph d="M319 1497h203v-203h-203v203zM711 1497h202v-203h-202v203z" />
<glyph d="M672 1526h186l-229 -264h-154z" />
<glyph d="M612 1337l-57 33q-8 6 -41 19q-14 6 -27 6q-34 0 -55 -25q-20 -23 -20 -70v-6h-125q0 102 51 160q53 59 137 59q39 0 66 -8q39 -12 80 -35l57 -30q23 -12 39 -19q18 -6 33 -6q29 0 51 25q20 23 20 67v6h125q-4 -104 -53 -159q-53 -59 -135 -60q-37 0 -64 9q-37 9 -82 34z " />
<glyph d="M561 1526l197 -264h-154l-227 264h184z" />
<glyph d="M522 1528h189l211 -266h-140l-166 178l-165 -178h-140z" />
<glyph d="M51 504l-24 108l1060 262l27 -108z" />
</font>
</defs>
</svg>
