<?xml version="1.0" standalone="no"?>
<!DOCTYPE svg PUBLIC "-//W3C//DTD SVG 1.1//EN" "http://www.w3.org/Graphics/SVG/1.1/DTD/svg11.dtd" >
<svg xmlns="http://www.w3.org/2000/svg">
<metadata>
This is a custom SVG webfont generated by Font Squirrel.
Copyright   : Copyright c 2003 by Bitstream Inc All Rights ReservedCopyright c 2006 by Tavmjong Bah All Rights ReservedDejaVu changes are in public domain
Foundry     : DejaVu fonts team
Foundry URL : httpdejavusourceforgenet
</metadata>
<defs>
<font id="DejaVuSansCondensed" horiz-adv-x="1172" >
<font-face units-per-em="2048" ascent="1556" descent="-492" />
<missing-glyph horiz-adv-x="585" />
<glyph unicode=" "  horiz-adv-x="585" />
<glyph unicode="&#x09;" horiz-adv-x="585" />
<glyph unicode="&#xa0;" horiz-adv-x="585" />
<glyph unicode="!" horiz-adv-x="738" d="M278 0v254h183v-254h-183zM278 838v655h183v-655l-18 -357h-146z" />
<glyph unicode="&#x22;" horiz-adv-x="847" d="M177 938v555h153v-555h-153zM518 938v555h152v-555h-152z" />
<glyph unicode="#" horiz-adv-x="1544" d="M142 414v153h317l76 334h-290v154h325l92 415h145l-93 -415h262l95 415h144l-93 -415h281v-154h-316l-74 -334h287v-153h-322l-93 -414h-144l92 414h-263l-93 -414h-145l94 414h-284zM605 567h263l74 334h-262z" />
<glyph unicode="$" d="M153 92v180q92 -64 186 -96.5t194 -33.5v456q-199 36 -289.5 122t-90.5 236q0 163 98 257t282 108v235h90v-232q83 -4 161.5 -19.5t153.5 -42.5v-175q-75 42 -153.5 65t-161.5 27v-427q204 -35 300.5 -125t96.5 -246q0 -169 -102.5 -266.5t-294.5 -112.5v-303h-90l-1 301 q-95 2 -189.5 24.5t-189.5 67.5zM319 973q0 -86 50.5 -134t163.5 -69v410q-105 -13 -159.5 -66t-54.5 -141zM623 145q114 17 172 72t58 145q0 88 -55.5 140t-174.5 76v-433z" />
<glyph unicode="%" horiz-adv-x="1751" d="M102 1114q0 186 83.5 296t225.5 110q143 0 227.5 -109.5t84.5 -296.5q0 -189 -84.5 -298t-227.5 -109t-226 109.5t-83 297.5zM245 1114q0 -132 44 -206t122 -74q79 0 123.5 74t44.5 206q0 129 -45 204t-123 75q-77 0 -121.5 -74.5t-44.5 -204.5zM383 -29l841 1549h144 l-841 -1549h-144zM1029 377q0 188 84 297.5t227 109.5q142 0 226 -110t84 -297t-84.5 -296.5t-225.5 -109.5q-144 0 -227.5 109.5t-83.5 296.5zM1173 377q0 -130 44.5 -204.5t122.5 -74.5q77 0 121.5 74.5t44.5 204.5q0 131 -44.5 205.5t-121.5 74.5q-78 0 -122.5 -74 t-44.5 -206z" />
<glyph unicode="&#x26;" horiz-adv-x="1437" d="M116 461q0 128 60.5 240.5t180.5 211.5q-43 63 -65.5 125.5t-22.5 122.5q0 162 100 260.5t265 98.5q75 0 149.5 -18t150.5 -54v-182q-78 47 -149 71.5t-133 24.5q-94 0 -153 -55.5t-59 -143.5q0 -51 26.5 -102.5t108.5 -145.5l457 -520q53 89 83 190.5t35 215.5h168 q-11 -132 -58 -261t-130 -255l251 -285h-227l-129 147q-93 -89 -196 -132.5t-221 -43.5q-216 0 -354 137.5t-138 352.5zM290 473q0 -146 95.5 -243t239.5 -97q85 0 160 31.5t140 95.5l-477 543q-82 -81 -120 -161.5t-38 -168.5z" />
<glyph unicode="'" horiz-adv-x="506" d="M177 938v555h153v-555h-153z" />
<glyph unicode="(" horiz-adv-x="719" d="M158 643q0 223 67 449t203 462h144q-121 -230 -179.5 -455t-58.5 -456t59 -457.5t179 -455.5h-144q-136 235 -203 462t-67 451z" />
<glyph unicode=")" horiz-adv-x="719" d="M148 -270q119 229 178 455.5t59 457.5t-59 456t-178 455h144q135 -236 202 -462t67 -449q0 -224 -67 -451t-202 -462h-144z" />
<glyph unicode="*" horiz-adv-x="921" d="M55 858l323 195l-323 194l52 99l303 -203v377h102v-377l302 203l53 -99l-323 -194l323 -195l-53 -98l-302 203v-377h-102v377l-303 -203z" />
<glyph unicode="+" horiz-adv-x="1544" d="M195 557v170h502v557h151v-557h501v-170h-501v-557h-151v557h-502z" />
<glyph unicode="," horiz-adv-x="585" d="M142 -238l74 320v172h190v-172l-148 -320h-116z" />
<glyph unicode="-" horiz-adv-x="665" d="M90 479v164h485v-164h-485z" />
<glyph unicode="." horiz-adv-x="585" d="M197 0v254h190v-254h-190z" />
<glyph unicode="/" horiz-adv-x="621" d="M0 -190l468 1683h153l-468 -1683h-153z" />
<glyph unicode="0" d="M122 745q0 378 119 576.5t345 198.5t345 -198.5t119 -576.5q0 -377 -119 -575.5t-345 -198.5t-345 198.5t-119 575.5zM304 745q0 -307 71 -460.5t211 -153.5q141 0 211.5 153.5t70.5 460.5q0 308 -70.5 461.5t-211.5 153.5q-140 0 -211 -153.5t-71 -461.5z" />
<glyph unicode="1" d="M202 1237v184l322 72h182v-1323h297v-170h-774v170h297v1139z" />
<glyph unicode="2" d="M135 0v170q103 119 282 319.5t225 258.5q87 109 121.5 184.5t34.5 148.5q0 119 -75 194t-196 75q-85 0 -180 -33t-203 -100v204q110 49 205.5 74t174.5 25q209 0 333 -116t124 -310q0 -92 -31 -174.5t-113 -194.5q-23 -29 -143.5 -167.5t-339.5 -387.5h634v-170h-853z " />
<glyph unicode="3" d="M140 45v195q76 -49 166 -74t188 -25q171 0 260.5 75t89.5 218q0 132 -83 206.5t-232 74.5h-156v166h163q134 0 205.5 59.5t71.5 171.5q0 115 -73.5 176.5t-210.5 61.5q-75 0 -160 -18t-188 -56v180q103 32 193.5 48t170.5 16q207 0 328 -104.5t121 -282.5 q0 -124 -64 -209.5t-182 -118.5q130 -31 203.5 -129t73.5 -242q0 -221 -136.5 -342t-388.5 -121q-85 0 -174.5 18.5t-185.5 55.5z" />
<glyph unicode="4" d="M90 352v195l559 946h229v-973h191v-168h-191v-352h-181v352h-607zM238 520h459v797z" />
<glyph unicode="5" d="M142 35v203q81 -49 167.5 -73t182.5 -24q156 0 247 91t91 247t-91 247t-247 91q-73 0 -145.5 -18t-147.5 -56v750h714v-170h-548v-366q40 15 79.5 22.5t79.5 7.5q225 0 356.5 -137t131.5 -371q0 -241 -135 -374.5t-381 -133.5q-85 0 -172.5 16t-181.5 48z" />
<glyph unicode="6" d="M129 745q0 354 151 564.5t406 210.5q68 0 138 -15t145 -45v-184q-68 36 -138 55t-138 19q-180 0 -275 -135t-108 -408q53 87 133 133.5t176 46.5q203 0 320.5 -136.5t117.5 -371.5q0 -230 -122.5 -369t-326.5 -139q-233 0 -356 198.5t-123 575.5zM343 479 q0 -161 71.5 -254.5t193.5 -93.5q123 0 194.5 93.5t71.5 254.5q0 162 -71.5 255t-194.5 93q-122 0 -193.5 -93t-71.5 -255z" />
<glyph unicode="7" d="M151 1323v170h864v-86l-488 -1407h-189l458 1323h-645z" />
<glyph unicode="8" d="M125 420q0 143 74 242t205 133q-117 32 -182 121t-65 217q0 179 114.5 283t314.5 104q201 0 315 -104t114 -283q0 -128 -65 -217t-181 -121q131 -34 204.5 -133t73.5 -242q0 -217 -119.5 -333t-341.5 -116t-341.5 116t-119.5 333zM308 420q0 -135 74 -212t204 -77 t204.5 77.5t74.5 211.5q0 135 -74.5 212t-204.5 77t-204 -77t-74 -212zM338 1114q0 -116 65 -181t183 -65q117 0 183 65t66 181t-66 181t-183 65q-118 0 -183 -65t-65 -181z" />
<glyph unicode="9" d="M116 1012q0 230 122.5 369t325.5 139q233 0 356 -198.5t123 -576.5q0 -353 -150.5 -563.5t-405.5 -210.5q-69 0 -139 15t-146 45v184q69 -36 139 -55t138 -19q180 0 275 134.5t108 408.5q-52 -86 -132 -132t-177 -46q-202 0 -319.5 135.5t-117.5 370.5zM299 1012 q0 -162 71.5 -255t193.5 -93q123 0 194.5 93t71.5 255q0 161 -71.5 254.5t-194.5 93.5q-122 0 -193.5 -93.5t-71.5 -254.5z" />
<glyph unicode=":" horiz-adv-x="621" d="M216 0v254h190v-254h-190zM216 805v254h190v-254h-190z" />
<glyph unicode=";" horiz-adv-x="621" d="M142 -238l74 320v172h190v-172l-148 -320h-116zM216 805v254h190v-254h-190z" />
<glyph unicode="&#x3c;" horiz-adv-x="1544" d="M195 559v166l1154 465v-182l-929 -367l929 -365v-182z" />
<glyph unicode="=" horiz-adv-x="1544" d="M195 352v170h1154v-170h-1154zM195 762v168h1154v-168h-1154z" />
<glyph unicode="&#x3e;" horiz-adv-x="1544" d="M195 94v182l927 365l-927 367v182l1154 -465v-166z" />
<glyph unicode="?" horiz-adv-x="978" d="M132 1219v188q85 57 172 85t179 28q166 0 266.5 -97t100.5 -256q0 -76 -32.5 -144.5t-113.5 -154.5l-79 -86q-43 -47 -60.5 -73.5t-24.5 -51.5q-5 -21 -8 -51t-3 -82v-123h-172v154q0 101 25.5 166t106.5 151l81 89q51 53 74 100t23 96q0 89 -59 144t-156 55 q-71 0 -151.5 -35t-168.5 -102zM352 0v254h183v-254h-183z" />
<glyph unicode="@" horiz-adv-x="1843" d="M122 543q0 182 61 347t174 290q116 127 268.5 194.5t322.5 67.5q190 0 353.5 -87t274.5 -247q67 -98 102.5 -213t35.5 -238q0 -263 -143 -415t-395 -158v154q-54 -77 -123.5 -113.5t-162.5 -36.5q-155 0 -251.5 124.5t-96.5 324.5t97 325t251 125q93 0 163 -37.5 t123 -113.5v131h129v-736q131 22 205.5 133.5t74.5 288.5q0 107 -28.5 201t-85.5 174q-94 131 -228.5 200.5t-292.5 69.5q-111 0 -213 -32.5t-188 -96.5q-141 -102 -221 -267.5t-80 -358.5q0 -159 52 -298t150 -245q94 -104 218.5 -158.5t265.5 -54.5q116 0 228 43.5 t206 124.5l81 -111q-113 -97 -245.5 -148.5t-269.5 -51.5q-166 0 -314 65.5t-263 190.5t-175 289.5t-60 353.5zM686 537q0 -143 64 -224.5t175 -81.5t174.5 82t63.5 224q0 140 -65 222.5t-175 82.5q-109 0 -173 -82t-64 -223z" />
<glyph unicode="A" horiz-adv-x="1260" d="M14 0l513 1493h207l512 -1493h-189l-123 383h-606l-122 -383h-192zM383 551h495l-248 743z" />
<glyph unicode="B" horiz-adv-x="1264" d="M181 0v1493h464q208 0 320.5 -96t112.5 -273q0 -137 -57.5 -218t-169.5 -101q135 -32 209 -133.5t74 -253.5q0 -200 -122.5 -309t-348.5 -109h-482zM363 166h291q147 0 217.5 67.5t70.5 206.5q0 140 -70.5 206.5t-217.5 66.5h-291v-547zM363 877h269q133 0 198.5 55.5 t65.5 169.5q0 113 -65.5 169t-198.5 56h-269v-450z" />
<glyph unicode="C" horiz-adv-x="1287" d="M104 745q0 360 175 567.5t481 207.5q120 0 227 -35.5t200 -106.5v-213q-92 95 -196 142t-221 47q-230 0 -352.5 -156.5t-122.5 -452.5q0 -295 122.5 -451.5t352.5 -156.5q117 0 221 47t196 142v-211q-95 -72 -202 -108t-225 -36q-306 0 -481 207.5t-175 566.5z" />
<glyph unicode="D" horiz-adv-x="1419" d="M181 0v1493h373q391 0 573.5 -180.5t182.5 -564.5q0 -386 -183.5 -567t-572.5 -181h-373zM363 166h219q278 0 407.5 140t129.5 442q0 300 -129.5 439.5t-407.5 139.5h-219v-1161z" />
<glyph unicode="E" horiz-adv-x="1164" d="M181 0v1493h849v-170h-667v-442h640v-170h-640v-541h684v-170h-866z" />
<glyph unicode="F" horiz-adv-x="1060" d="M181 0v1493h772v-170h-590v-440h533v-170h-533v-713h-182z" />
<glyph unicode="G" horiz-adv-x="1428" d="M104 745q0 366 177.5 570.5t492.5 204.5q131 0 249.5 -36t218.5 -106v-215q-101 95 -214.5 143t-238.5 48q-246 0 -370 -153t-124 -456q0 -302 124 -455t370 -153q97 0 172.5 18.5t135.5 57.5v401h-297v166h477v-641q-105 -83 -232 -125.5t-271 -42.5 q-315 0 -492.5 204.5t-177.5 569.5z" />
<glyph unicode="H" horiz-adv-x="1386" d="M181 0v1493h182v-612h660v612h182v-1493h-182v711h-660v-711h-182z" />
<glyph unicode="I" horiz-adv-x="543" d="M181 0v1493h182v-1493h-182z" />
<glyph unicode="J" horiz-adv-x="543" d="M-95 -240h56q121 0 170.5 75t49.5 269v1389h182v-1389q0 -270 -92.5 -392t-296.5 -122h-69v170z" />
<glyph unicode="K" horiz-adv-x="1208" d="M181 0v1493h182v-631l603 631h234l-667 -696l714 -797h-239l-645 719v-719h-182z" />
<glyph unicode="L" horiz-adv-x="1026" d="M181 0v1493h182v-1323h654v-170h-836z" />
<glyph unicode="M" horiz-adv-x="1590" d="M181 0v1493h271l343 -1016l344 1016h271v-1493h-177v1311l-347 -1024h-182l-347 1024v-1311h-176z" />
<glyph unicode="N" horiz-adv-x="1378" d="M181 0v1493h245l596 -1249v1249h176v-1493h-245l-596 1249v-1249h-176z" />
<glyph unicode="O" horiz-adv-x="1450" d="M104 745q0 354 169.5 564.5t452.5 210.5t452 -210.5t169 -564.5q0 -353 -169 -563.5t-452 -210.5t-452.5 210t-169.5 564zM295 745q0 -282 116.5 -446t314.5 -164t314 164t116 446q0 283 -116 447t-314 164t-314.5 -164t-116.5 -447z" />
<glyph unicode="P" horiz-adv-x="1111" d="M181 0v1493h410q226 0 341.5 -113.5t115.5 -332.5q0 -221 -115.5 -334t-341.5 -113h-228v-600h-182zM363 766h228q127 0 196.5 73t69.5 208q0 134 -69.5 207t-196.5 73h-228v-561z" />
<glyph unicode="Q" horiz-adv-x="1450" d="M104 745q0 354 169.5 564.5t452.5 210.5t452 -210.5t169 -564.5q0 -260 -94 -445t-272 -273l239 -291h-219l-199 239q-30 -2 -45.5 -3t-30.5 -1q-283 0 -452.5 210.5t-169.5 563.5zM295 745q0 -282 116.5 -446t314.5 -164t314 164t116 446q0 283 -116 447t-314 164 t-314.5 -164t-116.5 -447z" />
<glyph unicode="R" horiz-adv-x="1280" d="M181 0v1493h410q231 0 344 -107t113 -323q0 -141 -58.5 -234t-171.5 -129q59 -22 114 -94t111 -198l185 -408h-196l-172 383q-66 150 -128.5 199t-170.5 49h-198v-631h-182zM363 797h228q132 0 199 67.5t67 198.5t-67 197.5t-199 66.5h-228v-530z" />
<glyph unicode="S" horiz-adv-x="1170" d="M122 1094q0 198 125.5 312t345.5 114q95 0 193 -19t200 -57v-197q-103 55 -195 82t-177 27q-149 0 -229.5 -64t-80.5 -182q0 -99 53.5 -149.5t203.5 -81.5l109 -25q204 -43 300.5 -151.5t96.5 -290.5q0 -217 -130.5 -329t-383.5 -112q-96 0 -203.5 24t-222.5 71v208 q111 -69 217 -104t209 -35q155 0 240 68t85 194q0 110 -61 172t-200 93l-110 24q-204 45 -294.5 141t-90.5 267z" />
<glyph unicode="T" horiz-adv-x="1125" d="M-5 1323v170h1136v-170h-477v-1323h-182v1323h-477z" />
<glyph unicode="U" horiz-adv-x="1349" d="M160 561v932h183v-907q0 -240 78.5 -345.5t253.5 -105.5t253 105.5t78 345.5v907h183v-932q0 -292 -130 -441t-384 -149q-255 0 -385 149t-130 441z" />
<glyph unicode="V" horiz-adv-x="1260" d="M14 1493h190l426 -1257l427 1257h189l-512 -1493h-207z" />
<glyph unicode="W" horiz-adv-x="1822" d="M61 1493h184l282 -1262l282 1262h204l283 -1262l282 1262h184l-337 -1493h-229l-283 1296l-287 -1296h-228z" />
<glyph unicode="X" horiz-adv-x="1262" d="M55 0l480 797l-419 696h195l334 -555l336 555h195l-432 -717l461 -776h-195l-378 635l-381 -635h-196z" />
<glyph unicode="Y" horiz-adv-x="1125" d="M-4 1493h196l372 -614l370 614h196l-476 -782v-711h-182v711z" />
<glyph unicode="Z" horiz-adv-x="1262" d="M83 0v154l849 1169h-828v170h1055v-154l-849 -1169h870v-170h-1097z" />
<glyph unicode="[" horiz-adv-x="719" d="M158 -270v1826h382v-143h-216v-1540h216v-143h-382z" />
<glyph unicode="\" horiz-adv-x="621" d="M0 1493h153l468 -1683h-153z" />
<glyph unicode="]" horiz-adv-x="719" d="M179 -127h215v1540h-215v143h382v-1826h-382v143z" />
<glyph unicode="^" horiz-adv-x="1544" d="M195 936l489 557h176l489 -557h-181l-396 395l-396 -395h-181z" />
<glyph unicode="_" horiz-adv-x="921" d="M-18 -340h958v-143h-958v143z" />
<glyph unicode="`" horiz-adv-x="921" d="M153 1638h177l254 -374h-138z" />
<glyph unicode="a" horiz-adv-x="1129" d="M111 326q0 189 113.5 285t339.5 96h232v18q0 127 -75 196.5t-211 69.5q-86 0 -168 -23t-158 -69v170q91 39 176.5 58.5t166.5 19.5q219 0 327 -126t108 -382v-639h-166v170q-56 -102 -140.5 -150.5t-207.5 -48.5q-155 0 -246 96.5t-91 258.5zM276 338q0 -98 58 -155.5 t158 -57.5q138 0 221 108.5t83 288.5v41h-164q-201 0 -278.5 -51t-77.5 -174z" />
<glyph unicode="b" horiz-adv-x="1170" d="M167 0v1556h167v-606q52 100 131.5 148.5t190.5 48.5q184 0 298.5 -162t114.5 -426t-114.5 -426t-298.5 -162q-111 0 -190.5 48.5t-131.5 148.5v-168h-167zM334 559q0 -203 75 -318.5t207 -115.5q131 0 206 115.5t75 318.5t-75 318.5t-206 115.5q-132 0 -207 -115.5 t-75 -318.5z" />
<glyph unicode="c" horiz-adv-x="1013" d="M102 559q0 274 135.5 431t370.5 157q77 0 150 -17.5t141 -52.5v-172q-70 43 -140.5 64.5t-142.5 21.5q-162 0 -251 -113.5t-89 -318.5t89 -318.5t251 -113.5q72 0 142.5 21.5t140.5 64.5v-170q-69 -36 -143.5 -54t-157.5 -18q-228 0 -362 159t-134 429z" />
<glyph unicode="d" horiz-adv-x="1170" d="M102 559q0 264 114.5 426t297.5 162q112 0 191.5 -48.5t131.5 -148.5v606h166v-1556h-166v168q-52 -100 -131.5 -148.5t-191.5 -48.5q-183 0 -297.5 162t-114.5 426zM273 559q0 -203 75 -318.5t206 -115.5q132 0 207.5 115.5t75.5 318.5t-75.5 318.5t-207.5 115.5 q-131 0 -206 -115.5t-75 -318.5z" />
<glyph unicode="e" horiz-adv-x="1134" d="M102 549q0 275 133.5 436.5t360.5 161.5q203 0 321.5 -145.5t118.5 -395.5v-90h-762q11 -190 103.5 -289.5t256.5 -99.5q96 0 185.5 26t177.5 78v-174q-89 -42 -182.5 -64t-189.5 -22q-242 0 -382.5 156t-140.5 422zM280 659l590 1q-2 151 -76 241t-196 90 q-139 0 -222.5 -87t-95.5 -245z" />
<glyph unicode="f" horiz-adv-x="648" d="M42 977v143h159v78q0 187 78 272.5t248 85.5h157v-153h-158q-90 0 -124.5 -40t-34.5 -144v-99h273v-143h-273v-977h-166v977h-159z" />
<glyph unicode="g" horiz-adv-x="1170" d="M102 573q0 260 113 417t299 157q112 0 192 -49t131 -148v170h166v-981q0 -286 -114.5 -425.5t-350.5 -139.5q-87 0 -164.5 14.5t-150.5 44.5v179q73 -44 144 -65t145 -21q163 0 244 94.5t81 285.5v91q-51 -99 -131 -148t-192 -49q-186 0 -299 157t-113 416zM273 573 q0 -199 74 -309t207 -110q134 0 208.5 110t74.5 309q0 200 -74.5 310t-208.5 110q-133 0 -207 -110t-74 -310z" />
<glyph unicode="h" horiz-adv-x="1168" d="M167 0v1556h167v-610q59 101 139.5 151t186.5 50q173 0 262.5 -119.5t89.5 -351.5v-676h-166v670q0 159 -56 238t-167 79q-134 0 -211.5 -95t-77.5 -259v-633h-167z" />
<glyph unicode="i" horiz-adv-x="512" d="M174 0v1120h165v-1120h-165zM174 1323v233h165v-233h-165z" />
<glyph unicode="j" horiz-adv-x="512" d="M-33 -270h44q94 0 128.5 48.5t34.5 201.5v1140h165v-1140q0 -214 -73 -310t-236 -96h-63v156zM174 1323v233h165v-233h-165z" />
<glyph unicode="k" horiz-adv-x="1067" d="M167 0v1556h167v-919l494 483h212l-535 -524l557 -596h-216l-512 547v-547h-167z" />
<glyph unicode="l" horiz-adv-x="512" d="M174 0v1556h165v-1556h-165z" />
<glyph unicode="m" horiz-adv-x="1795" d="M167 0v1120h167v-174q57 103 136 152t188 49q110 0 187 -62t113 -180q63 124 149 183t203 59q158 0 243.5 -122.5t85.5 -348.5v-676h-167v670q0 161 -51 239t-157 78q-128 0 -203 -95t-75 -259v-633h-166v670q0 162 -51.5 239.5t-158.5 77.5q-127 0 -201.5 -95.5 t-74.5 -258.5v-633h-167z" />
<glyph unicode="n" horiz-adv-x="1168" d="M167 0v1120h167v-174q59 101 139.5 151t186.5 50q173 0 262.5 -119.5t89.5 -351.5v-676h-166v670q0 159 -56 238t-167 79q-134 0 -211.5 -95t-77.5 -259v-633h-167z" />
<glyph unicode="o" horiz-adv-x="1127" d="M102 559q0 276 122.5 432t339.5 156q216 0 339.5 -156t123.5 -432q0 -275 -123.5 -431.5t-339.5 -156.5q-217 0 -339.5 156.5t-122.5 431.5zM276 559q0 -201 77 -316.5t211 -115.5q133 0 210 116t77 316q0 199 -77 315.5t-210 116.5t-210.5 -115.5t-77.5 -316.5z" />
<glyph unicode="p" horiz-adv-x="1170" d="M167 -426v1546h167v-170q52 100 131.5 148.5t190.5 48.5q184 0 298.5 -162t114.5 -426t-114.5 -426t-298.5 -162q-111 0 -190.5 48.5t-131.5 148.5v-594h-167zM334 559q0 -203 75 -318.5t207 -115.5q131 0 206 115.5t75 318.5t-75 318.5t-206 115.5q-132 0 -207 -115.5 t-75 -318.5z" />
<glyph unicode="q" horiz-adv-x="1170" d="M102 559q0 264 114.5 426t297.5 162q112 0 191.5 -48.5t131.5 -148.5v170h166v-1546h-166v594q-52 -100 -131.5 -148.5t-191.5 -48.5q-183 0 -297.5 162t-114.5 426zM273 559q0 -203 75 -318.5t206 -115.5q132 0 207.5 115.5t75.5 318.5t-75.5 318.5t-207.5 115.5 q-131 0 -206 -115.5t-75 -318.5z" />
<glyph unicode="r" horiz-adv-x="757" d="M167 0v1120h167v-174q52 102 136 151.5t203 49.5q17 0 38 -2.5t46 -7.5l1 -189q-28 18 -61 26.5t-72 8.5q-141 0 -216 -101.5t-75 -291.5v-590h-167z" />
<glyph unicode="s" horiz-adv-x="960" d="M100 41v190q92 -53 181 -79.5t176 -26.5q117 0 180 44.5t63 125.5q0 75 -45.5 115t-199.5 77l-57 15q-154 36 -222.5 110.5t-68.5 204.5q0 158 101 244t286 86q92 0 173 -15t149 -45v-174q-70 40 -145.5 60t-156.5 20q-123 0 -185 -42t-62 -126q0 -64 44.5 -100.5 t177.5 -69.5l56 -14q177 -42 251 -118.5t74 -213.5q0 -156 -111 -247t-305 -91q-81 0 -169 17.5t-185 52.5z" />
<glyph unicode="t" horiz-adv-x="722" d="M50 977v143h121v318h167v-318h341v-143h-341v-608q0 -137 33.5 -176t136.5 -39h171v-154h-171q-191 0 -264 79.5t-73 289.5v608h-121z" />
<glyph unicode="u" horiz-adv-x="1168" d="M157 442v678h165v-671q0 -159 56 -238.5t167 -79.5q135 0 212.5 95t77.5 259v635h166v-1120h-166v172q-60 -102 -139.5 -151.5t-185.5 -49.5q-173 0 -263 120t-90 351zM573 1147z" />
<glyph unicode="v" horiz-adv-x="1090" d="M55 1120h175l315 -940l315 940h176l-378 -1120h-225z" />
<glyph unicode="w" horiz-adv-x="1507" d="M77 1120h166l207 -874l206 874h195l207 -874l206 874h166l-264 -1120h-195l-217 918l-218 -918h-195z" />
<glyph unicode="x" horiz-adv-x="1090" d="M53 0l392 586l-359 534h196l267 -399l267 399h196l-365 -545l383 -575h-195l-293 440l-294 -440h-195z" />
<glyph unicode="y" horiz-adv-x="1090" d="M55 1120h175l315 -876l315 876h176l-443 -1224q-70 -200 -136.5 -261t-178.5 -61h-132v154h97q68 0 106 36t84 170l30 84z" />
<glyph unicode="z" horiz-adv-x="967" d="M79 0v168l623 805h-600v147h786v-168l-622 -805h622v-147h-809z" />
<glyph unicode="{" d="M230 541v143h55q129 0 177 57.5t48 206.5v240q0 221 76 294.5t300 73.5h56v-143h-61q-127 0 -165.5 -44t-38.5 -185v-248q0 -157 -41 -228t-140 -96q100 -27 140.5 -98t40.5 -227v-248q0 -141 38.5 -185t165.5 -44h61v-144h-56q-224 0 -300 74t-76 295v239 q0 151 -48.5 209t-176.5 58h-55z" />
<glyph unicode="|" horiz-adv-x="621" d="M234 -483v2048h153v-2048h-153z" />
<glyph unicode="}" d="M230 -190h63q126 0 164.5 43t38.5 186v248q0 156 40.5 227t140.5 98q-100 25 -140.5 96t-40.5 228v248q0 142 -38.5 185.5t-164.5 43.5h-63v143h57q224 0 299.5 -73.5t75.5 -294.5v-240q0 -149 48.5 -206.5t175.5 -57.5h56v-143h-56q-127 0 -175.5 -58t-48.5 -209v-239 q0 -221 -75.5 -295t-299.5 -74h-57v144z" />
<glyph unicode="~" horiz-adv-x="1544" d="M195 467v178q95 79 175.5 113.5t167.5 34.5q99 0 232 -60q8 -4 13 -6q7 -3 20 -8q139 -62 224 -62q77 0 153 38t169 122v-178q-94 -79 -174.5 -113t-168.5 -34q-99 0 -230 59l-15 6q-6 3 -19 8q-140 62 -224 62q-80 0 -157 -38.5t-166 -121.5z" />
<glyph unicode="&#xa1;" horiz-adv-x="738" d="M278 0v655l19 357h146l18 -357v-655h-183zM278 1239v254h183v-254h-183z" />
<glyph unicode="&#xa2;" d="M155 559q0 258 119 411t336 175v287h92l1 -287q66 -4 127.5 -20.5t122.5 -47.5v-172q-67 41 -128 62t-122 24l-1 -864q63 5 124.5 26t126.5 60v-170q-58 -30 -120 -47.5t-131 -24.5v-284h-92v288q-217 20 -336 173.5t-119 410.5zM330 559q0 -185 74 -298t206 -130v856 q-132 -18 -206 -131t-74 -297z" />
<glyph unicode="&#xa3;" d="M116 0v170h212v465h-179v143h179v238q0 261 96.5 382.5t305.5 121.5q55 0 123 -15.5t139 -44.5v-182q-69 41 -130 61.5t-116 20.5q-133 0 -185.5 -77.5t-52.5 -289.5v-215h352v-143h-352v-465h502v-170h-894z" />
<glyph unicode="&#xa4;" d="M85 197l186 206q-33 62 -50 121t-17 117q0 64 17 122t52 114l-187 206l104 115l186 -207q50 39 102 57.5t110 18.5q54 0 106.5 -18t107.5 -56l186 209l103 -115l-186 -206q34 -59 50 -118.5t16 -121.5q0 -63 -17 -120.5t-53 -114.5l188 -207l-103 -113l-186 207 q-53 -40 -105 -59t-107 -19q-52 0 -106 18.5t-109 55.5l-187 -207zM345 643q0 -114 70.5 -192t172.5 -78q101 0 171.5 78.5t70.5 191.5q0 112 -70 189t-172 77q-101 0 -172 -77t-71 -189z" />
<glyph unicode="&#xa5;" d="M74 1493h171l341 -700l339 700h172l-286 -586h237v-123h-297l-76 -155v-51h373v-123h-371v-455h-181v455h-374v123h374v51l-76 155h-298v123h237z" />
<glyph unicode="&#xa6;" horiz-adv-x="621" d="M234 -350v758h153v-758h-153zM234 674v758h153v-758h-153z" />
<glyph unicode="&#xa7;" horiz-adv-x="921" d="M83 723q0 91 41.5 162.5t123.5 120.5q-53 44 -79.5 100t-26.5 125q0 130 90 209.5t240 79.5q65 0 134 -14.5t140 -43.5v-164q-75 39 -139 58.5t-115 19.5q-87 0 -135.5 -40t-48.5 -111q0 -90 185 -205q24 -15 36 -23q190 -119 249 -196t59 -178q0 -90 -41.5 -160 t-125.5 -123q56 -52 82 -106.5t26 -118.5q0 -142 -92 -226t-248 -84q-65 0 -134.5 14.5t-148.5 43.5v164q78 -39 144.5 -58.5t118.5 -19.5q92 0 143 42t51 118q0 102 -199 225l-22 14q-193 120 -250.5 196.5t-57.5 178.5zM229 754q0 -76 62.5 -142.5t287.5 -201.5 q56 45 84 90.5t28 91.5q0 75 -64.5 143t-285.5 201q-57 -46 -84.5 -91t-27.5 -91z" />
<glyph unicode="&#xa8;" horiz-adv-x="921" d="M194 1350v202h182v-202h-182zM545 1350v202h183v-202h-183z" />
<glyph unicode="&#xa9;" horiz-adv-x="1843" d="M255 741q0 154 48.5 285t146.5 240t216.5 164t255.5 55q136 0 254.5 -55t216.5 -164t146.5 -240t48.5 -285q0 -152 -48.5 -282.5t-146.5 -239.5t-216.5 -164t-254.5 -55q-137 0 -255.5 55t-216.5 164t-146.5 239.5t-48.5 282.5zM345 741q0 -129 43 -242.5t128 -207.5 q84 -94 186 -141.5t220 -47.5t220.5 47.5t186.5 141.5q84 93 126 206t42 244q0 133 -42.5 246.5t-125.5 206.5q-84 94 -186.5 141t-220.5 47t-220 -47t-186 -141q-85 -94 -128 -208.5t-43 -244.5zM524 741q0 209 113 330t307 121q66 0 127 -14t120 -41v-129 q-60 33 -118.5 49t-117.5 16q-134 0 -209.5 -87.5t-75.5 -244.5q0 -159 77 -246t217 -87q58 0 112.5 15.5t114.5 49.5v-127q-61 -29 -122.5 -43t-124.5 -14q-194 0 -307 122t-113 330z" />
<glyph unicode="&#xaa;" horiz-adv-x="868" d="M104 946q0 135 85.5 204t255.5 69h163v4q0 91 -52.5 136.5t-157.5 45.5q-56 0 -117 -17t-123 -51v127q66 28 131.5 42t127.5 14q164 0 244.5 -88t80.5 -267v-448h-134v112q-39 -63 -104 -97t-148 -34q-116 0 -184 67.5t-68 180.5zM125 469v123h619v-123h-619zM236 958 q0 -64 44 -102.5t118 -38.5q93 0 151.5 72t58.5 186v29h-114q-145 0 -201.5 -33.5t-56.5 -112.5z" />
<glyph unicode="&#xab;" horiz-adv-x="1127" d="M142 559v82l422 418v-191l-271 -268l271 -268v-191zM533 559v82l422 418v-191l-271 -268l271 -268v-191z" />
<glyph unicode="&#xac;" horiz-adv-x="1544" d="M195 692v170h1154v-575h-151v405h-1003z" />
<glyph unicode="&#xad;" horiz-adv-x="665" d="M90 479v164h485v-164h-485z" />
<glyph unicode="&#xae;" horiz-adv-x="1843" d="M255 741q0 154 48.5 285t146.5 240t216.5 164t255.5 55q136 0 254.5 -55t216.5 -164t146.5 -240t48.5 -285q0 -152 -48.5 -282.5t-146.5 -239.5t-216.5 -164t-254.5 -55q-137 0 -255.5 55t-216.5 164t-146.5 239.5t-48.5 282.5zM345 741q0 -129 43 -242.5t128 -207.5 q84 -94 186 -141.5t220 -47.5t220.5 47.5t186.5 141.5q84 93 126 206t42 244q0 133 -42.5 246.5t-125.5 206.5q-84 94 -186.5 141t-220.5 47t-220 -47t-186 -141q-85 -94 -128 -208.5t-43 -244.5zM647 338v836h257q158 0 236.5 -59.5t78.5 -180.5q0 -86 -47.5 -142 t-133.5 -73q21 -8 51.5 -46.5t71.5 -111.5l123 -223h-154l-117 209q-53 96 -85.5 121.5t-81.5 25.5h-59v-356h-140zM787 795h110q99 0 138.5 31t39.5 106q0 76 -40 107.5t-138 31.5h-110v-276z" />
<glyph unicode="&#xaf;" horiz-adv-x="921" d="M192 1378v148h538v-148h-538z" />
<glyph unicode="&#xb0;" horiz-adv-x="921" d="M176 1200q0 134 82.5 227t202.5 93q57 0 110.5 -24.5t91.5 -70.5q42 -45 62.5 -102t20.5 -123q0 -132 -83 -223.5t-204 -91.5t-202 90t-81 225zM290 1200q0 -79 49.5 -133.5t121.5 -54.5t121.5 54.5t49.5 133.5t-50 135t-121 56q-72 0 -121.5 -55.5t-49.5 -135.5z" />
<glyph unicode="&#xb1;" horiz-adv-x="1544" d="M195 0v170h1154v-170h-1154zM195 727v170h502v387h151v-387h501v-170h-501v-387h-151v387h-502z" />
<glyph unicode="&#xb2;" horiz-adv-x="738" d="M85 668v110q30 31 87 87q310 305 310 399q0 66 -47 106.5t-124 40.5q-46 0 -101 -17.5t-120 -52.5v123q69 28 129 42t111 14q131 0 209 -66t78 -174q0 -139 -297 -423q-51 -48 -79 -75h382v-114h-538z" />
<glyph unicode="&#xb3;" horiz-adv-x="738" d="M88 694v121q47 -27 100.5 -40t113.5 -13q98 0 152 39.5t54 109.5q0 74 -49.5 112t-147.5 38h-77v108h85q84 0 127.5 31.5t43.5 91.5q0 58 -45 88.5t-130 30.5q-36 0 -82 -9t-119 -32v115q66 17 123.5 26t107.5 9q129 0 205 -59t76 -158q0 -69 -40.5 -117t-113.5 -66 q82 -18 127.5 -72.5t45.5 -136.5q0 -124 -85.5 -191t-244.5 -67q-51 0 -107.5 10.5t-119.5 30.5z" />
<glyph unicode="&#xb4;" horiz-adv-x="921" d="M334 1262l252 376h179l-293 -376h-138z" />
<glyph unicode="&#xb5;" d="M157 -426v1546h165v-696q0 -145 62 -219t184 -74q133 0 200 84t67 252v653h166v-862q0 -60 15.5 -88.5t49.5 -28.5q8 0 22 5.5t40 17.5v-148q-37 -23 -70 -34t-64 -11q-62 0 -99 39t-51 119q-45 -79 -110 -118.5t-154 -39.5q-91 0 -155.5 39t-102.5 117v-553h-165z" />
<glyph unicode="&#xb6;" d="M142 1071q0 190 117 306t311 116h403v-1690h-127v1567h-171v-1567h-128v846q-193 17 -299 127.5t-106 294.5z" />
<glyph unicode="&#xb7;" horiz-adv-x="585" d="M197 584v254h190v-254h-190z" />
<glyph unicode="&#xb8;" horiz-adv-x="921" d="M262 -240q30 -17 63.5 -24.5t75.5 -7.5q53 0 80 24t27 70q0 30 -19 73.5t-60 104.5h107q50 -62 74 -114.5t24 -100.5q0 -89 -54 -134.5t-160 -45.5q-41 0 -80 6t-78 18v131z" />
<glyph unicode="&#xb9;" horiz-adv-x="738" d="M123 1348v116l207 39h124v-725h184v-110h-498v110h184v611z" />
<glyph unicode="&#xba;" horiz-adv-x="868" d="M86 1108q0 191 94 301.5t255 110.5t253.5 -110.5t92.5 -301.5t-92.5 -300.5t-253.5 -109.5t-255 110t-94 300zM125 469v123h619v-123h-619zM227 1108q0 -133 57 -213t151 -80t150.5 80t56.5 213q0 137 -56 217t-151 80t-151.5 -80.5t-56.5 -216.5z" />
<glyph unicode="&#xbb;" horiz-adv-x="1127" d="M174 141v191l271 268l-271 268v191l422 -418v-82zM564 141v191l271 268l-271 268v191l422 -418v-82z" />
<glyph unicode="&#xbc;" horiz-adv-x="1786" d="M123 1348v116l207 39h124v-725h184v-110h-498v110h184v611zM1104 186v121l353 528h149v-540h121v-109h-121v-186h-130v186h-372zM1198 295h278v419zM401 -29l839 1549h144l-839 -1549h-144z" />
<glyph unicode="&#xbd;" horiz-adv-x="1786" d="M123 1348v116l207 39h124v-725h184v-110h-498v110h184v611zM1132 0v110q30 31 87 87q310 305 310 399q0 66 -47 106.5t-124 40.5q-46 0 -101 -17.5t-120 -52.5v123q69 28 129 42t111 14q131 0 209 -66t78 -174q0 -139 -297 -423q-51 -48 -79 -75h382v-114h-538zM401 -29 l839 1549h144l-839 -1549h-144z" />
<glyph unicode="&#xbe;" horiz-adv-x="1786" d="M88 694v121q47 -27 100.5 -40t113.5 -13q98 0 152 39.5t54 109.5q0 74 -49.5 112t-147.5 38h-77v108h85q84 0 127.5 31.5t43.5 91.5q0 58 -45 88.5t-130 30.5q-36 0 -82 -9t-119 -32v115q66 17 123.5 26t107.5 9q129 0 205 -59t76 -158q0 -69 -40.5 -117t-113.5 -66 q82 -18 127.5 -72.5t45.5 -136.5q0 -124 -85.5 -191t-244.5 -67q-51 0 -107.5 10.5t-119.5 30.5zM1104 186v121l353 528h149v-540h121v-109h-121v-186h-130v186h-372zM1198 295h278v419zM401 -29l839 1549h144l-839 -1549h-144z" />
<glyph unicode="&#xbf;" horiz-adv-x="978" d="M129 324q0 76 32.5 144.5t112.5 154.5l80 86q43 47 60 73.5t24 51.5q7 21 9.5 51t2.5 84v123h171v-156q0 -101 -24.5 -166t-106.5 -152l-80 -88q-53 -53 -76 -100t-23 -96q0 -89 59 -144t157 -55q71 0 152 35t167 102v-188q-85 -57 -171 -85t-179 -28q-166 0 -266.5 97 t-100.5 256zM445 1239v254h181v-254h-181z" />
<glyph unicode="&#xc0;" horiz-adv-x="1260" d="M14 0l513 1493h207l512 -1493h-189l-123 383h-606l-122 -383h-192zM383 551h495l-248 743zM411 1899h168l176 -264h-137z" />
<glyph unicode="&#xc1;" horiz-adv-x="1260" d="M14 0l513 1493h207l512 -1493h-189l-123 383h-606l-122 -383h-192zM383 551h495l-248 743zM503 1635l177 264h166l-205 -264h-138z" />
<glyph unicode="&#xc2;" horiz-adv-x="1260" d="M14 0l513 1493h207l512 -1493h-189l-123 383h-606l-122 -383h-192zM383 551h495l-248 743zM356 1635l190 266h169l190 -266h-125l-150 178l-149 -178h-125z" />
<glyph unicode="&#xc3;" horiz-adv-x="1260" d="M14 0l513 1493h207l512 -1493h-189l-123 383h-606l-122 -383h-192zM383 551h495l-248 743zM333 1667q0 101 46.5 160t123.5 59q33 0 60.5 -8t70.5 -35l51 -30q21 -13 36 -19t29 -6q29 0 47 25.5t18 66.5v6h112q-2 -100 -48 -159.5t-122 -59.5q-30 0 -57 8t-73 35l-52 33 q-22 14 -36 19.5t-25 5.5q-32 0 -50 -25t-18 -70v-6h-113z" />
<glyph unicode="&#xc4;" horiz-adv-x="1260" d="M14 0l513 1493h207l512 -1493h-189l-123 383h-606l-122 -383h-192zM383 551h495l-248 743zM363 1667v203h183v-203h-183zM715 1667v203h182v-203h-182z" />
<glyph unicode="&#xc5;" horiz-adv-x="1260" d="M14 0l480 1397q-55 41 -83 98.5t-28 130.5q0 115 71.5 195t175.5 80q103 0 175.5 -80.5t72.5 -194.5q0 -70 -28.5 -129t-82.5 -100l479 -1397h-189l-123 383h-606l-122 -383h-192zM385 551h491l-246 743zM494 1626q0 -63 39.5 -107t96.5 -44t97 44t40 107t-40 107.5 t-97 44.5q-58 0 -97 -43.5t-39 -108.5z" />
<glyph unicode="&#xc6;" horiz-adv-x="1795" d="M7 0l563 1493h1090v-170h-666v-442h640v-170h-640v-541h684v-170h-867v383h-475l-144 -383h-185zM398 551h413v784h-116z" />
<glyph unicode="&#xc7;" horiz-adv-x="1287" d="M104 745q0 360 175 567.5t481 207.5q120 0 227 -35.5t200 -106.5v-213q-92 95 -196 142t-221 47q-230 0 -352.5 -156.5t-122.5 -452.5q0 -295 122.5 -451.5t352.5 -156.5q117 0 221 47t196 142v-211q-95 -72 -202 -108t-225 -36q-306 0 -481 207.5t-175 566.5zM533 -240 q30 -17 63.5 -24.5t75.5 -7.5q53 0 80 24t27 70q0 30 -19 73.5t-60 104.5h107q50 -62 74 -114.5t24 -100.5q0 -89 -54 -134.5t-160 -45.5q-41 0 -80 6t-78 18v131z" />
<glyph unicode="&#xc8;" horiz-adv-x="1164" d="M181 0v1493h849v-170h-667v-442h640v-170h-640v-541h684v-170h-866zM384 1899h168l176 -264h-137z" />
<glyph unicode="&#xc9;" horiz-adv-x="1164" d="M181 0v1493h849v-170h-667v-442h640v-170h-640v-541h684v-170h-866zM476 1635l177 264h166l-205 -264h-138z" />
<glyph unicode="&#xca;" horiz-adv-x="1164" d="M181 0v1493h849v-170h-667v-442h640v-170h-640v-541h684v-170h-866zM329 1635l190 266h169l190 -266h-125l-150 178l-149 -178h-125z" />
<glyph unicode="&#xcb;" horiz-adv-x="1164" d="M181 0v1493h849v-170h-667v-442h640v-170h-640v-541h684v-170h-866zM336 1667v203h183v-203h-183zM688 1667v203h182v-203h-182z" />
<glyph unicode="&#xcc;" horiz-adv-x="543" d="M181 0v1493h182v-1493h-182zM54 1899h168l176 -264h-137z" />
<glyph unicode="&#xcd;" horiz-adv-x="543" d="M181 0v1493h182v-1493h-182zM146 1635l177 264h166l-205 -264h-138z" />
<glyph unicode="&#xce;" horiz-adv-x="543" d="M181 0v1493h182v-1493h-182zM-1 1635l190 266h169l190 -266h-125l-150 178l-149 -178h-125z" />
<glyph unicode="&#xcf;" horiz-adv-x="543" d="M181 0v1493h182v-1493h-182zM6 1667v203h183v-203h-183zM358 1667v203h182v-203h-182z" />
<glyph unicode="&#xd0;" horiz-adv-x="1428" d="M9 700v144h181v649h374q390 0 572.5 -180.5t182.5 -564.5q0 -386 -183 -567t-572 -181h-374v700h-181zM373 166h218q278 0 407.5 140t129.5 442q0 300 -129.5 439.5t-407.5 139.5h-218v-483h302v-144h-302v-534z" />
<glyph unicode="&#xd1;" horiz-adv-x="1378" d="M181 0v1493h245l596 -1249v1249h176v-1493h-245l-596 1249v-1249h-176zM392 1667q0 101 46.5 160t123.5 59q33 0 60.5 -8t70.5 -35l51 -30q21 -13 36 -19t29 -6q29 0 47 25.5t18 66.5v6h112q-2 -100 -48 -159.5t-122 -59.5q-30 0 -57 8t-73 35l-52 33q-22 14 -36 19.5 t-25 5.5q-32 0 -50 -25t-18 -70v-6h-113z" />
<glyph unicode="&#xd2;" horiz-adv-x="1450" d="M104 745q0 354 169.5 564.5t452.5 210.5t452 -210.5t169 -564.5q0 -353 -169 -563.5t-452 -210.5t-452.5 210t-169.5 564zM295 745q0 -282 116.5 -446t314.5 -164t314 164t116 446q0 283 -116 447t-314 164t-314.5 -164t-116.5 -447zM507 1899h168l176 -264h-137z" />
<glyph unicode="&#xd3;" horiz-adv-x="1450" d="M104 745q0 354 169.5 564.5t452.5 210.5t452 -210.5t169 -564.5q0 -353 -169 -563.5t-452 -210.5t-452.5 210t-169.5 564zM295 745q0 -282 116.5 -446t314.5 -164t314 164t116 446q0 283 -116 447t-314 164t-314.5 -164t-116.5 -447zM599 1635l177 264h166l-205 -264 h-138z" />
<glyph unicode="&#xd4;" horiz-adv-x="1450" d="M104 745q0 354 169.5 564.5t452.5 210.5t452 -210.5t169 -564.5q0 -353 -169 -563.5t-452 -210.5t-452.5 210t-169.5 564zM295 745q0 -282 116.5 -446t314.5 -164t314 164t116 446q0 283 -116 447t-314 164t-314.5 -164t-116.5 -447zM452 1635l190 266h169l190 -266h-125 l-150 178l-149 -178h-125z" />
<glyph unicode="&#xd5;" horiz-adv-x="1450" d="M104 745q0 354 169.5 564.5t452.5 210.5t452 -210.5t169 -564.5q0 -353 -169 -563.5t-452 -210.5t-452.5 210t-169.5 564zM295 745q0 -282 116.5 -446t314.5 -164t314 164t116 446q0 283 -116 447t-314 164t-314.5 -164t-116.5 -447zM429 1667q0 101 46.5 160t123.5 59 q33 0 60.5 -8t70.5 -35l51 -30q21 -13 36 -19t29 -6q29 0 47 25.5t18 66.5v6h112q-2 -100 -48 -159.5t-122 -59.5q-30 0 -57 8t-73 35l-52 33q-22 14 -36 19.5t-25 5.5q-32 0 -50 -25t-18 -70v-6h-113z" />
<glyph unicode="&#xd6;" horiz-adv-x="1450" d="M104 745q0 354 169.5 564.5t452.5 210.5t452 -210.5t169 -564.5q0 -353 -169 -563.5t-452 -210.5t-452.5 210t-169.5 564zM295 745q0 -282 116.5 -446t314.5 -164t314 164t116 446q0 283 -116 447t-314 164t-314.5 -164t-116.5 -447zM459 1667v203h183v-203h-183z M811 1667v203h182v-203h-182z" />
<glyph unicode="&#xd7;" horiz-adv-x="1544" d="M253 184l410 457l-410 459l106 121l413 -459l413 459l107 -121l-411 -459l411 -457l-107 -121l-413 459l-413 -459z" />
<glyph unicode="&#xd8;" horiz-adv-x="1450" d="M92 18l153 201q-70 102 -105.5 234t-35.5 292q0 354 169.5 564.5t452.5 210.5q117 0 216.5 -38.5t177.5 -113.5l146 191l92 -89l-153 -198q70 -103 106 -236t36 -291q0 -353 -169 -563.5t-452 -210.5q-115 0 -214.5 37.5t-181.5 112.5l-146 -191zM295 745 q0 -112 17.5 -206t52.5 -162l647 848q-55 64 -127.5 97.5t-158.5 33.5q-198 0 -314.5 -164t-116.5 -447zM440 266q56 -64 128.5 -97.5t157.5 -33.5q198 0 314 164t116 446q0 112 -18 204t-53 163z" />
<glyph unicode="&#xd9;" horiz-adv-x="1349" d="M160 561v932h183v-907q0 -240 78.5 -345.5t253.5 -105.5t253 105.5t78 345.5v907h183v-932q0 -292 -130 -441t-384 -149q-255 0 -385 149t-130 441zM456 1899h168l176 -264h-137z" />
<glyph unicode="&#xda;" horiz-adv-x="1349" d="M160 561v932h183v-907q0 -240 78.5 -345.5t253.5 -105.5t253 105.5t78 345.5v907h183v-932q0 -292 -130 -441t-384 -149q-255 0 -385 149t-130 441zM548 1635l177 264h166l-205 -264h-138z" />
<glyph unicode="&#xdb;" horiz-adv-x="1349" d="M160 561v932h183v-907q0 -240 78.5 -345.5t253.5 -105.5t253 105.5t78 345.5v907h183v-932q0 -292 -130 -441t-384 -149q-255 0 -385 149t-130 441zM401 1635l190 266h169l190 -266h-125l-150 178l-149 -178h-125z" />
<glyph unicode="&#xdc;" horiz-adv-x="1349" d="M160 561v932h183v-907q0 -240 78.5 -345.5t253.5 -105.5t253 105.5t78 345.5v907h183v-932q0 -292 -130 -441t-384 -149q-255 0 -385 149t-130 441zM408 1667v203h183v-203h-183zM760 1667v203h182v-203h-182z" />
<glyph unicode="&#xdd;" horiz-adv-x="1125" d="M-4 1493h196l372 -614l370 614h196l-476 -782v-711h-182v711zM437 1635l177 264h166l-205 -264h-138z" />
<glyph unicode="&#xde;" horiz-adv-x="1115" d="M181 0v1493h182v-264h228q226 0 341.5 -112.5t115.5 -332.5t-115.5 -333t-341.5 -113h-228v-338h-182zM363 504h228q127 0 196.5 73t69.5 207t-69 206.5t-197 72.5h-228v-559z" />
<glyph unicode="&#xdf;" horiz-adv-x="1161" d="M167 0v1137q0 200 107.5 309.5t304.5 109.5q187 0 285.5 -116t101.5 -340q-136 -8 -211.5 -65.5t-75.5 -153.5q0 -47 26 -87.5t84 -82.5l52 -37q149 -106 192 -177t43 -171q0 -172 -101 -263.5t-291 -91.5q-58 0 -119 12.5t-127 36.5v164q72 -30 135 -44.5t122 -14.5 q104 0 158 47.5t54 138.5q0 63 -26.5 105t-117.5 104l-83 55q-86 59 -125 126.5t-39 158.5q0 127 75 213t211 115q-7 103 -66 159t-161 56q-117 0 -178 -69.5t-61 -200.5v-1133h-169z" />
<glyph unicode="&#xe0;" horiz-adv-x="1129" d="M111 326q0 189 113.5 285t339.5 96h232v18q0 127 -75 196.5t-211 69.5q-86 0 -168 -23t-158 -69v170q91 39 176.5 58.5t166.5 19.5q219 0 327 -126t108 -382v-639h-166v170q-56 -102 -140.5 -150.5t-207.5 -48.5q-155 0 -246 96.5t-91 258.5zM276 338q0 -98 58 -155.5 t158 -57.5q138 0 221 108.5t83 288.5v41h-164q-201 0 -278.5 -51t-77.5 -174zM227 1638h177l254 -374h-138z" />
<glyph unicode="&#xe1;" horiz-adv-x="1129" d="M111 326q0 189 113.5 285t339.5 96h232v18q0 127 -75 196.5t-211 69.5q-86 0 -168 -23t-158 -69v170q91 39 176.5 58.5t166.5 19.5q219 0 327 -126t108 -382v-639h-166v170q-56 -102 -140.5 -150.5t-207.5 -48.5q-155 0 -246 96.5t-91 258.5zM276 338q0 -98 58 -155.5 t158 -57.5q138 0 221 108.5t83 288.5v41h-164q-201 0 -278.5 -51t-77.5 -174zM408 1262l252 376h179l-293 -376h-138z" />
<glyph unicode="&#xe2;" horiz-adv-x="1129" d="M111 326q0 189 113.5 285t339.5 96h232v18q0 127 -75 196.5t-211 69.5q-86 0 -168 -23t-158 -69v170q91 39 176.5 58.5t166.5 19.5q219 0 327 -126t108 -382v-639h-166v170q-56 -102 -140.5 -150.5t-207.5 -48.5q-155 0 -246 96.5t-91 258.5zM276 338q0 -98 58 -155.5 t158 -57.5q138 0 221 108.5t83 288.5v41h-164q-201 0 -278.5 -51t-77.5 -174zM248 1262l220 376h133l221 -376h-125l-162 245l-162 -245h-125z" />
<glyph unicode="&#xe3;" horiz-adv-x="1129" d="M111 326q0 189 113.5 285t339.5 96h232v18q0 127 -75 196.5t-211 69.5q-86 0 -168 -23t-158 -69v170q91 39 176.5 58.5t166.5 19.5q219 0 327 -126t108 -382v-639h-166v170q-56 -102 -140.5 -150.5t-207.5 -48.5q-155 0 -246 96.5t-91 258.5zM276 338q0 -98 58 -155.5 t158 -57.5q138 0 221 108.5t83 288.5v41h-164q-201 0 -278.5 -51t-77.5 -174zM238 1309q2 135 47.5 208.5t127.5 73.5q35 0 63.5 -14t61.5 -47l52 -55q20 -20 34.5 -29.5t26.5 -9.5q34 0 50.5 36.5t17.5 118.5h113q-2 -135 -48 -208.5t-128 -73.5q-34 0 -63 14t-62 47 l-51 55q-20 20 -35 29.5t-26 9.5q-35 0 -51 -36.5t-18 -118.5h-112z" />
<glyph unicode="&#xe4;" horiz-adv-x="1129" d="M111 326q0 189 113.5 285t339.5 96h232v18q0 127 -75 196.5t-211 69.5q-86 0 -168 -23t-158 -69v170q91 39 176.5 58.5t166.5 19.5q219 0 327 -126t108 -382v-639h-166v170q-56 -102 -140.5 -150.5t-207.5 -48.5q-155 0 -246 96.5t-91 258.5zM276 338q0 -98 58 -155.5 t158 -57.5q138 0 221 108.5t83 288.5v41h-164q-201 0 -278.5 -51t-77.5 -174zM268 1350v202h182v-202h-182zM619 1350v202h183v-202h-183z" />
<glyph unicode="&#xe5;" horiz-adv-x="1129" d="M111 326q0 189 113.5 285t339.5 96h232v18q0 127 -75 196.5t-211 69.5q-86 0 -168 -23t-158 -69v170q91 39 176.5 58.5t166.5 19.5q219 0 327 -126t108 -382v-639h-166v170q-56 -102 -140.5 -150.5t-207.5 -48.5q-155 0 -246 96.5t-91 258.5zM276 338q0 -98 58 -155.5 t158 -57.5q138 0 221 108.5t83 288.5v41h-164q-201 0 -278.5 -51t-77.5 -174zM288 1524q0 115 71.5 194.5t175.5 79.5q103 0 174.5 -79.5t71.5 -194.5t-71.5 -195t-174.5 -80q-104 0 -175.5 80t-71.5 195zM398 1524q0 -65 39 -108.5t98 -43.5q57 0 97 44t40 108 q0 63 -40 107t-97 44q-59 0 -98 -43.5t-39 -107.5z" />
<glyph unicode="&#xe6;" horiz-adv-x="1809" d="M111 326q0 189 113.5 285t339.5 96h232v18q0 127 -75 196.5t-211 69.5q-86 0 -168 -23t-158 -69v170q91 39 176.5 58.5t166.5 19.5q128 0 224 -48t145 -136q66 90 161.5 137t214.5 47q203 0 322 -145.5t119 -395.5v-90h-762q11 -191 103 -291t256 -100q94 0 184 26.5 t180 79.5v-174q-90 -42 -183.5 -64t-189.5 -22q-150 0 -261.5 60.5t-180.5 179.5q-66 -120 -163.5 -180t-225.5 -60q-170 0 -264.5 93.5t-94.5 261.5zM276 338q0 -98 58 -155.5t158 -57.5q138 0 221 108.5t83 288.5v41h-164q-201 0 -278.5 -51t-77.5 -174zM957 659l589 1 q-1 151 -75 241t-197 90q-138 0 -221.5 -87t-95.5 -245z" />
<glyph unicode="&#xe7;" horiz-adv-x="1013" d="M102 559q0 274 135.5 431t370.5 157q77 0 150 -17.5t141 -52.5v-172q-70 43 -140.5 64.5t-142.5 21.5q-162 0 -251 -113.5t-89 -318.5t89 -318.5t251 -113.5q72 0 142.5 21.5t140.5 64.5v-170q-69 -36 -143.5 -54t-157.5 -18q-228 0 -362 159t-134 429zM391 -240 q30 -17 63.5 -24.5t75.5 -7.5q53 0 80 24t27 70q0 30 -19 73.5t-60 104.5h107q50 -62 74 -114.5t24 -100.5q0 -89 -54 -134.5t-160 -45.5q-41 0 -80 6t-78 18v131z" />
<glyph unicode="&#xe8;" horiz-adv-x="1134" d="M102 549q0 275 133.5 436.5t360.5 161.5q203 0 321.5 -145.5t118.5 -395.5v-90h-762q11 -190 103.5 -289.5t256.5 -99.5q96 0 185.5 26t177.5 78v-174q-89 -42 -182.5 -64t-189.5 -22q-242 0 -382.5 156t-140.5 422zM280 659l590 1q-2 151 -76 241t-196 90 q-139 0 -222.5 -87t-95.5 -245zM278 1638h177l254 -374h-138z" />
<glyph unicode="&#xe9;" horiz-adv-x="1134" d="M102 549q0 275 133.5 436.5t360.5 161.5q203 0 321.5 -145.5t118.5 -395.5v-90h-762q11 -190 103.5 -289.5t256.5 -99.5q96 0 185.5 26t177.5 78v-174q-89 -42 -182.5 -64t-189.5 -22q-242 0 -382.5 156t-140.5 422zM280 659l590 1q-2 151 -76 241t-196 90 q-139 0 -222.5 -87t-95.5 -245zM459 1262l252 376h179l-293 -376h-138z" />
<glyph unicode="&#xea;" horiz-adv-x="1134" d="M102 549q0 275 133.5 436.5t360.5 161.5q203 0 321.5 -145.5t118.5 -395.5v-90h-762q11 -190 103.5 -289.5t256.5 -99.5q96 0 185.5 26t177.5 78v-174q-89 -42 -182.5 -64t-189.5 -22q-242 0 -382.5 156t-140.5 422zM280 659l590 1q-2 151 -76 241t-196 90 q-139 0 -222.5 -87t-95.5 -245zM299 1262l220 376h133l221 -376h-125l-162 245l-162 -245h-125z" />
<glyph unicode="&#xeb;" horiz-adv-x="1134" d="M102 549q0 275 133.5 436.5t360.5 161.5q203 0 321.5 -145.5t118.5 -395.5v-90h-762q11 -190 103.5 -289.5t256.5 -99.5q96 0 185.5 26t177.5 78v-174q-89 -42 -182.5 -64t-189.5 -22q-242 0 -382.5 156t-140.5 422zM280 659l590 1q-2 151 -76 241t-196 90 q-139 0 -222.5 -87t-95.5 -245zM319 1350v202h182v-202h-182zM670 1350v202h183v-202h-183z" />
<glyph unicode="&#xec;" horiz-adv-x="512" d="M-51 1638h177l254 -374h-138zM174 0v1120h165v-1120h-165zM256 1147z" />
<glyph unicode="&#xed;" horiz-adv-x="512" d="M130 1262l252 376h179l-293 -376h-138zM174 0v1120h165v-1120h-165zM256 1147z" />
<glyph unicode="&#xee;" horiz-adv-x="512" d="M174 0v1120h165v-1120h-165zM256 1147zM-30 1262l220 376h133l221 -376h-125l-162 245l-162 -245h-125z" />
<glyph unicode="&#xef;" horiz-adv-x="512" d="M174 0v1120h165v-1120h-165zM256 1147zM-10 1350v202h182v-202h-182zM341 1350v202h183v-202h-183z" />
<glyph unicode="&#xf0;" horiz-adv-x="1127" d="M102 537q0 250 124 405.5t323 155.5q16 0 39.5 -2.5t61.5 -7.5l-143 180l-287 -107l-30 99l253 92l-163 204h205l114 -145l300 111l30 -97l-266 -98l148 -186q113 -143 164.5 -287t51.5 -317q0 -255 -128 -410.5t-335 -155.5q-208 0 -335 155.5t-127 410.5zM276 537 q0 -188 78.5 -299t209.5 -111t209 111t78 299q0 122 -24 216t-73 162q-45 17 -84.5 25t-76.5 8q-150 0 -233.5 -108t-83.5 -303z" />
<glyph unicode="&#xf1;" horiz-adv-x="1168" d="M167 0v1120h167v-174q59 101 139.5 151t186.5 50q173 0 262.5 -119.5t89.5 -351.5v-676h-166v670q0 159 -56 238t-167 79q-134 0 -211.5 -95t-77.5 -259v-633h-167zM301 1309q2 135 47.5 208.5t127.5 73.5q35 0 63.5 -14t61.5 -47l52 -55q20 -20 34.5 -29.5t26.5 -9.5 q34 0 50.5 36.5t17.5 118.5h113q-2 -135 -48 -208.5t-128 -73.5q-34 0 -63 14t-62 47l-51 55q-20 20 -35 29.5t-26 9.5q-35 0 -51 -36.5t-18 -118.5h-112z" />
<glyph unicode="&#xf2;" horiz-adv-x="1127" d="M102 559q0 276 122.5 432t339.5 156q216 0 339.5 -156t123.5 -432q0 -275 -123.5 -431.5t-339.5 -156.5q-217 0 -339.5 156.5t-122.5 431.5zM276 559q0 -201 77 -316.5t211 -115.5q133 0 210 116t77 316q0 199 -77 315.5t-210 116.5t-210.5 -115.5t-77.5 -316.5z M257 1638h177l254 -374h-138z" />
<glyph unicode="&#xf3;" horiz-adv-x="1127" d="M102 559q0 276 122.5 432t339.5 156q216 0 339.5 -156t123.5 -432q0 -275 -123.5 -431.5t-339.5 -156.5q-217 0 -339.5 156.5t-122.5 431.5zM276 559q0 -201 77 -316.5t211 -115.5q133 0 210 116t77 316q0 199 -77 315.5t-210 116.5t-210.5 -115.5t-77.5 -316.5z M438 1262l252 376h179l-293 -376h-138z" />
<glyph unicode="&#xf4;" horiz-adv-x="1127" d="M102 559q0 276 122.5 432t339.5 156q216 0 339.5 -156t123.5 -432q0 -275 -123.5 -431.5t-339.5 -156.5q-217 0 -339.5 156.5t-122.5 431.5zM276 559q0 -201 77 -316.5t211 -115.5q133 0 210 116t77 316q0 199 -77 315.5t-210 116.5t-210.5 -115.5t-77.5 -316.5z M278 1262l220 376h133l221 -376h-125l-162 245l-162 -245h-125z" />
<glyph unicode="&#xf5;" horiz-adv-x="1127" d="M102 559q0 276 122.5 432t339.5 156q216 0 339.5 -156t123.5 -432q0 -275 -123.5 -431.5t-339.5 -156.5q-217 0 -339.5 156.5t-122.5 431.5zM276 559q0 -201 77 -316.5t211 -115.5q133 0 210 116t77 316q0 199 -77 315.5t-210 116.5t-210.5 -115.5t-77.5 -316.5z M268 1309q2 135 47.5 208.5t127.5 73.5q35 0 63.5 -14t61.5 -47l52 -55q20 -20 34.5 -29.5t26.5 -9.5q34 0 50.5 36.5t17.5 118.5h113q-2 -135 -48 -208.5t-128 -73.5q-34 0 -63 14t-62 47l-51 55q-20 20 -35 29.5t-26 9.5q-35 0 -51 -36.5t-18 -118.5h-112z" />
<glyph unicode="&#xf6;" horiz-adv-x="1127" d="M102 559q0 276 122.5 432t339.5 156q216 0 339.5 -156t123.5 -432q0 -275 -123.5 -431.5t-339.5 -156.5q-217 0 -339.5 156.5t-122.5 431.5zM276 559q0 -201 77 -316.5t211 -115.5q133 0 210 116t77 316q0 199 -77 315.5t-210 116.5t-210.5 -115.5t-77.5 -316.5z M298 1350v202h182v-202h-182zM649 1350v202h183v-202h-183z" />
<glyph unicode="&#xf7;" horiz-adv-x="1544" d="M195 557v170h1154v-170h-1154zM662 150v245h221v-245h-221zM662 889v246h221v-246h-221z" />
<glyph unicode="&#xf8;" horiz-adv-x="1127" d="M65 -16l134 182q-49 77 -73 175.5t-24 217.5q0 276 122.5 432t339.5 156q84 0 155.5 -25.5t131.5 -77.5l125 168l86 -79l-131 -179q47 -77 71.5 -176t24.5 -219q0 -275 -123.5 -431.5t-339.5 -156.5q-86 0 -158.5 26t-129.5 77l-125 -168zM276 545q0 -72 8.5 -127 t26.5 -101l440 592q-38 41 -84.5 61.5t-102.5 20.5q-136 0 -212 -117.5t-76 -328.5zM376 209q37 -42 83.5 -62t104.5 -20q133 0 210 116t77 316q0 79 -9 137.5t-28 104.5z" />
<glyph unicode="&#xf9;" horiz-adv-x="1168" d="M157 442v678h165v-671q0 -159 56 -238.5t167 -79.5q135 0 212.5 95t77.5 259v635h166v-1120h-166v172q-60 -102 -139.5 -151.5t-185.5 -49.5q-173 0 -263 120t-90 351zM573 1147zM264 1638h177l254 -374h-138z" />
<glyph unicode="&#xfa;" horiz-adv-x="1168" d="M157 442v678h165v-671q0 -159 56 -238.5t167 -79.5q135 0 212.5 95t77.5 259v635h166v-1120h-166v172q-60 -102 -139.5 -151.5t-185.5 -49.5q-173 0 -263 120t-90 351zM573 1147zM445 1262l252 376h179l-293 -376h-138z" />
<glyph unicode="&#xfb;" horiz-adv-x="1168" d="M157 442v678h165v-671q0 -159 56 -238.5t167 -79.5q135 0 212.5 95t77.5 259v635h166v-1120h-166v172q-60 -102 -139.5 -151.5t-185.5 -49.5q-173 0 -263 120t-90 351zM573 1147zM285 1262l220 376h133l221 -376h-125l-162 245l-162 -245h-125z" />
<glyph unicode="&#xfc;" horiz-adv-x="1168" d="M157 442v678h165v-671q0 -159 56 -238.5t167 -79.5q135 0 212.5 95t77.5 259v635h166v-1120h-166v172q-60 -102 -139.5 -151.5t-185.5 -49.5q-173 0 -263 120t-90 351zM573 1147zM305 1350v202h182v-202h-182zM656 1350v202h183v-202h-183z" />
<glyph unicode="&#xfd;" horiz-adv-x="1090" d="M55 1120h175l315 -876l315 876h176l-443 -1224q-70 -200 -136.5 -261t-178.5 -61h-132v154h97q68 0 106 36t84 170l30 84zM419 1262l252 376h179l-293 -376h-138z" />
<glyph unicode="&#xfe;" horiz-adv-x="1170" d="M167 -426v1982h167v-606q52 100 131.5 148.5t190.5 48.5q184 0 298.5 -162t114.5 -426t-114.5 -426t-298.5 -162q-111 0 -190.5 48.5t-131.5 148.5v-594h-167zM334 559q0 -203 75 -318.5t207 -115.5q131 0 206 115.5t75 318.5t-75 318.5t-206 115.5q-132 0 -207 -115.5 t-75 -318.5z" />
<glyph unicode="&#xff;" horiz-adv-x="1090" d="M55 1120h175l315 -876l315 876h176l-443 -1224q-70 -200 -136.5 -261t-178.5 -61h-132v154h97q68 0 106 36t84 170l30 84zM279 1350v202h182v-202h-182zM630 1350v202h183v-202h-183z" />
<glyph unicode="&#x131;" horiz-adv-x="512" d="M174 0v1120h165v-1120h-165zM256 1147z" />
<glyph unicode="&#x152;" horiz-adv-x="1971" d="M104 748q0 365 201 555t591 190h942v-170h-668v-442h640v-170h-640v-541h684v-170h-958q-390 0 -591 190t-201 558zM295 748q0 -289 144 -433.5t433 -144.5h116v1153h-116q-289 0 -433 -143.5t-144 -431.5z" />
<glyph unicode="&#x153;" horiz-adv-x="1885" d="M102 559q0 276 122.5 432t339.5 156q126 0 221 -55.5t155 -163.5q70 107 174.5 163t232.5 56q204 0 322.5 -145.5t118.5 -395.5v-90h-761q11 -190 102.5 -289.5t256.5 -99.5q95 0 185 26t179 78v-174q-90 -42 -184 -64t-189 -22q-144 0 -253 55t-182 164 q-64 -110 -158 -164.5t-220 -54.5q-217 0 -339.5 156.5t-122.5 431.5zM276 559q0 -201 77 -316.5t211 -115.5q133 0 210 116t77 316q0 199 -77 315.5t-210 116.5t-210.5 -115.5t-77.5 -316.5zM1032 659l590 1q-2 152 -76 241.5t-197 89.5q-138 0 -221 -87t-96 -245z" />
<glyph unicode="&#x178;" horiz-adv-x="1125" d="M-4 1493h196l372 -614l370 614h196l-476 -782v-711h-182v711zM297 1667v203h183v-203h-183zM649 1667v203h182v-203h-182z" />
<glyph unicode="&#x2c6;" horiz-adv-x="921" d="M174 1262l220 376h133l221 -376h-125l-162 245l-162 -245h-125z" />
<glyph unicode="&#x2da;" horiz-adv-x="921" d="M214 1524q0 115 71.5 194.5t175.5 79.5q103 0 174.5 -79.5t71.5 -194.5t-71.5 -195t-174.5 -80q-104 0 -175.5 80t-71.5 195zM324 1524q0 -65 39 -108.5t98 -43.5q57 0 97 44t40 108q0 63 -40 107t-97 44q-59 0 -98 -43.5t-39 -107.5z" />
<glyph unicode="&#x2dc;" horiz-adv-x="921" d="M164 1309q2 135 47.5 208.5t127.5 73.5q35 0 63.5 -14t61.5 -47l52 -55q20 -20 34.5 -29.5t26.5 -9.5q34 0 50.5 36.5t17.5 118.5h113q-2 -135 -48 -208.5t-128 -73.5q-34 0 -63 14t-62 47l-51 55q-20 20 -35 29.5t-26 9.5q-35 0 -51 -36.5t-18 -118.5h-112z" />
<glyph unicode="&#x2000;" horiz-adv-x="950" />
<glyph unicode="&#x2001;" horiz-adv-x="1901" />
<glyph unicode="&#x2002;" horiz-adv-x="950" />
<glyph unicode="&#x2003;" horiz-adv-x="1901" />
<glyph unicode="&#x2004;" horiz-adv-x="633" />
<glyph unicode="&#x2005;" horiz-adv-x="475" />
<glyph unicode="&#x2006;" horiz-adv-x="316" />
<glyph unicode="&#x2007;" horiz-adv-x="316" />
<glyph unicode="&#x2008;" horiz-adv-x="237" />
<glyph unicode="&#x2009;" horiz-adv-x="380" />
<glyph unicode="&#x200a;" horiz-adv-x="105" />
<glyph unicode="&#x2010;" horiz-adv-x="665" d="M90 479v164h485v-164h-485z" />
<glyph unicode="&#x2011;" horiz-adv-x="665" d="M90 479v164h485v-164h-485z" />
<glyph unicode="&#x2012;" horiz-adv-x="665" d="M90 479v164h485v-164h-485z" />
<glyph unicode="&#x2013;" horiz-adv-x="921" d="M90 489v144h742v-144h-742z" />
<glyph unicode="&#x2014;" horiz-adv-x="1843" d="M90 489v144h1663v-144h-1663z" />
<glyph unicode="&#x2018;" horiz-adv-x="585" d="M157 1001v173l147 319h116l-74 -319v-173h-189z" />
<glyph unicode="&#x2019;" horiz-adv-x="585" d="M160 1022l74 319v152h190v-152l-148 -319h-116z" />
<glyph unicode="&#x201a;" horiz-adv-x="585" d="M157 -238l73 320v172h190v-172l-147 -320h-116z" />
<glyph unicode="&#x201c;" horiz-adv-x="954" d="M157 1001v173l147 319h116l-74 -319v-173h-189zM526 1001v173l147 319h116l-73 -319v-173h-190z" />
<glyph unicode="&#x201d;" horiz-adv-x="954" d="M157 1001l73 320v172h190v-172l-147 -320h-116zM526 1001l73 320v172h190v-172l-147 -320h-116z" />
<glyph unicode="&#x201e;" horiz-adv-x="954" d="M157 -238l73 320v172h190v-172l-147 -320h-116zM526 -238l73 320v172h190v-172l-147 -320h-116z" />
<glyph unicode="&#x2022;" horiz-adv-x="1087" d="M276 762q0 124 78 209.5t191 85.5q112 0 189 -85.5t77 -209.5q0 -125 -77.5 -211t-189.5 -86q-113 0 -190.5 86t-77.5 211z" />
<glyph unicode="&#x2026;" horiz-adv-x="1843" d="M212 0v254h192v-254h-192zM826 0v254h191v-254h-191zM1439 0v254h192v-254h-192z" />
<glyph unicode="&#x202f;" horiz-adv-x="380" />
<glyph unicode="&#x2039;" horiz-adv-x="737" d="M142 559v82l422 418v-191l-271 -268l271 -268v-191z" />
<glyph unicode="&#x203a;" horiz-adv-x="737" d="M174 141v191l271 268l-271 268v191l422 -418v-82z" />
<glyph unicode="&#x2044;" horiz-adv-x="307" d="M-338 -29l839 1549h144l-839 -1549h-144z" />
<glyph unicode="&#x205f;" horiz-adv-x="475" />
<glyph unicode="&#x2074;" horiz-adv-x="738" d="M57 854v121l353 528h149v-540h121v-109h-121v-186h-130v186h-372zM151 963h278v419z" />
<glyph unicode="&#x20ac;" d="M0 520l50 123h125q0 23 -0.5 46.5t-0.5 55.5q0 35 0.5 58.5t0.5 46.5h-175l50 123h140q36 257 175.5 402t351.5 145q89 0 172 -35.5t161 -106.5v-213q-82 105 -158 150t-168 45q-141 0 -232 -100t-119 -287h519l-50 -123h-484q-2 -24 -2 -47v-58v-55q0 -23 2 -47h402 l-51 -123h-336q28 -187 119 -288t232 -101q92 0 168 45t158 150v-211q-80 -72 -163 -108t-170 -36q-213 0 -352 145t-175 404h-190z" />
<glyph unicode="&#x2122;" horiz-adv-x="1843" d="M266 1399v94h466v-94h-183v-484h-103v484h-180zM833 915v578h155l157 -256l147 256h153v-578h-101v484l-176 -303h-49l-183 303v-484h-103z" />
<glyph unicode="&#xe000;" horiz-adv-x="1120" d="M0 1120h1120v-1120h-1120v1120z" />
<glyph unicode="&#xfb01;" horiz-adv-x="1161" d="M42 977v143h159v78q0 183 77.5 270.5t239.5 87.5h166v-153h-158q-90 0 -124.5 -40t-34.5 -144v-99h621v-1120h-166v977h-455v-977h-166v977h-159zM822 1321v233h166v-233h-166z" />
<glyph unicode="&#xfb02;" horiz-adv-x="1161" d="M42 977v143h159v78q0 187 78 272.5t248 85.5h461v-1556h-166v1403h-296q-90 0 -124.5 -40t-34.5 -144v-99h273v-143h-273v-977h-166v977h-159z" />
<glyph unicode="&#xfb03;" horiz-adv-x="1782" d="M42 977v143h159v78q0 187 78 272.5t248 85.5h157v-153h-158q-90 0 -124 -40q-35 -40 -35 -144v-99h455v78q0 187 78 272q25 28 60 47q71 39 188 39h157v-153h-158q-89 0 -124 -40t-35 -144v-99h621v-1120h-166v977h-455v-977h-166v977h-455v-977h-166v977h-159z M1443 1321v233h166v-233h-166z" />
<glyph unicode="&#xfb04;" horiz-adv-x="1782" d="M42 977v143h159v78q0 187 78 272.5t248 85.5h157v-153h-158q-90 0 -124 -40q-35 -40 -35 -144v-99h455v78q0 187 78 272.5t248 85.5h461v-1556h-166v1403h-296q-89 0 -124 -40t-35 -144v-99h273v-143h-273v-977h-166v977h-455v-977h-166v977h-159z" />
<glyph horiz-adv-x="0" d="M-728 1294v203h183v-203h-183zM-376 1294v203h182v-203h-182z" />
<glyph horiz-adv-x="0" d="M-588 1262l177 264h166l-205 -264h-138z" />
<glyph horiz-adv-x="0" d="M-758 1294q0 101 46.5 160t123.5 59q33 0 60.5 -8t70.5 -35l51 -30q21 -13 36 -19t29 -6q29 0 47 25.5t18 66.5v6h112q-2 -100 -48 -159.5t-122 -59.5q-30 0 -57 8t-73 35l-52 33q-22 14 -36 19.5t-25 5.5q-32 0 -50 -25t-18 -70v-6h-113z" />
<glyph horiz-adv-x="0" d="M-680 1526h168l176 -264h-137z" />
<glyph horiz-adv-x="0" d="M-735 1262l190 266h169l190 -266h-125l-150 178l-149 -178h-125z" />
</font>
</defs>
</svg>
