<?xml version="1.0" standalone="no"?>
<!DOCTYPE svg PUBLIC "-//W3C//DTD SVG 1.1//EN" "http://www.w3.org/Graphics/SVG/1.1/DTD/svg11.dtd" >
<svg xmlns="http://www.w3.org/2000/svg">
<metadata>
This is a custom SVG webfont generated by Font Squirrel.
Copyright   : Copyright c 2003 by Bitstream Inc All Rights ReservedDejaVu changes are in public domain
Foundry     : DejaVu fonts team
Foundry URL : httpdejavusourceforgenet
</metadata>
<defs>
<font id="webfontvbRuUbXf" horiz-adv-x="1232" >
<font-face units-per-em="2048" ascent="1556" descent="-492" />
<missing-glyph horiz-adv-x="500" />
<glyph unicode=" " />
<glyph unicode="!" d="M338 0l55 283h266l-55 -283h-266zM467 481l33 357l129 655h266l-127 -655l-102 -357h-199z" />
<glyph unicode="&#x22;" d="M231 938v555h256v-555h-256zM743 938v555h256v-555h-256z" />
<glyph unicode="#" d="M-41 373l53 215h242l72 293h-240l53 215h242l94 374h221l-94 -374h205l94 374h221l-94 -374h240l-54 -215h-241l-72 -293h240l-54 -215h-241l-94 -373h-222l95 373h-205l-94 -373h-222l95 373h-240zM475 588h203l74 293h-203z" />
<glyph unicode="$" d="M39 92l51 262q86 -59 178 -94q88 -33 176 -37l68 346q-162 41 -236 121q-78 84 -77 207q0 176 127 295q127 117 331 127l48 237h141l-47 -237q70 -2 143 -19q80 -16 150 -38l-50 -250q-61 41 -131 61q-66 20 -153 27l-64 -318q170 -45 252 -131t82 -213q0 -184 -131 -303 t-354 -135l-58 -301h-141l57 301q-88 4 -176 25q-71 16 -186 67zM459 932q0 -39 26 -70q25 -29 76 -41l53 279q-72 -10 -114 -56q-41 -42 -41 -112zM588 227q84 12 131 58q49 47 49 116q0 49 -29 82q-28 31 -92 49z" />
<glyph unicode="%" d="M33 1112q0 133 94 227q92 92 225 92.5t226 -92.5q94 -94 94 -227q0 -131 -94.5 -225t-225.5 -94q-133 0 -225 92q-94 94 -94 227zM86 561l1042 418l41 -96l-1048 -418zM215 1112q0 -57 41 -98q39 -39 96.5 -39t96.5 39q41 41 40 98q0 55 -40.5 96t-96.5 41q-57 0 -96 -39 q-41 -41 -41 -98zM580 319q0 135 92 227.5t227 92.5q127 0 225 -94q94 -92 94.5 -225.5t-94.5 -225.5q-98 -94 -225 -94q-135 0 -227 92t-92 227zM762 319q0 -59 39 -98t96 -39q59 0 98 39q41 41 41 98q0 55 -41 96.5t-98 41.5t-96 -39.5t-39 -98.5z" />
<glyph unicode="&#x26;" d="M-33 360q0 164 99 306q100 145 284 247q-29 70 -39 109q-12 49 -12 96q0 184 133 293t363 109q82 0 137 -11q76 -14 133 -32l-49 -256q-66 41 -119 55q-65 18 -129 18q-92 0 -135 -34q-47 -37 -47 -103q0 -34 18 -92q16 -55 60 -145l221 -480q39 53 65 135q27 80 29 170 h235q-12 -162 -71 -282q-61 -125 -168 -217l115 -246h-316l-35 72q-92 -53 -176 -76q-88 -25 -176 -25q-193 0 -305 107q-115 108 -115 282zM252 438q0 -102 63 -166q66 -66 158 -65q35 0 88 14q43 12 92 41l-217 469q-92 -53 -137 -127q-47 -76 -47 -166z" />
<glyph unicode="'" d="M487 938v555h256v-555h-256z" />
<glyph unicode="(" d="M338 393q0 291 129 582t387 579h225q-233 -313 -350 -614t-117 -594q0 -150 27 -297q28 -154 86 -319h-225q-80 164 -121 338q-41 169 -41 325z" />
<glyph unicode=")" d="M113 -270q233 313 350 614t117 594q0 150 -27 297q-28 154 -86 319h225q84 -178 121 -335q41 -170 41 -328q0 -289 -129 -582q-129 -291 -387 -579h-225z" />
<glyph unicode="*" d="M121 870l332 174l-332 173l76 141l331 -182v344h172v-344l332 182l76 -141l-330 -173l330 -174l-76 -141l-332 184v-344h-172v344l-331 -184z" />
<glyph unicode="+" d="M66 524v238h432v430h237v-430h430v-238h-430v-432h-237v432h-432z" />
<glyph unicode="," d="M209 -287l172 383l53 271h314l-54 -271l-270 -383h-215z" />
<glyph unicode="-" d="M244 444l55 291h629l-56 -291h-628z" />
<glyph unicode="." d="M348 0l70 367h334l-70 -367h-334z" />
<glyph unicode="/" d="M0 -190l852 1683h223l-854 -1683h-221z" />
<glyph unicode="0" d="M90 420q0 203 51 432q47 217 133 377q74 137 195 215q119 76 264 76q195 0 301 -119q109 -121 109 -330q0 -219 -51 -432q-55 -229 -136 -379q-72 -133 -194 -213q-119 -76 -264 -76q-194 0 -301 117q-107 115 -107 332zM383 440q0 -111 35 -168q33 -53 104 -53 q63 0 116.5 53.5t90.5 151.5q49 133 86 326q33 170 33 301q0 117 -33 168q-35 53 -104 53q-68 0 -119 -51q-53 -53 -90 -154q-49 -135 -86 -324q-33 -170 -33 -303zM489 745q0 51 37 88t88 37q53 0 90 -36.5t37 -88t-36.5 -88t-90.5 -36.5q-51 0 -88 36.5t-37 87.5z" />
<glyph unicode="1" d="M43 0l51 260h330l188 969l-321 -76l51 266l326 74h282l-239 -1233h309l-51 -260h-926z" />
<glyph unicode="2" d="M-29 0l49 252l277 248l145 129q401 352 402 506q0 74 -56 112q-57 41 -155 41q-88 0 -187 -28q-109 -33 -221 -89l51 267q108 40 216 61q102 20 208 21q195 0 314 -95q121 -96 121 -245q0 -248 -453 -637l-41 -35l-287 -248h617l-51 -260h-949z" />
<glyph unicode="3" d="M-31 45l54 270q90 -43 200 -69q104 -25 211 -25q156 0 236 67.5t80 198.5q0 82 -64 131q-65 49 -172 50h-158l52 260h157q123 0 201 55t78 141q0 72 -57.5 109t-163.5 37q-88 0 -183 -21q-98 -22 -209 -61l54 268q111 33 200 47q102 16 185 17q207 0 327 -97 q123 -98 123 -256q0 -143 -94 -237q-98 -98 -262 -125q137 -37 201 -119q66 -84 65 -213q0 -231 -164 -367q-162 -135 -444 -135q-102 0 -217 19q-111 18 -236 55z" />
<glyph unicode="4" d="M18 322l58 286l735 885h309l-178 -918h164l-49 -253h-164l-62 -322h-282l63 322h-594zM289 575h373l110 578z" />
<glyph unicode="5" d="M6 35l51 266q72 -41 156 -61q82 -20 180 -21q172 0 271 80q100 82 100 213q0 102 -72 164q-70 61 -192 61q-80 0 -160 -20q-86 -23 -162 -58l162 834h811l-51 -260h-572l-53 -277q35 12 70 19q37 6 76 6q197 0 313.5 -116.5t116.5 -313.5q0 -267 -179 -424 q-176 -156 -485 -156q-88 0 -190 17q-89 14 -191 47z" />
<glyph unicode="6" d="M96 469q0 223 60 422q61 203 170 356q98 135 237 203q137 68 324 68q72 0 137 -15q72 -16 145 -45l-51 -268q-70 49 -131 67q-74 23 -141 23q-154 0 -262 -109q-106 -106 -154 -317q63 68 135 98q74 33 166 33q166 0 264 -111q96 -109 97 -305q0 -258 -154 -430 t-387 -172q-227 0 -340 125q-115 127 -115 377zM383 401q0 -90 45 -141q47 -53 121 -53q106 0 180 100q74 102 74 250q0 88 -45 139.5t-123 51.5q-104 0 -178 -101q-74 -103 -74 -246z" />
<glyph unicode="7" d="M109 0l735 1233h-633l51 260h963l-41 -209l-756 -1284h-319z" />
<glyph unicode="8" d="M63 350q0 169 99 289q98 119 272 160q-106 29 -158 98q-53 72 -53 180q0 184 147.5 313.5t360.5 129.5q178 0 293 -99q113 -98 113 -258q0 -150 -88 -250q-90 -102 -240 -127q109 -29 170 -114.5t61 -206.5q0 -217 -149 -356q-145 -137 -387 -138q-209 0 -326 99 q-115 96 -115 280zM326 399q0 -88 55 -139q53 -51 147 -51q109 0 179 76q72 78 71 192q0 86 -53 139q-51 51 -145 52q-113 0 -183 -76q-71 -78 -71 -193zM485 1069q0 -74 45 -119q47 -47 117 -47q104 0 166 60q63 61 64 153q0 80 -46 123q-49 45 -129 45q-94 0 -155.5 -61.5 t-61.5 -153.5z" />
<glyph unicode="9" d="M55 29l51 268q70 -49 132 -68q74 -23 141 -22q154 0 262 108q102 102 154 318q-61 -66 -138 -98q-74 -33 -163 -33q-166 0 -263 110q-96 113 -96 306q0 258 153.5 430t385.5 172q227 0 340 -125q115 -127 114 -377q0 -218 -61 -424q-61 -209 -168 -356 q-98 -135 -235 -203q-133 -66 -326 -66q-72 0 -137 15q-72 16 -146 45zM424 928q0 -88 45 -140q43 -49 121 -49q104 0 178 101q74 102 74 245q0 90 -45 142q-47 53 -121 53q-111 0 -180 -100q-72 -102 -72 -252z" />
<glyph unicode=":" d="M305 0l70 367h334l-70 -367h-334zM438 698l72 365h334l-72 -365h-334z" />
<glyph unicode=";" d="M170 -287l152 383l53 271h334l-54 -271l-270 -383h-215zM438 698l72 365h334l-72 -365h-334z" />
<glyph unicode="&#x3c;" d="M88 524v236l1057 416v-250l-795 -285l795 -283v-249z" />
<glyph unicode="=" d="M88 295v237h1057v-237h-1057zM88 752v235h1057v-235h-1057z" />
<glyph unicode="&#x3e;" d="M88 109v249l795 283l-795 285v250l1057 -416v-236z" />
<glyph unicode="?" d="M291 0l55 283h266l-55 -283h-266zM305 1139l53 268q104 57 209 84q111 29 211 29q168 0 264 -82q98 -82 99 -217q0 -95 -49 -179q-47 -82 -166 -180l-105 -86l-8 -8q-127 -104 -154 -244l-24 -123h-266l30 154q18 98 62 168q43 72 137 149l107 93l8 8q145 127 145 192 q0 57 -37 88t-106 31q-89 0 -191 -37q-100 -36 -219 -108z" />
<glyph unicode="@" d="M-14 387q0 158 45 322q43 154 127 295q117 188 284 288q170 102 357 103q193 0 311.5 -102.5t118.5 -270.5q0 -20 -4 -61q-4 -45 -11 -68l-147 -758h-197l17 82q-43 -49 -101 -76q-55 -27 -116 -26q-139 0 -219 88t-80 241q0 223 127 375q129 154 311 154q72 0 125 -25 q51 -25 80 -71q12 45 14 67q4 45 4 64q0 94 -61 145q-63 53 -168 53q-125 0 -238 -63q-109 -61 -200 -182q-88 -119 -140 -271q-47 -141 -47 -303q0 -238 119 -379q117 -139 317 -139q80 0 160 25q90 29 162 71l63 -174q-100 -53 -202 -84q-92 -27 -191 -26q-283 0 -452 192 q-168 188 -168 514zM571 477q0 -84 39 -129q41 -47 113 -47q104 0 174 92q72 94 72 228q0 76 -41 120.5t-111 44.5q-102 0 -174 -90t-72 -219z" />
<glyph unicode="A" d="M-113 0l695 1493h360l113 -1493h-293l-14 369h-400l-162 -369h-299zM453 612h284l-20 607z" />
<glyph unicode="B" d="M-20 0l290 1495h482q211 0 319 -84q106 -82 106.5 -246t-94 -260t-270.5 -119q138 -12 215 -92q78 -82 78 -209q0 -104 -39 -202q-35 -88 -106 -156q-70 -63 -191 -96q-115 -31 -309 -31h-481zM311 236h197q156 0 229.5 67.5t73.5 206.5q0 86 -53 127t-164 41h-197z M442 913h197q123 0 182 54q61 55 62 161q0 70 -43 101t-133 31h-197z" />
<glyph unicode="C" d="M131 506q0 233 70 442q68 205 192 348q94 104 228 166q127 57 282 58q80 0 160 -19q86 -20 156 -53l-64 -328q-51 70 -123 103q-76 35 -160 34q-82 0 -157 -49q-78 -49 -131 -133q-68 -108 -111 -258t-43 -285q0 -147 64 -223q66 -78 180 -78q84 0 162 33q80 35 174 107 l-64 -328q-68 -33 -158 -53q-80 -18 -165 -19q-240 0 -365 138q-127 139 -127 397z" />
<glyph unicode="D" d="M-8 0l291 1493h315q285 0 426 -123t141 -371q0 -72 -14 -186q-10 -88 -41 -211q-39 -156 -88 -256q-53 -104 -125 -174q-94 -92 -225 -131q-135 -41 -350 -41h-330zM338 266h96q111 0 188.5 43t120.5 133q49 102 84 252q33 143 33 272.5t-63 196.5q-61 63 -191 64h-82z " />
<glyph unicode="E" d="M29 0l288 1493h932l-51 -260h-635l-63 -322h575l-49 -260h-575l-76 -391h635l-52 -260h-929z" />
<glyph unicode="F" d="M47 0l291 1493h930l-51 -260h-635l-62 -322h578l-51 -260h-578l-127 -651h-295z" />
<glyph unicode="G" d="M102 524q0 221 72 424q76 215 193 346q96 106 229 168q127 57 281 58q80 0 159 -19q86 -20 156 -53l-66 -328q-53 68 -120 103q-70 35 -150 34q-71 0 -135 -30q-70 -33 -117 -86q-45 -51 -76 -111q-39 -74 -59 -139q-33 -102 -49 -189q-16 -82 -17 -170q0 -145 63.5 -223 t180.5 -78q41 0 68 9q31 9 55 24l57 291h-206l49 248h460l-139 -709q-78 -63 -168 -92q-98 -31 -213 -31q-242 0 -375 145.5t-133 407.5z" />
<glyph unicode="H" d="M-8 0l291 1493h295l-111 -569h369l110 569h295l-291 -1493h-295l129 664h-368l-129 -664h-295z" />
<glyph unicode="I" d="M27 0l51 260h297l188 973h-297l51 260h889l-51 -260h-297l-188 -973h297l-52 -260h-888z" />
<glyph unicode="J" d="M-20 78l65 344q80 -98 166 -143q90 -47 192 -48q119 0 172 54q57 57 84 194l148 754h-361l52 260h655l-199 -1014q-35 -170 -73 -256q-39 -84 -109 -141q-68 -55 -158 -82q-96 -29 -204 -29q-113 0 -217 27q-121 31 -213 80z" />
<glyph unicode="K" d="M-18 0l288 1493h295l-108 -557l563 557h348l-606 -604l338 -889h-303l-254 670l-172 -170l-95 -500h-294z" />
<glyph unicode="L" d="M80 0l291 1493h295l-240 -1233h631l-51 -260h-926z" />
<glyph unicode="M" d="M-57 0l288 1493h353l49 -655l297 655h360l-289 -1493h-253l237 1198l-293 -655h-219l-47 655l-231 -1198h-252z" />
<glyph unicode="N" d="M-25 0l291 1493h303l215 -1085l211 1085h260l-288 -1493h-293l-225 1085l-211 -1085h-263z" />
<glyph unicode="O" d="M61 465q0 200 50 405q49 205 135 359q74 137 203 215q125 76 280 76q215 0 328 -125q115 -127 114 -365q0 -203 -49 -409q-49 -203 -133 -357q-76 -139 -203 -217q-125 -76 -282 -76q-215 0 -330 127q-113 125 -113 367zM365 471q0 -119 40.5 -178.5t120.5 -59.5 q61 0 109 35q49 37 86 105q25 49 45 110q22 65 43 148q33 131 45 215q14 92 14 174q0 117 -41 180q-39 59 -120 60q-61 0 -109 -35q-49 -37 -86 -105q-22 -40 -43 -104q-29 -88 -45 -156q-27 -109 -43 -215q-16 -104 -16 -174z" />
<glyph unicode="P" d="M16 0l291 1493h420q238 0 360.5 -92t122.5 -266q0 -115 -36 -226q-39 -117 -95 -178q-76 -90 -194.5 -131t-300.5 -41h-164l-109 -559h-295zM469 807h143q145 0 219 67q72 66 72 203q0 90 -51 129t-178 39h-121z" />
<glyph unicode="Q" d="M61 461q0 203 50 409q49 203 133 357q76 137 205 217q125 76 280 76q209 0 325.5 -123t116.5 -348q0 -213 -49 -422q-51 -219 -133 -365q-33 -61 -88 -120.5t-125 -102.5l148 -186l-211 -134l-178 252h-27q-219 0 -332 125q-115 127 -115 365zM365 471 q0 -119 40.5 -178.5t120.5 -59.5q61 0 109 35q49 37 86 105q25 49 45 110q22 65 43 148q33 131 45 215q14 92 14 174q0 117 -41 180q-39 59 -120 60q-61 0 -109 -35q-49 -37 -86 -105q-22 -40 -43 -104q-29 -88 -45 -156q-27 -109 -43 -215q-16 -104 -16 -174z" />
<glyph unicode="R" d="M8 0l291 1493h410q231 0 343.5 -88t112.5 -268q0 -186 -98 -299q-96 -111 -279 -133q61 -8 95 -46q34 -37 61 -122l164 -537h-301l-107 377q0 4 -3 11t-5 15q-51 186 -157 187h-117l-115 -590h-295zM467 838h123q135 0 204.5 63.5t69.5 188.5q0 76 -47 116 q-45 39 -137 39h-133z" />
<glyph unicode="S" d="M4 76l59 305q100 -82 203 -123q106 -43 213 -43q131 0 209 59q76 57 76 158q0 59 -35 106.5t-104 75.5l-119 50q-190 80 -254 155q-61 74 -62 201q0 219 162 360q160 139 418 140q106 0 200.5 -20.5t188.5 -61.5l-57 -285q-72 66 -160 94q-92 31 -201 31q-117 0 -192 -57 q-74 -55 -74 -144q0 -86 184 -168l7 -2l116 -51q145 -63 213 -155.5t68 -225.5q0 -227 -162 -366q-158 -137 -434 -138q-102 0 -225 27q-111 25 -238 78z" />
<glyph unicode="T" d="M180 1235l49 258h1059l-51 -258h-379l-240 -1235h-294l239 1235h-383z" />
<glyph unicode="U" d="M45 352q0 43 6 92q8 70 17 107l184 942h295l-199 -1016q0 -2 -1 -3l-1 -3q-6 -46 -6 -68q0 -82 45 -127t131 -45q108 0 172 62q66 63 90 184l199 1016h295l-185 -942q-33 -172 -75 -272q-41 -94 -103 -156q-76 -72 -180 -113q-102 -39 -229 -39q-219 0 -336 99 q-119 100 -119 282z" />
<glyph unicode="V" d="M203 1493h291l24 -1251l506 1251h301l-645 -1493h-412z" />
<glyph unicode="W" d="M41 0l102 1493h254l-108 -1096l272 709h238l12 -709l297 1096h262l-461 -1493h-270l-12 784l-318 -784h-268z" />
<glyph unicode="X" d="M-143 0l614 782l-287 711h291l187 -463l360 463h321l-573 -737l301 -756h-291l-200 512l-400 -512h-323z" />
<glyph unicode="Y" d="M145 1493h293l187 -649l411 649h322l-633 -905l-115 -588h-293l115 588z" />
<glyph unicode="Z" d="M-33 0l47 244l858 989h-643l52 260h1009l-49 -244l-876 -989h700l-51 -260h-1047z" />
<glyph unicode="[" d="M223 -270l357 1826h507l-38 -190h-242l-281 -1446h242l-37 -190h-508z" />
<glyph unicode="\" d="M340 1493h203l198 -1683h-202z" />
<glyph unicode="]" d="M106 -270l37 190h242l281 1446h-242l37 190h508l-357 -1826h-506z" />
<glyph unicode="^" d="M57 936l437 557h245l437 -557h-242l-318 301l-317 -301h-242z" />
<glyph unicode="_" d="M0 -293h1233v-190h-1233v190z" />
<glyph unicode="`" d="M371 1638h284l209 -376h-198z" />
<glyph unicode="a" d="M47 295q0 215 156 328q158 115 448 114h193l8 49q0 2 1 5.5t1 5.5v18q0 55 -51 86q-53 31 -148 31q-78 0 -186 -29q-100 -27 -221 -84l47 250q123 43 213 59q102 18 192 19q219 0 328 -76q113 -78 113 -223q0 -40 -6 -92q-2 -25 -21 -117l-123 -639h-291l25 125 q-66 -74 -154 -115q-84 -39 -196 -39q-147 0 -240 88q-88 86 -88 236zM352 317q0 -63 41 -104t103 -41q119 0 198.5 92t108.5 266h-113q-172 0 -256 -53q-82 -51 -82 -160z" />
<glyph unicode="b" d="M47 0l303 1556h293l-119 -604q68 98 146 146q83 49 178 49q147 0 231 -109q86 -111 86 -299q0 -131 -30 -260q-31 -133 -86 -235q-68 -129 -174.5 -201t-221.5 -72q-113 0 -184 62q-70 59 -88 174l-41 -207h-293zM434 432q0 -106 45 -164q47 -59 121 -59 q111 0 190.5 141.5t79.5 343.5q0 104 -41 158q-43 55 -116 55q-113 0 -197 -139q-82 -137 -82 -336z" />
<glyph unicode="c" d="M150 434q0 317 184 514q186 199 479 199q100 0 182 -21q88 -23 162 -63l-53 -268q-61 58 -129 86q-70 29 -146 28q-168 0 -276 -125q-106 -121 -107 -321q0 -127 61.5 -190.5t184.5 -63.5q63 0 150 27q72 23 170 77l-56 -276q-77 -34 -159 -49q-88 -16 -164 -17 q-225 0 -354 123t-129 340z" />
<glyph unicode="d" d="M66 381q0 129 30 258q29 119 88 235q66 123 174 201q104 74 222 74q115 0 186 -64q74 -63 88 -174l125 645h293l-303 -1556h-291l31 166q-66 -96 -148 -146q-83 -49 -178 -49q-145 0 -231 111t-86 299zM362 424q0 -104 41 -158q43 -55 115 -55q113 0 197 139t84 336 q0 106 -45 164q-47 59 -121 59q-111 0 -191 -141t-80 -344z" />
<glyph unicode="e" d="M76 436q0 133 45 273q43 131 123 229q82 98 200 156q117 55 250 55q207 0 334 -121t127 -317q0 -46 -6 -105q-8 -72 -21 -141h-759q-4 -25 -4 -33q0 -6 -1.5 -14t-1.5 -15q0 -102 66 -149q70 -51 199 -51q111 0 217 30.5t200 90.5l-51 -269q-92 -41 -198 -63 q-100 -20 -213 -21q-250 0 -377 119q-129 119 -129 346zM410 684h467q4 20 4 27q0 4 1 13t1 13q0 84 -52 133q-53 49 -139 50q-100 0 -172 -60q-69 -57 -110 -176z" />
<glyph unicode="f" d="M231 895l43 225h273l16 78q43 213 133 285q92 74 332 73h240l-43 -225h-230q-66 0 -94 -28q-31 -31 -45 -107l-16 -76h344l-43 -225h-344l-174 -895h-293l174 895h-273z" />
<glyph unicode="g" d="M18 -365l54 265q74 -45 157 -68q86 -23 170 -22q123 0 195 59q74 59 94 182l27 133q-55 -82 -131 -125t-174 -43q-158 0 -250 104.5t-92 282.5q0 137 43 279q45 150 114 250q72 104 170 162q100 57 207 57q104 0 172 -55.5t88 -157.5l35 182h293l-203 -1036 q-52 -276 -190 -393q-135 -115 -412 -115q-102 0 -188 14q-81 12 -179 45zM367 459q0 -100 41 -158q39 -55 112 -55q115 0 199 133t84 319q0 98 -41 156q-41 55 -113 55q-115 0 -198.5 -133t-83.5 -317z" />
<glyph unicode="h" d="M59 0l303 1556h291l-116 -604q47 90 133 144q82 51 184 51q129 0 197 -70q70 -74 69 -196q0 -18 -4 -68q-2 -25 -14 -86l-141 -727h-293l133 682q4 16 8 53q2 18 2 53q0 55 -29 89q-29 31 -84 30q-82 0 -141 -71.5t-84 -206.5l-121 -629h-293z" />
<glyph unicode="i" d="M14 0l43 225h365l131 670h-287l43 225h580l-174 -895h364l-43 -225h-1022zM635 1323l67 342h293l-67 -342h-293z" />
<glyph unicode="j" d="M-63 -424l45 225h231q98 0 152 54q51 51 75 188l166 852h-297l43 225h590l-209 -1077q-35 -172 -63 -238q-31 -72 -78 -118q-59 -59 -139 -84q-86 -27 -209 -27h-307zM690 1323l66 342h293l-66 -342h-293z" />
<glyph unicode="k" d="M82 0l301 1556h293l-152 -782l404 346h370l-505 -418l313 -702h-311l-222 524l-116 -96l-82 -428h-293z" />
<glyph unicode="l" d="M233 1331l43 225h598l-249 -1191q-3 -22 -7 -37q-2 -10 -2 -21q0 -45 31 -63.5t109 -18.5h278l-45 -225h-297q-205 0 -291 55q-84 53 -84 187q0 35 5 57l5 32q5 32 9 48l203 952h-306z" />
<glyph unicode="m" d="M-33 0l217 1120h213l-22 -116q41 70 102.5 106.5t128.5 36.5q70 0 113 -37q41 -35 51 -102q31 66 96 102q63 37 140 37q90 0 145 -55.5t55 -153.5q0 -47 -6 -96q-8 -61 -20 -123l-140 -719h-239l139 719q14 80 14 82q4 41 4 45q0 40 -18 61q-18 20 -51 21q-49 0 -76 -45 q-31 -51 -51 -164l-139 -719h-240l141 719q10 43 13 76q4 45 4 51q0 40 -19 61q-18 20 -51 21q-46 0 -74 -43q-31 -47 -51 -166l-139 -719h-240z" />
<glyph unicode="n" d="M59 0l217 1120h293l-32 -168q47 90 133 144q82 51 184 51q129 0 197 -70q70 -74 69 -196q0 -18 -4 -68q-2 -25 -14 -86l-141 -727h-293l133 682q4 16 8 53q2 18 2 53q0 55 -29 89q-29 31 -84 30q-82 0 -141 -71.5t-84 -206.5l-121 -629h-293z" />
<glyph unicode="o" d="M88 426q0 323 166 522q166 201 434 201q215 0 336 -121t121 -334q0 -326 -166 -524.5t-434 -198.5q-215 0 -336 121t-121 334zM383 434q0 -104 49 -165.5t131 -61.5q121 0 205 137q82 133 82 340q0 109 -47 168t-131 59q-121 0 -205 -137t-84 -340z" />
<glyph unicode="p" d="M-37 -426l301 1546h293l-33 -168q68 94 154 146q84 49 174 49q147 0 231 -109q86 -111 86 -299q0 -131 -30 -260q-29 -119 -88 -235q-68 -129 -174.5 -201t-221 -72t-184.5 61.5t-92 174.5l-123 -633h-293zM436 432q0 -106 45 -164q47 -59 121 -59q111 0 191 141 q82 145 81 344q0 102 -43 157.5t-114 55.5q-113 0 -197 -139t-84 -336z" />
<glyph unicode="q" d="M68 381q0 129 30 258q29 119 88 235q72 131 174.5 203t219.5 72q111 0 184 -62q72 -59 90 -176l39 209h293l-301 -1546h-291l115 592q-68 -98 -146 -146q-83 -49 -178 -49q-145 0 -231 111t-86 299zM362 424q0 -102 41 -156q45 -57 117 -57q113 0 197 139q82 137 82 336 q0 106 -45 164q-47 59 -121 59q-111 0 -191 -141t-80 -344z" />
<glyph unicode="r" d="M154 0l219 1120h293l-35 -174q59 94 162 148q100 53 217 53q68 0 118 -14q55 -15 99 -43l-53 -275q-47 41 -107 64q-55 20 -133 20q-168 0 -256 -88q-89 -89 -129 -295l-100 -516h-295z" />
<glyph unicode="s" d="M90 41l51 256q88 -55 181 -86q88 -29 188 -29q111 0 172 37t61 105q0 47 -30 71q-33 27 -164 66l-88 24q-123 37 -178 105q-57 70 -58 182q0 168 135 272q133 102 363 103q88 0 186.5 -16.5t184.5 -45.5l-50 -254q-72 51 -161 80q-82 27 -181 27q-92 0 -149 -35 q-55 -35 -55 -94q0 -43 37 -72q39 -29 165 -65l74 -21q129 -37 187 -106q59 -72 59 -185q0 -182 -137 -286q-135 -102 -383 -103q-115 0 -207 17q-99 16 -203 53z" />
<glyph unicode="t" d="M164 895l43 225h287l61 318h293l-62 -318h383l-43 -225h-383l-104 -530q-2 -14 -6 -35q-2 -10 -2 -23q0 -45 30.5 -63.5t108.5 -18.5h225l-43 -225h-245q-203 0 -289 55.5t-86 184.5q0 10 4 55q2 14 14 84l101 516h-287z" />
<glyph unicode="u" d="M106 244q0 14 5 63q4 39 12 84l143 729h291l-131 -684q-4 -16 -8 -53q-2 -16 -2 -51q0 -57 28 -90q27 -31 84 -31q84 0 140 70q57 72 84 208l122 631h291l-217 -1120h-293l33 166q-45 -92 -129 -143.5t-186 -51.5q-131 0 -199 70q-68 71 -68 203z" />
<glyph unicode="v" d="M172 1120h283l80 -878l389 878h307l-551 -1120h-369z" />
<glyph unicode="w" d="M90 0l6 1120h240l-33 -858l227 565h230l22 -565l291 858h252l-418 -1120h-280l-19 590l-239 -590h-279z" />
<glyph unicode="x" d="M-76 0l512 594l-258 526h301l148 -317l268 317h332l-477 -553l278 -567h-299l-170 356l-303 -356h-332z" />
<glyph unicode="y" d="M-90 -424l45 223h117q88 0 137 31t110 141l39 74l-217 1075h297l127 -700l383 700h309l-706 -1241q-113 -199 -193 -250q-84 -53 -208 -53h-240z" />
<glyph unicode="z" d="M49 0l45 229l707 672h-551l43 219h895l-45 -229l-707 -672h576l-43 -219h-920z" />
<glyph unicode="{" d="M131 516l37 191h61q143 0 207 55t94 211l41 215q43 227 136 297q94 72 354 71h149l-36 -190h-123q-104 0 -148 -43q-45 -45 -72 -184l-38 -209q-31 -164 -95 -234q-59 -66 -192 -84q92 -20 137 -65q41 -41 41 -119q0 -18 -4 -63q-3 -34 -12 -74l-41 -205q-9 -46 -13 -74 q-4 -37 -4 -45q0 -59 33 -84q37 -27 115 -26h121l-37 -191h-148q-199 0 -280 55q-84 55 -84 179q0 14 4 51q4 39 14 84l43 215q10 51 12 78l5 51q0 78 -48 106q-49 31 -167 31h-62z" />
<glyph unicode="|" d="M502 -483v2048h227v-2048h-227z" />
<glyph unicode="}" d="M-31 -334l37 191h123q104 0 147 43q45 45 72 186l39 205q31 168 94 233q68 70 193 88q-92 14 -135 57.5t-43 121.5q0 12 4 61q2 33 12 78l41 209q10 51 12 75q4 37 4 43q0 59 -32.5 84t-114.5 25h-121l37 190h147q203 0 287 -49q82 -49 82 -161q0 -41 -20 -144l-3 -14 l-40 -215q-8 -39 -11 -62q-4 -37 -4 -49q0 -86 47 -120.5t164 -34.5h62l-37 -191h-62q-143 0 -207 -57q-68 -61 -94 -209l-41 -215q-43 -221 -141 -295t-348 -74h-150z" />
<glyph unicode="~" d="M88 465v229q74 59 152 88q72 27 155 27q61 0 103 -10q55 -14 125 -43q10 -4 32 -15q117 -55 209 -55q72 0 140 31q70 33 141 94v-233q-66 -55 -146 -86q-74 -29 -151 -29q-92 0 -203 51q-6 2 -13 5t-11.5 6t-8.5 3q-72 31 -129 45q-53 12 -102 13q-74 0 -148 -29 q-71 -29 -145 -92z" />
<glyph unicode="&#xa0;" />
<glyph unicode="&#xa1;" d="M338 0l127 655l102 357h199l-35 -357l-127 -655h-266zM573 1210l56 283h266l-55 -283h-267z" />
<glyph unicode="&#xa2;" d="M104 434q0 160 53.5 293t157.5 244q82 86 187 127q111 45 231 47l55 287h142l-56 -287q55 -4 111 -21q61 -18 117 -47l-53 -264q-45 39 -100.5 63.5t-119.5 30.5l-135 -692q59 6 129 29q57 18 129 63l-51 -264q-53 -27 -125 -47q-59 -16 -129 -21l-55 -288h-141l55 288 q-195 23 -297 140q-105 119 -105 319zM365 457q0 -102 53 -172q51 -66 135 -70l135 692q-137 -16 -229 -145q-94 -131 -94 -305z" />
<glyph unicode="&#xa3;" d="M-23 0l52 260h235l64 334h-199l45 225h199l37 197q53 272 180 387q129 117 366 117q70 0 146 -17q70 -14 143 -47l-53 -266q-63 41 -118.5 61.5t-121.5 20.5q-104 0 -168 -68q-66 -68 -92 -209l-33 -176h336l-43 -225h-338l-63 -334h481l-51 -260h-1004z" />
<glyph unicode="&#xa4;" d="M186 305l170 170q-25 51 -34 84q-10 35 -11 82q0 55 11 88q12 41 36 78l-172 170l131 131l166 -172q35 20 82 35q43 12 88 12q47 0 80 -10t86 -35l172 170l127 -129l-170 -170q20 -37 33 -82q12 -43 12 -86q0 -47 -12 -88q-14 -43 -35 -76l172 -170l-131 -131l-170 172 q-33 -20 -76 -35q-41 -12 -88 -12q-35 0 -82 10q-29 6 -86 33l-170 -168zM479 643q0 -70 51 -125q49 -51 123 -51t123 51q51 55 51 125q0 72 -51 123q-49 49 -122.5 49t-123.5 -49q-51 -51 -51 -123z" />
<glyph unicode="&#xa5;" d="M-29 438l37 189h408l-58 151h-321l37 187h223l-170 528h317l174 -600l408 600h317l-374 -528h223l-37 -187h-321l-115 -151h407l-36 -189h-412l-86 -438h-293l84 438h-412z" />
<glyph unicode="&#xa6;" d="M502 -350v758h227v-758h-227zM502 674v758h227v-758h-227z" />
<glyph unicode="&#xa7;" d="M104 -135l46 229q70 -31 153 -51q72 -16 154 -16q86 0 133 34.5t47 96.5q0 68 -152 170l-18 12l-100 68q-111 74 -150 129q-39 57 -39 133q0 92 62 170q63 80 174 127q-47 35 -74 90q-25 49 -25 112q0 156 117 254q115 96 309 97q78 0 152 -15q86 -16 166 -45l-45 -229 q-74 37 -133 51q-70 16 -129 16q-84 0 -131.5 -34.5t-47.5 -96.5q0 -41 31 -77q29 -35 139 -105l105 -67q100 -66 141 -125q43 -61 43 -138q0 -86 -55 -159q-55 -72 -170 -142q45 -41 67 -94q20 -47 21 -113q0 -154 -119 -248t-315 -94q-86 0 -170 15q-95 16 -187 45z M410 707q0 -40 18 -68q23 -33 55 -55l78 -54q10 -6 23.5 -15l27.5 -19l70 -45q55 37 88 84q31 43 31 83q0 35 -19 66q-20 33 -53 57l-80 54l-41 28l-78 54q-57 -43 -90 -89q-30 -42 -30 -81z" />
<glyph unicode="&#xa8;" d="M416 1339l47 246h237l-49 -246h-235zM811 1339l47 246h238l-49 -246h-236z" />
<glyph unicode="&#xa9;" d="M0 741q0 127 45 236q43 102 137 201q88 88 199 135q104 45 235.5 45t235.5 -45q111 -47 199 -135q94 -98 137 -201q45 -109 45 -236q0 -129 -45 -233q-47 -111 -137 -201q-92 -90 -199 -137q-104 -45 -236 -45q-129 0 -233 45q-111 47 -201 137t-137 201q-45 104 -45 233 zM131 741q0 -98 37 -184t106 -156q74 -74 156 -108q86 -37 186.5 -37t186.5 37q82 35 155.5 108.5t108.5 155.5t35 184q0 104 -35 187q-37 86 -109 157q-68 70 -157 109q-82 35 -184.5 35t-184.5 -35q-86 -37 -158 -109q-68 -68 -106 -157q-37 -87 -37 -187zM266 741 q0 156 101 248q104 94 270 94q61 0 108 -8q53 -10 103 -26v-168q-49 29 -98 45q-43 14 -93 14q-100 0 -151 -51q-53 -53 -53 -147.5t53 -147.5q51 -51 151 -51q55 0 101 14q47 14 90 45v-168q-47 -16 -109 -26q-47 -8 -102 -9q-169 0 -270 93q-101 91 -101 249z" />
<glyph unicode="&#xaa;" d="M211 428l35 170h688l-35 -170h-688zM274 924q0 150 111 229.5t320 79.5h135l6 35q0 2 1 4t1 4v10q0 40 -37 62q-35 20 -106 20q-59 0 -130 -20q-84 -25 -157 -58l33 174q61 23 151 41q66 14 137 15q147 0 229.5 -51.5t82.5 -147.5q0 -20 -4 -66q-4 -43 -15 -90l-88 -448 h-207l19 88q-43 -51 -107 -80q-59 -27 -141 -27q-106 0 -170 62t-64 164zM492 940q0 -45 28.5 -73.5t73.5 -28.5q86 0 141 65q53 63 76 184h-80q-121 0 -180 -36.5t-59 -110.5z" />
<glyph unicode="&#xab;" d="M78 535l24 131l547 393l-47 -238l-319 -221l233 -221l-45 -238zM532 535l25 131l545 393l-45 -238l-320 -221l234 -221l-45 -238z" />
<glyph unicode="&#xac;" d="M88 662v237h1057v-537h-238v300h-819z" />
<glyph unicode="&#xad;" d="M244 444l55 291h629l-56 -291h-628z" />
<glyph unicode="&#xae;" d="M0 741q0 127 45 236q43 102 137 201q88 88 199 135q104 45 235.5 45t235.5 -45q111 -47 199 -135q94 -98 137 -201q45 -109 45 -236q0 -129 -45 -233q-47 -111 -137 -201q-92 -90 -199 -137q-104 -45 -236 -45q-129 0 -233 45q-111 47 -201 137t-137 201q-45 104 -45 233 zM131 741q0 -98 37 -184q37 -84 106 -158q68 -68 158 -106q86 -37 184 -37t185 37q90 39 157 106q74 78 109 158q35 82 35 184q0 104 -35 187q-37 86 -109 157q-68 70 -157 109q-82 35 -184.5 35t-184.5 -35q-86 -37 -158 -109q-68 -68 -106 -157q-37 -87 -37 -187zM360 430 v625h246q132 0 197 -43q66 -43 65 -135q0 -66 -39 -107q-40 -43 -110 -55q43 -18 65 -41q25 -25 52 -78l79 -166h-172l-63 133q-27 57 -55 82q-25 20 -70 25h-31v-240h-164zM524 780h64q59 0 86 21q29 23 28 59q0 41 -28 64q-27 20 -86 20h-64v-164z" />
<glyph unicode="&#xaf;" d="M422 1368l37 188h631l-37 -188h-631z" />
<glyph unicode="&#xb0;" d="M283 1185.5q0 141.5 96 238t237 96.5q66 0 127 -25q63 -25 109 -74q49 -49 72 -106q25 -61 24 -129q0 -66 -24 -127q-23 -57 -72 -107q-57 -53 -109 -73q-61 -25 -129 -25q-141 0 -235 94q-96 96 -96 237.5zM444 1186q0 -72 49.5 -121t121 -49t120.5 49q51 51 51 121 q0 74 -49 123t-121 49q-74 0 -123 -49t-49 -123z" />
<glyph unicode="&#xb1;" d="M88 0v238h1057v-238h-1057zM88 694v236h410v354h237v-354h410v-236h-410v-354h-237v354h-410z" />
<glyph unicode="&#xb2;" d="M260 668l29 141l141 102q401 287 401 377q0 45 -36.5 69.5t-102.5 24.5q-63 0 -137 -18q-72 -18 -152 -53l31 162q88 25 150 34q74 12 145 13q147 0 221 -54q78 -55 78 -153q0 -139 -410 -426l-104 -74h438l-28 -145h-664z" />
<glyph unicode="&#xb3;" d="M276 694l31 154q53 -25 135 -41q70 -14 152 -14q94 0 151 41q55 40 56 110q0 43 -43 72q-41 27 -119 26h-111l29 146h109q88 0 135 28.5t47 77.5q0 43 -39 64q-41 23 -111 22q-49 0 -116 -12q-61 -12 -150 -35l29 152q66 16 143 26q63 8 137 9q141 0 220 -52 q80 -51 79 -139q0 -90 -61 -145.5t-172 -67.5q82 -10 133 -59q49 -49 49 -123q0 -133 -110.5 -207t-311.5 -74q-68 0 -149 11q-74 8 -142 30z" />
<glyph unicode="&#xb4;" d="M569 1262l318 376h321l-442 -376h-197z" />
<glyph unicode="&#xb5;" d="M-55 -428l301 1548h289l-132 -680q-8 -37 -10 -53t-2 -41q0 -63 35 -98t94 -35q82 0 133.5 55.5t73.5 171.5l131 680h289l-150 -776q-2 -20 -5 -32.5t-3 -18.5q-2 -10 -2 -25q0 -25 10 -41q8 -14 31 -14q12 0 27 6q8 4 35 19l-43 -222q-53 -25 -86 -35t-76 -10 q-74 0 -111 37t-49 121q-51 -78 -115 -119q-59 -39 -131 -39q-59 0 -96 25q-39 27 -53 70l-97 -494h-288z" />
<glyph unicode="&#xb6;" d="M102 981q0 217 162 364.5t408 147.5h518l-328 -1690h-190l301 1543h-191l-299 -1543h-190l164 846q-170 18 -262.5 104.5t-92.5 227.5z" />
<glyph unicode="&#xb7;" d="M408 530l71 365h334l-72 -365h-333z" />
<glyph unicode="&#xb8;" d="M563 0q37 -51 55 -94q18 -45 19 -90q0 -98 -78 -157.5t-207 -59.5q-49 0 -102 6q-31 4 -98 20l26 156q37 -16 84 -27q35 -8 78 -8q70 0 104.5 26.5t34.5 77.5q0 27 -12 60q-14 37 -43 90h139z" />
<glyph unicode="&#xb9;" d="M289 668l26 145h236l106 543l-229 -43l29 149l229 41h197l-135 -690h227l-29 -145h-657z" />
<glyph unicode="&#xba;" d="M221 428l33 170h688l-33 -170h-688zM307 1016q0 225 119 364.5t313 139.5q154 0 242 -84q86 -83 86 -234q0 -227 -119 -364q-121 -139 -311 -140q-156 0 -244 84q-86 83 -86 234zM520 1022q0 -72 35 -117q35 -43 94 -43q86 0 148 96q59 92 59 238q0 74 -35 119 q-33 41 -94 41q-86 0 -147 -96q-60 -93 -60 -238z" />
<glyph unicode="&#xbb;" d="M82 141l45 238l322 221l-234 221l45 238l393 -393l-26 -131zM537 141l45 238l321 221l-233 221l45 238l393 -393l-27 -131z" />
<glyph unicode="&#xbc;" d="M887 383l-314 -330h250zM905 565h205l-101 -512h109l-27 -143h-108l-35 -180h-188l36 180h-389l31 162zM31 824l26 145h236l106 543l-229 -43l29 149l229 41h197l-135 -690h227l-29 -145h-657zM84 500l-37 118l1059 261l37 -117z" />
<glyph unicode="&#xbd;" d="M31 824l26 145h236l106 543l-229 -43l29 149l229 41h197l-135 -690h227l-29 -145h-657zM84 500l-37 118l1059 261l37 -117zM414 -270l29 141l141 102q401 287 401 377q0 45 -36.5 69.5t-102.5 24.5q-63 0 -137 -18q-72 -18 -152 -53l31 162q88 25 150 34q74 12 145 13 q147 0 221 -54q78 -55 78 -153q0 -139 -410 -426l-104 -74h438l-28 -145h-664z" />
<glyph unicode="&#xbe;" d="M887 383l-314 -330h250zM905 565h205l-101 -512h109l-27 -143h-108l-35 -180h-188l36 180h-389l31 162zM49 850l31 154q53 -25 135 -41q70 -14 152 -14q94 0 151 41q55 40 56 110q0 43 -43 72q-41 27 -119 26h-111l29 146h109q88 0 135 28.5t47 77.5q0 43 -39 64 q-41 23 -111 22q-49 0 -116 -12q-61 -12 -150 -35l29 152q66 16 143 26q63 8 137 9q141 0 220 -52q80 -51 79 -139q0 -90 -61 -145.5t-172 -67.5q82 -10 133 -59q49 -49 49 -123q0 -133 -110.5 -207t-311.5 -74q-68 0 -149 11q-74 8 -142 30zM84 500l-37 118l1059 261 l37 -117z" />
<glyph unicode="&#xbf;" d="M90 272q0 95 49 179q47 82 166 180l105 86l8 8q127 104 153 244l23 123h266l-29 -154q-18 -95 -61 -166q-43 -72 -139 -151l-105 -93l-14 -14q-141 -123 -141 -186q0 -57 36.5 -88t106.5 -31q89 0 191 37q100 37 219 108l-52 -268q-104 -57 -208 -84q-111 -29 -211 -29 q-168 0 -265 82q-98 84 -98 217zM618 1210l54 283h268l-55 -283h-267z" />
<glyph unicode="&#xc0;" d="M-113 0l695 1493h360l113 -1493h-293l-14 369h-400l-162 -369h-299zM453 612h284l-20 607zM764 1899l143 -264h-178l-229 264h264z" />
<glyph unicode="&#xc1;" d="M-113 0l695 1493h360l113 -1493h-293l-14 369h-400l-162 -369h-299zM453 612h284l-20 607zM862 1899h281l-320 -264h-207z" />
<glyph unicode="&#xc2;" d="M-113 0l695 1493h360l113 -1493h-293l-14 369h-400l-162 -369h-299zM453 612h284l-20 607zM639 1899h348l151 -264h-169l-164 161l-230 -161h-180z" />
<glyph unicode="&#xc3;" d="M-113 0l695 1493h360l113 -1493h-293l-14 369h-400l-162 -369h-299zM453 612h284l-20 607zM782 1686l-49 37q-29 23 -41 26q-14 6 -35 6q-33 0 -61 -32q-27 -31 -37 -88h-137q25 127 90 196.5t162 69.5q37 0 69 -12q37 -12 68 -39l53 -41q20 -16 33 -21q18 -6 35 -6 q41 0 65.5 30.5t36.5 88.5h137q-25 -125 -92 -197q-66 -70 -158 -69q-39 0 -69 12q-39 14 -70 39z" />
<glyph unicode="&#xc4;" d="M-113 0l695 1493h360l113 -1493h-293l-14 369h-400l-162 -369h-299zM453 612h284l-20 607zM899 1899h235l-47 -246h-237zM504 1899h235l-49 -246h-236z" />
<glyph unicode="&#xc5;" d="M-113 0l660 1421q-35 37 -58 88q-20 49 -20 107q0 117 84 201t200.5 84t200.5 -84t84 -201q0 -57 -24 -113q-25 -57 -66 -94l107 -1409h-295l-21 369h-395l-162 -369h-295zM451 612h278l-20 611zM623 1616q0 -53 38.5 -92t92 -39t92.5 39t39 92t-39 92t-92.5 39t-92 -39 t-38.5 -92z" />
<glyph unicode="&#xc6;" d="M-150 0l652 1493h809l-51 -260h-291l-60 -311h260l-51 -260h-260l-78 -402h310l-52 -260h-563l72 362h-283l-155 -362h-259zM365 598h227l125 635h-80z" />
<glyph unicode="&#xc7;" d="M131 506q0 233 70 442q68 205 192 348q94 104 228 166q127 57 282 58q80 0 160 -19q86 -20 156 -53l-64 -328q-51 70 -123 103q-76 35 -160 34q-82 0 -157 -49q-78 -49 -131 -133q-68 -108 -111 -258t-43 -285q0 -147 64 -223q66 -78 180 -78q84 0 162 33q80 35 174 107 l-64 -328q-68 -33 -158 -53q-80 -18 -165 -19q-240 0 -365 138q-127 139 -127 397zM680 0q37 -51 55 -94q18 -45 19 -90q0 -98 -78 -157.5t-207 -59.5q-49 0 -102 6q-31 4 -98 20l26 156q37 -16 84 -27q35 -8 78 -8q70 0 104.5 26.5t34.5 77.5q0 27 -12 60q-14 37 -43 90 h139z" />
<glyph unicode="&#xc8;" d="M29 0l288 1493h932l-51 -260h-635l-63 -322h575l-49 -260h-575l-76 -391h635l-52 -260h-929zM801 1899l143 -264h-178l-229 264h264z" />
<glyph unicode="&#xc9;" d="M29 0l288 1493h932l-51 -260h-635l-63 -322h575l-49 -260h-575l-76 -391h635l-52 -260h-929zM899 1899h281l-320 -264h-207z" />
<glyph unicode="&#xca;" d="M29 0l288 1493h932l-51 -260h-635l-63 -322h575l-49 -260h-575l-76 -391h635l-52 -260h-929zM676 1899h348l151 -264h-169l-164 161l-230 -161h-180z" />
<glyph unicode="&#xcb;" d="M29 0l288 1493h932l-51 -260h-635l-63 -322h575l-49 -260h-575l-76 -391h635l-52 -260h-929zM936 1899h235l-47 -246h-237zM541 1899h235l-49 -246h-236z" />
<glyph unicode="&#xcc;" d="M27 0l51 260h297l188 973h-297l51 260h889l-51 -260h-297l-188 -973h297l-52 -260h-888zM760 1899l143 -264h-178l-229 264h264z" />
<glyph unicode="&#xcd;" d="M27 0l51 260h297l188 973h-297l51 260h889l-51 -260h-297l-188 -973h297l-52 -260h-888zM858 1899h281l-320 -264h-207z" />
<glyph unicode="&#xce;" d="M27 0l51 260h297l188 973h-297l51 260h889l-51 -260h-297l-188 -973h297l-52 -260h-888zM635 1899h348l151 -264h-169l-164 161l-230 -161h-180z" />
<glyph unicode="&#xcf;" d="M27 0l51 260h297l188 973h-297l51 260h889l-51 -260h-297l-188 -973h297l-52 -260h-888zM895 1899h235l-47 -246h-237zM500 1899h235l-49 -246h-236z" />
<glyph unicode="&#xd0;" d="M-16 664l47 237h135l117 592h315q285 0 426 -123t141 -371q0 -72 -14 -186q-10 -88 -41 -211q-39 -156 -88 -256q-53 -104 -125 -174q-94 -92 -225 -131q-135 -41 -350 -41h-330l129 664h-137zM338 266h96q111 0 188.5 43t120.5 133q49 102 84 252q33 143 33 272.5 t-63 196.5q-61 63 -191 64h-82l-63 -326h211l-45 -237h-211z" />
<glyph unicode="&#xd1;" d="M-25 0l291 1493h303l215 -1085l211 1085h260l-288 -1493h-293l-225 1085l-211 -1085h-263zM782 1686l-49 37q-29 23 -41 26q-14 6 -35 6q-33 0 -61 -32q-27 -31 -37 -88h-137q25 127 90 196.5t162 69.5q37 0 69 -12q37 -12 68 -39l53 -41q20 -16 33 -21q18 -6 35 -6 q41 0 65.5 30.5t36.5 88.5h137q-25 -125 -92 -197q-66 -70 -158 -69q-39 0 -69 12q-39 14 -70 39z" />
<glyph unicode="&#xd2;" d="M61 465q0 200 50 405q49 205 135 359q74 137 203 215q125 76 280 76q215 0 328 -125q115 -127 114 -365q0 -203 -49 -409q-49 -203 -133 -357q-76 -139 -203 -217q-125 -76 -282 -76q-215 0 -330 127q-113 125 -113 367zM365 471q0 -119 40.5 -178.5t120.5 -59.5 q61 0 109 35q49 37 86 105q25 49 45 110q22 65 43 148q33 131 45 215q14 92 14 174q0 117 -41 180q-39 59 -120 60q-61 0 -109 -35q-49 -37 -86 -105q-22 -40 -43 -104q-29 -88 -45 -156q-27 -109 -43 -215q-16 -104 -16 -174zM764 1899l143 -264h-178l-229 264h264z" />
<glyph unicode="&#xd3;" d="M61 465q0 200 50 405q49 205 135 359q74 137 203 215q125 76 280 76q215 0 328 -125q115 -127 114 -365q0 -203 -49 -409q-49 -203 -133 -357q-76 -139 -203 -217q-125 -76 -282 -76q-215 0 -330 127q-113 125 -113 367zM365 471q0 -119 40.5 -178.5t120.5 -59.5 q61 0 109 35q49 37 86 105q25 49 45 110q22 65 43 148q33 131 45 215q14 92 14 174q0 117 -41 180q-39 59 -120 60q-61 0 -109 -35q-49 -37 -86 -105q-22 -40 -43 -104q-29 -88 -45 -156q-27 -109 -43 -215q-16 -104 -16 -174zM862 1899h281l-320 -264h-207z" />
<glyph unicode="&#xd4;" d="M61 465q0 200 50 405q49 205 135 359q74 137 203 215q125 76 280 76q215 0 328 -125q115 -127 114 -365q0 -203 -49 -409q-49 -203 -133 -357q-76 -139 -203 -217q-125 -76 -282 -76q-215 0 -330 127q-113 125 -113 367zM365 471q0 -119 40.5 -178.5t120.5 -59.5 q61 0 109 35q49 37 86 105q25 49 45 110q22 65 43 148q33 131 45 215q14 92 14 174q0 117 -41 180q-39 59 -120 60q-61 0 -109 -35q-49 -37 -86 -105q-22 -40 -43 -104q-29 -88 -45 -156q-27 -109 -43 -215q-16 -104 -16 -174zM639 1899h348l151 -264h-169l-164 161 l-230 -161h-180z" />
<glyph unicode="&#xd5;" d="M61 465q0 200 50 405q49 205 135 359q74 137 203 215q125 76 280 76q215 0 328 -125q115 -127 114 -365q0 -203 -49 -409q-49 -203 -133 -357q-76 -139 -203 -217q-125 -76 -282 -76q-215 0 -330 127q-113 125 -113 367zM365 471q0 -119 40.5 -178.5t120.5 -59.5 q61 0 109 35q49 37 86 105q25 49 45 110q22 65 43 148q33 131 45 215q14 92 14 174q0 117 -41 180q-39 59 -120 60q-61 0 -109 -35q-49 -37 -86 -105q-22 -40 -43 -104q-29 -88 -45 -156q-27 -109 -43 -215q-16 -104 -16 -174zM782 1686l-49 37q-29 23 -41 26q-14 6 -35 6 q-33 0 -61 -32q-27 -31 -37 -88h-137q25 127 90 196.5t162 69.5q37 0 69 -12q37 -12 68 -39l53 -41q20 -16 33 -21q18 -6 35 -6q41 0 65.5 30.5t36.5 88.5h137q-25 -125 -92 -197q-66 -70 -158 -69q-39 0 -69 12q-39 14 -70 39z" />
<glyph unicode="&#xd6;" d="M61 465q0 200 50 405q49 205 135 359q74 137 203 215q125 76 280 76q215 0 328 -125q115 -127 114 -365q0 -203 -49 -409q-49 -203 -133 -357q-76 -139 -203 -217q-125 -76 -282 -76q-215 0 -330 127q-113 125 -113 367zM365 471q0 -119 40.5 -178.5t120.5 -59.5 q61 0 109 35q49 37 86 105q25 49 45 110q22 65 43 148q33 131 45 215q14 92 14 174q0 117 -41 180q-39 59 -120 60q-61 0 -109 -35q-49 -37 -86 -105q-22 -40 -43 -104q-29 -88 -45 -156q-27 -109 -43 -215q-16 -104 -16 -174zM899 1899h235l-47 -246h-237zM504 1899h235 l-49 -246h-236z" />
<glyph unicode="&#xd7;" d="M119 313l330 330l-330 328l168 168l327 -328l330 328l168 -168l-330 -328l330 -330l-168 -166l-330 328l-327 -328z" />
<glyph unicode="&#xd8;" d="M-141 51l219 244q-8 33 -12 72q-4 49 -5 75q0 213 50 422q51 215 133 363q76 137 205 217q125 76 282 76q109 0 189 -33q82 -33 143 -98l154 170l139 -115l-205 -227l14 -105q6 -49 6 -92q0 -39 -8 -133q-6 -78 -20 -150q-23 -131 -64 -258q-35 -113 -90 -215 q-76 -139 -203 -217q-125 -76 -282 -76q-115 0 -201 37q-84 35 -143 109l-160 -180zM375 354q18 -59 57 -90t94 -31q127 0 203 152q77 154 129 504zM379 629l473 524q-18 52 -55 80q-35 27 -90 27q-121 0 -197 -145.5t-131 -485.5z" />
<glyph unicode="&#xd9;" d="M45 352q0 43 6 92q8 70 17 107l184 942h295l-199 -1016q0 -2 -1 -3l-1 -3q-6 -46 -6 -68q0 -82 45 -127t131 -45q108 0 172 62q66 63 90 184l199 1016h295l-185 -942q-33 -172 -75 -272q-41 -94 -103 -156q-76 -72 -180 -113q-102 -39 -229 -39q-219 0 -336 99 q-119 100 -119 282zM770 1899l143 -264h-178l-229 264h264z" />
<glyph unicode="&#xda;" d="M45 352q0 43 6 92q8 70 17 107l184 942h295l-199 -1016q0 -2 -1 -3l-1 -3q-6 -46 -6 -68q0 -82 45 -127t131 -45q108 0 172 62q66 63 90 184l199 1016h295l-185 -942q-33 -172 -75 -272q-41 -94 -103 -156q-76 -72 -180 -113q-102 -39 -229 -39q-219 0 -336 99 q-119 100 -119 282zM868 1899h281l-320 -264h-207z" />
<glyph unicode="&#xdb;" d="M45 352q0 43 6 92q8 70 17 107l184 942h295l-199 -1016q0 -2 -1 -3l-1 -3q-6 -46 -6 -68q0 -82 45 -127t131 -45q108 0 172 62q66 63 90 184l199 1016h295l-185 -942q-33 -172 -75 -272q-41 -94 -103 -156q-76 -72 -180 -113q-102 -39 -229 -39q-219 0 -336 99 q-119 100 -119 282zM645 1899h348l151 -264h-169l-164 161l-230 -161h-180z" />
<glyph unicode="&#xdc;" d="M45 352q0 43 6 92q8 70 17 107l184 942h295l-199 -1016q0 -2 -1 -3l-1 -3q-6 -46 -6 -68q0 -82 45 -127t131 -45q108 0 172 62q66 63 90 184l199 1016h295l-185 -942q-33 -172 -75 -272q-41 -94 -103 -156q-76 -72 -180 -113q-102 -39 -229 -39q-219 0 -336 99 q-119 100 -119 282zM905 1899h235l-47 -246h-237zM510 1899h235l-49 -246h-236z" />
<glyph unicode="&#xdd;" d="M145 1493h293l187 -649l411 649h322l-633 -905l-115 -588h-293l115 588zM858 1899h281l-320 -264h-207z" />
<glyph unicode="&#xde;" d="M16 0l291 1493h295l-47 -227h127q238 0 360.5 -92.5t122.5 -266.5q0 -115 -37 -225q-39 -115 -94 -176q-78 -92 -194 -133q-119 -41 -301 -41h-164l-64 -332h-295zM424 580h145q147 0 217 67q72 68 72 203q0 90 -51 129t-176 39h-121z" />
<glyph unicode="&#xdf;" d="M29 0l219 1126q39 211 172 322q132 111 344 111q197 0 295 -86.5t98 -264.5q0 -59 -10 -143l-2 -6q-143 -10 -219 -58q-78 -49 -78 -133q0 -57 96 -153l6 -6l76 -76q61 -61 88 -121q29 -63 29 -131q0 -188 -129 -299t-348 -111q-68 0 -131 13q-65 12 -129 36l49 250 q59 -31 112 -47q55 -16 99 -16q92 0 143 39t51 108q0 66 -110 176l-7 7l-69 71q-47 49 -66 97q-20 49 -20 110q0 137 92 229.5t260 129.5v16q0 63 -45 100q-43 35 -127 35q-92 0 -149.5 -51t-77.5 -152l-219 -1122h-293z" />
<glyph unicode="&#xe0;" d="M47 295q0 215 156 328q158 115 448 114h193l8 49q0 2 1 5.5t1 5.5v18q0 55 -51 86q-53 31 -148 31q-78 0 -186 -29q-100 -27 -221 -84l47 250q123 43 213 59q102 18 192 19q219 0 328 -76q113 -78 113 -223q0 -40 -6 -92q-2 -25 -21 -117l-123 -639h-291l25 125 q-66 -74 -154 -115q-84 -39 -196 -39q-147 0 -240 88q-88 86 -88 236zM352 317q0 -63 41 -104t103 -41q119 0 198.5 92t108.5 266h-113q-172 0 -256 -53q-82 -51 -82 -160zM402 1638h284l209 -376h-198z" />
<glyph unicode="&#xe1;" d="M47 295q0 215 156 328q158 115 448 114h193l8 49q0 2 1 5.5t1 5.5v18q0 55 -51 86q-53 31 -148 31q-78 0 -186 -29q-100 -27 -221 -84l47 250q123 43 213 59q102 18 192 19q219 0 328 -76q113 -78 113 -223q0 -40 -6 -92q-2 -25 -21 -117l-123 -639h-291l25 125 q-66 -74 -154 -115q-84 -39 -196 -39q-147 0 -240 88q-88 86 -88 236zM352 317q0 -63 41 -104t103 -41q119 0 198.5 92t108.5 266h-113q-172 0 -256 -53q-82 -51 -82 -160zM600 1262l318 376h321l-442 -376h-197z" />
<glyph unicode="&#xe2;" d="M47 295q0 215 156 328q158 115 448 114h193l8 49q0 2 1 5.5t1 5.5v18q0 55 -51 86q-53 31 -148 31q-78 0 -186 -29q-100 -27 -221 -84l47 250q123 43 213 59q102 18 192 19q219 0 328 -76q113 -78 113 -223q0 -40 -6 -92q-2 -25 -21 -117l-123 -639h-291l25 125 q-66 -74 -154 -115q-84 -39 -196 -39q-147 0 -240 88q-88 86 -88 236zM352 317q0 -63 41 -104t103 -41q119 0 198.5 92t108.5 266h-113q-172 0 -256 -53q-82 -51 -82 -160zM367 1262l332 376h243l183 -376h-176l-152 225l-240 -225h-190z" />
<glyph unicode="&#xe3;" d="M47 295q0 215 156 328q158 115 448 114h193l8 49q0 2 1 5.5t1 5.5v18q0 55 -51 86q-53 31 -148 31q-78 0 -186 -29q-100 -27 -221 -84l47 250q123 43 213 59q102 18 192 19q219 0 328 -76q113 -78 113 -223q0 -40 -6 -92q-2 -25 -21 -117l-123 -639h-291l25 125 q-66 -74 -154 -115q-84 -39 -196 -39q-147 0 -240 88q-88 86 -88 236zM352 317q0 -63 41 -104t103 -41q119 0 198.5 92t108.5 266h-113q-172 0 -256 -53q-82 -51 -82 -160zM408 1309q18 127 88 207q68 78 162 77q35 0 65 -12q29 -12 76 -49l51 -39q12 -10 37 -23 q16 -8 33 -8q39 0 63 33q29 39 37 96h139q-20 -139 -86 -213q-61 -72 -163 -71q-29 0 -68 14q-31 10 -72 43l-49 37q-4 2 -6 4q-41 33 -72 33q-35 0 -59 -35q-29 -39 -37 -94h-139z" />
<glyph unicode="&#xe4;" d="M47 295q0 215 156 328q158 115 448 114h193l8 49q0 2 1 5.5t1 5.5v18q0 55 -51 86q-53 31 -148 31q-78 0 -186 -29q-100 -27 -221 -84l47 250q123 43 213 59q102 18 192 19q219 0 328 -76q113 -78 113 -223q0 -40 -6 -92q-2 -25 -21 -117l-123 -639h-291l25 125 q-66 -74 -154 -115q-84 -39 -196 -39q-147 0 -240 88q-88 86 -88 236zM352 317q0 -63 41 -104t103 -41q119 0 198.5 92t108.5 266h-113q-172 0 -256 -53q-82 -51 -82 -160zM447 1339l47 246h237l-49 -246h-235zM842 1339l47 246h238l-49 -246h-236z" />
<glyph unicode="&#xe5;" d="M47 295q0 215 156 328q158 115 448 114h193l8 49q0 2 1 5.5t1 5.5v18q0 55 -51 86q-53 31 -148 31q-78 0 -186 -29q-100 -27 -221 -84l47 250q123 43 213 59q102 18 192 19q219 0 328 -76q113 -78 113 -223q0 -40 -6 -92q-2 -25 -21 -117l-123 -639h-291l25 125 q-66 -74 -154 -115q-84 -39 -196 -39q-147 0 -240 88q-88 86 -88 236zM352 317q0 -63 41 -104t103 -41q119 0 198.5 92t108.5 266h-113q-172 0 -256 -53q-82 -51 -82 -160zM494 1534q0 117 84 201t200.5 84t200.5 -84t84 -201t-84 -201t-200.5 -84t-200.5 84t-84 201z M647 1534q0 -55 39 -92q43 -39 93 -39q53 0 92 39t39 92t-39 92t-92.5 39t-92.5 -39t-39 -92z" />
<glyph unicode="&#xe6;" d="M-31 262q0 197 121 311q123 117 326 117h108l11 58q4 20 4 30q0 4 1 14.5t1 14.5q0 61 -33 92q-37 33 -100 33q-51 0 -121 -25q-59 -20 -156 -76l47 238q86 43 152 59q74 18 141 19q80 0 139.5 -35t83.5 -98q53 66 121 98q74 35 154 35q127 0 194.5 -69.5t67.5 -200.5 q0 -55 -8 -115q-14 -109 -25 -156l-22 -129h-451q-4 -25 -10 -76q-4 -37 -4 -45q0 -80 43 -129q41 -47 112 -47q55 0 125 29t133 80l-47 -238q-53 -37 -125 -59q-63 -20 -149 -21q-94 0 -162 43q-70 43 -98 121q-61 -83 -135 -123q-76 -41 -162 -41q-131 0 -203 78 q-74 80 -74 213zM188 291q0 -47 29 -80q29 -31 78 -31q68 0 106.5 51.5t61.5 169.5l14 78h-74q-100 0 -157.5 -51t-57.5 -137zM766 688h225l13 68q4 25 4 32q0 6 1 20.5t1 25.5q0 53 -20.5 75.5t-63.5 22.5q-57 0 -92 -41t-54 -131z" />
<glyph unicode="&#xe7;" d="M150 434q0 317 184 514q186 199 479 199q100 0 182 -21q88 -23 162 -63l-53 -268q-61 58 -129 86q-70 29 -146 28q-168 0 -276 -125q-106 -121 -107 -321q0 -127 61.5 -190.5t184.5 -63.5q63 0 150 27q72 23 170 77l-56 -276q-77 -34 -159 -49q-88 -16 -164 -17 q-225 0 -354 123t-129 340zM635 0q37 -51 55 -94q18 -45 19 -90q0 -98 -78 -157.5t-207 -59.5q-49 0 -102 6q-31 4 -98 20l26 156q37 -16 84 -27q35 -8 78 -8q70 0 104.5 26.5t34.5 77.5q0 27 -12 60q-14 37 -43 90h139z" />
<glyph unicode="&#xe8;" d="M76 436q0 133 45 273q43 131 123 229q82 98 200 156q117 55 250 55q207 0 334 -121t127 -317q0 -46 -6 -105q-8 -72 -21 -141h-759q-4 -25 -4 -33q0 -6 -1.5 -14t-1.5 -15q0 -102 66 -149q70 -51 199 -51q111 0 217 30.5t200 90.5l-51 -269q-92 -41 -198 -63 q-100 -20 -213 -21q-250 0 -377 119q-129 119 -129 346zM410 684h467q4 20 4 27q0 4 1 13t1 13q0 84 -52 133q-53 49 -139 50q-100 0 -172 -60q-69 -57 -110 -176zM371 1638h284l209 -376h-198z" />
<glyph unicode="&#xe9;" d="M76 436q0 133 45 273q43 131 123 229q82 98 200 156q117 55 250 55q207 0 334 -121t127 -317q0 -46 -6 -105q-8 -72 -21 -141h-759q-4 -25 -4 -33q0 -6 -1.5 -14t-1.5 -15q0 -102 66 -149q70 -51 199 -51q111 0 217 30.5t200 90.5l-51 -269q-92 -41 -198 -63 q-100 -20 -213 -21q-250 0 -377 119q-129 119 -129 346zM410 684h467q4 20 4 27q0 4 1 13t1 13q0 84 -52 133q-53 49 -139 50q-100 0 -172 -60q-69 -57 -110 -176zM569 1262l318 376h321l-442 -376h-197z" />
<glyph unicode="&#xea;" d="M76 436q0 133 45 273q43 131 123 229q82 98 200 156q117 55 250 55q207 0 334 -121t127 -317q0 -46 -6 -105q-8 -72 -21 -141h-759q-4 -25 -4 -33q0 -6 -1.5 -14t-1.5 -15q0 -102 66 -149q70 -51 199 -51q111 0 217 30.5t200 90.5l-51 -269q-92 -41 -198 -63 q-100 -20 -213 -21q-250 0 -377 119q-129 119 -129 346zM410 684h467q4 20 4 27q0 4 1 13t1 13q0 84 -52 133q-53 49 -139 50q-100 0 -172 -60q-69 -57 -110 -176zM336 1262l332 376h243l183 -376h-176l-152 225l-240 -225h-190z" />
<glyph unicode="&#xeb;" d="M76 436q0 133 45 273q43 131 123 229q82 98 200 156q117 55 250 55q207 0 334 -121t127 -317q0 -46 -6 -105q-8 -72 -21 -141h-759q-4 -25 -4 -33q0 -6 -1.5 -14t-1.5 -15q0 -102 66 -149q70 -51 199 -51q111 0 217 30.5t200 90.5l-51 -269q-92 -41 -198 -63 q-100 -20 -213 -21q-250 0 -377 119q-129 119 -129 346zM410 684h467q4 20 4 27q0 4 1 13t1 13q0 84 -52 133q-53 49 -139 50q-100 0 -172 -60q-69 -57 -110 -176zM416 1339l47 246h237l-49 -246h-235zM811 1339l47 246h238l-49 -246h-236z" />
<glyph unicode="&#xec;" d="M309 1120h580l-174 -895h364l-43 -225h-1022l43 225h365l131 670h-287zM326 1638h284l209 -376h-198z" />
<glyph unicode="&#xed;" d="M309 1120h580l-174 -895h364l-43 -225h-1022l43 225h365l131 670h-287zM524 1262l318 376h321l-442 -376h-197z" />
<glyph unicode="&#xee;" d="M309 1120h580l-174 -895h364l-43 -225h-1022l43 225h365l131 670h-287zM291 1262l332 376h243l183 -376h-176l-152 225l-240 -225h-190z" />
<glyph unicode="&#xef;" d="M309 1120h580l-174 -895h364l-43 -225h-1022l43 225h365l131 670h-287zM371 1339l47 246h237l-49 -246h-235zM766 1339l47 246h238l-49 -246h-236z" />
<glyph unicode="&#xf0;" d="M82 412q0 280 160 460t409 181q41 0 74 -6q37 -6 63 -19q-28 65 -55 117t-55 98l-330 -123l-41 115l307 115l-125 206h279l74 -120l323 118l41 -112l-303 -113q120 -181 178 -350q59 -172 60 -326q0 -311 -164 -495q-166 -186 -438 -187q-221 0 -338 115 q-119 117 -119 326zM375 428q0 -98 51 -162q47 -59 133 -59q125 0 207 125t82 323q0 43 -2 64q-4 37 -8 59q-37 20 -78 31q-45 10 -86 10q-127 0 -213 -110.5t-86 -280.5z" />
<glyph unicode="&#xf1;" d="M59 0l217 1120h293l-32 -168q47 90 133 144q82 51 184 51q129 0 197 -70q70 -74 69 -196q0 -18 -4 -68q-2 -25 -14 -86l-141 -727h-293l133 682q4 16 8 53q2 18 2 53q0 55 -29 89q-29 31 -84 30q-82 0 -141 -71.5t-84 -206.5l-121 -629h-293zM377 1309q18 127 88 207 q68 78 162 77q35 0 65 -12q29 -12 76 -49l51 -39q12 -10 37 -23q16 -8 33 -8q39 0 63 33q29 39 37 96h139q-20 -139 -86 -213q-61 -72 -163 -71q-29 0 -68 14q-31 10 -72 43l-49 37q-4 2 -6 4q-41 33 -72 33q-35 0 -59 -35q-29 -39 -37 -94h-139z" />
<glyph unicode="&#xf2;" d="M850 684q0 109 -47 168t-131 59q-121 0 -205 -137t-84 -340q0 -104 49 -165.5t131 -61.5q121 0 205 137q82 133 82 340zM88 426q0 323 166 522q166 201 434 201q215 0 336 -121t121 -334q0 -326 -166 -524.5t-434 -198.5q-215 0 -336 121t-121 334zM371 1638h284 l209 -376h-198z" />
<glyph unicode="&#xf3;" d="M850 684q0 109 -47 168t-131 59q-121 0 -205 -137t-84 -340q0 -104 49 -165.5t131 -61.5q121 0 205 137q82 133 82 340zM88 426q0 323 166 522q166 201 434 201q215 0 336 -121t121 -334q0 -326 -166 -524.5t-434 -198.5q-215 0 -336 121t-121 334zM569 1262l318 376h321 l-442 -376h-197z" />
<glyph unicode="&#xf4;" d="M850 684q0 109 -47 168t-131 59q-121 0 -205 -137t-84 -340q0 -104 49 -165.5t131 -61.5q121 0 205 137q82 133 82 340zM88 426q0 323 166 522q166 201 434 201q215 0 336 -121t121 -334q0 -326 -166 -524.5t-434 -198.5q-215 0 -336 121t-121 334zM336 1262l332 376h243 l183 -376h-176l-152 225l-240 -225h-190z" />
<glyph unicode="&#xf5;" d="M850 684q0 109 -47 168t-131 59q-121 0 -205 -137t-84 -340q0 -104 49 -165.5t131 -61.5q121 0 205 137q82 133 82 340zM88 426q0 323 166 522q166 201 434 201q215 0 336 -121t121 -334q0 -326 -166 -524.5t-434 -198.5q-215 0 -336 121t-121 334zM377 1309 q18 127 88 207q68 78 162 77q35 0 65 -12q29 -12 76 -49l51 -39q12 -10 37 -23q16 -8 33 -8q39 0 63 33q29 39 37 96h139q-20 -139 -86 -213q-61 -72 -163 -71q-29 0 -68 14q-31 10 -72 43l-49 37q-4 2 -6 4q-41 33 -72 33q-35 0 -59 -35q-29 -39 -37 -94h-139z" />
<glyph unicode="&#xf6;" d="M850 684q0 109 -47 168t-131 59q-121 0 -205 -137t-84 -340q0 -104 49 -165.5t131 -61.5q121 0 205 137q82 133 82 340zM88 426q0 323 166 522q166 201 434 201q215 0 336 -121t121 -334q0 -326 -166 -524.5t-434 -198.5q-215 0 -336 121t-121 334zM416 1339l47 246h237 l-49 -246h-235zM811 1339l47 246h238l-49 -246h-236z" />
<glyph unicode="&#xf7;" d="M66 524v238h1099v-238h-1099zM461 86v309h309v-309h-309zM461 889v309h309v-309h-309z" />
<glyph unicode="&#xf8;" d="M-82 2l211 207q-22 46 -31 98q-10 57 -10 115q0 328 166 526q166 201 434 201q94 0 170 -24.5t143 -75.5l193 186l117 -121l-207 -201q22 -49 31 -104q10 -61 10 -113q0 -328 -166 -526.5t-436 -198.5q-96 0 -174 25q-74 25 -136 76l-198 -189zM383 453l418 403 q-27 29 -56 41q-37 14 -71 14q-119 0 -197 -118q-76 -115 -94 -340zM434 266q23 -29 55 -45q29 -14 72 -14q119 0 197 121q76 119 92 342z" />
<glyph unicode="&#xf9;" d="M106 244q0 14 5 63q4 39 12 84l143 729h291l-131 -684q-4 -16 -8 -53q-2 -16 -2 -51q0 -57 28 -90q27 -31 84 -31q84 0 140 70q57 72 84 208l122 631h291l-217 -1120h-293l33 166q-45 -92 -129 -143.5t-186 -51.5q-131 0 -199 70q-68 71 -68 203zM371 1638h284l209 -376 h-198z" />
<glyph unicode="&#xfa;" d="M106 244q0 14 5 63q4 39 12 84l143 729h291l-131 -684q-4 -16 -8 -53q-2 -16 -2 -51q0 -57 28 -90q27 -31 84 -31q84 0 140 70q57 72 84 208l122 631h291l-217 -1120h-293l33 166q-45 -92 -129 -143.5t-186 -51.5q-131 0 -199 70q-68 71 -68 203zM569 1262l318 376h321 l-442 -376h-197z" />
<glyph unicode="&#xfb;" d="M106 244q0 14 5 63q4 39 12 84l143 729h291l-131 -684q-4 -16 -8 -53q-2 -16 -2 -51q0 -57 28 -90q27 -31 84 -31q84 0 140 70q57 72 84 208l122 631h291l-217 -1120h-293l33 166q-45 -92 -129 -143.5t-186 -51.5q-131 0 -199 70q-68 71 -68 203zM336 1262l332 376h243 l183 -376h-176l-152 225l-240 -225h-190z" />
<glyph unicode="&#xfc;" d="M106 244q0 14 5 63q4 39 12 84l143 729h291l-131 -684q-4 -16 -8 -53q-2 -16 -2 -51q0 -57 28 -90q27 -31 84 -31q84 0 140 70q57 72 84 208l122 631h291l-217 -1120h-293l33 166q-45 -92 -129 -143.5t-186 -51.5q-131 0 -199 70q-68 71 -68 203zM416 1339l47 246h237 l-49 -246h-235zM811 1339l47 246h238l-49 -246h-236z" />
<glyph unicode="&#xfd;" d="M-90 -424l45 223h117q88 0 137 31t110 141l39 74l-217 1075h297l127 -700l383 700h309l-706 -1241q-113 -199 -193 -250q-84 -53 -208 -53h-240zM569 1262l318 376h321l-442 -376h-197z" />
<glyph unicode="&#xfe;" d="M-37 -426l385 1982h293l-117 -604q68 94 154 146q84 49 174 49q147 0 231 -109q86 -111 86 -299q0 -131 -30 -260q-29 -119 -88 -235q-68 -129 -174.5 -201t-221 -72t-184.5 61.5t-92 174.5l-123 -633h-293zM436 432q0 -106 45 -164q47 -59 121 -59q111 0 191 141 q82 145 81 344q0 102 -43 157.5t-114 55.5q-113 0 -197 -139t-84 -336z" />
<glyph unicode="&#xff;" d="M-90 -424l45 223h117q88 0 137 31t110 141l39 74l-217 1075h297l127 -700l383 700h309l-706 -1241q-113 -199 -193 -250q-84 -53 -208 -53h-240zM416 1339l47 246h237l-49 -246h-235zM811 1339l47 246h238l-49 -246h-236z" />
<glyph unicode="&#x131;" d="M309 1120h580l-174 -895h364l-43 -225h-1022l43 225h365l131 670h-287z" />
<glyph unicode="&#x152;" d="M31 391q0 156 32 334q35 188 95 358q72 213 194.5 311.5t313.5 98.5h686l-52 -260h-331l-60 -311h301l-51 -260h-301l-78 -402h342l-51 -260h-577q-248 0 -357 90q-106 88 -106 301zM315 434q0 -92 39 -133t121 -41h51l189 973h-51q-86 0 -143.5 -47t-90.5 -148 q-53 -154 -84 -321q-31 -169 -31 -283z" />
<glyph unicode="&#x153;" d="M-20 297q0 131 32 299q31 156 86.5 285t155.5 198q98 68 231 68q82 0 144 -31q59 -31 96 -90q51 59 117 90q68 31 151 31q129 0 199 -69.5t70 -200.5q0 -55 -9 -115q-8 -63 -24 -156l-23 -127h-450q-8 -45 -13 -80q-2 -16 -2 -43q0 -78 43 -125t115 -47q59 0 125 27 q63 25 131 78l-47 -238q-51 -35 -127 -59q-63 -20 -150 -21q-92 0 -161 41q-63 37 -86 109q-51 -76 -121 -113t-164 -37q-154 0 -238 84q-81 82 -81 242zM211 322q0 -72 24.5 -105t83.5 -33q52 0 87 31t59 107q10 25 22 81q2 12 8.5 41l12.5 57.5l12 57.5q14 74 27 150 q10 68 10 88q0 71 -25 104t-83 33q-49 0 -87 -33q-35 -33 -59 -104q-8 -25 -29 -105q-14 -55 -30 -133q-15 -80 -25 -141q-8 -55 -8 -96zM797 690h225l10 66q2 14 6 39q2 12 2 39q0 53 -20 75q-20 25 -64 25q-53 0 -90 -43t-55 -131z" />
<glyph unicode="&#x178;" d="M145 1493h293l187 -649l411 649h322l-633 -905l-115 -588h-293l115 588zM895 1899h235l-47 -246h-237zM500 1899h235l-49 -246h-236z" />
<glyph unicode="&#x2c6;" d="M336 1262l332 376h243l183 -376h-176l-152 225l-240 -225h-190z" />
<glyph unicode="&#x2da;" d="M463 1534q0 117 84 201t200.5 84t200.5 -84t84 -201t-84 -201t-200.5 -84t-200.5 84t-84 201zM616 1534q0 -55 39 -92q43 -39 93 -39q53 0 92 39t39 92t-39 92t-92.5 39t-92.5 -39t-39 -92z" />
<glyph unicode="&#x2dc;" d="M377 1309q18 127 88 207q68 78 162 77q35 0 65 -12q29 -12 76 -49l51 -39q12 -10 37 -23q16 -8 33 -8q39 0 63 33q29 39 37 96h139q-20 -139 -86 -213q-61 -72 -163 -71q-29 0 -68 14q-31 10 -72 43l-49 37q-4 2 -6 4q-41 33 -72 33q-35 0 -59 -35q-29 -39 -37 -94h-139z " />
<glyph unicode="&#x327;" d="M563 0q37 -51 55 -94q18 -45 19 -90q0 -98 -78 -157.5t-207 -59.5q-49 0 -102 6q-31 4 -98 20l26 156q37 -16 84 -27q35 -8 78 -8q70 0 104.5 26.5t34.5 77.5q0 27 -12 60q-14 37 -43 90h139z" />
<glyph unicode="&#x2000;" horiz-adv-x="948" />
<glyph unicode="&#x2001;" horiz-adv-x="1900" />
<glyph unicode="&#x2002;" horiz-adv-x="948" />
<glyph unicode="&#x2003;" horiz-adv-x="1900" />
<glyph unicode="&#x2004;" horiz-adv-x="632" />
<glyph unicode="&#x2005;" horiz-adv-x="473" />
<glyph unicode="&#x2006;" horiz-adv-x="315" />
<glyph unicode="&#x2007;" horiz-adv-x="315" />
<glyph unicode="&#x2008;" horiz-adv-x="235" />
<glyph unicode="&#x2009;" horiz-adv-x="378" />
<glyph unicode="&#x200a;" horiz-adv-x="104" />
<glyph unicode="&#x2010;" d="M244 444l55 291h629l-56 -291h-628z" />
<glyph unicode="&#x2011;" d="M244 444l55 291h629l-56 -291h-628z" />
<glyph unicode="&#x2012;" d="M244 444l55 291h629l-56 -291h-628z" />
<glyph unicode="&#x2013;" d="M-59 444l49 246h1233l-49 -246h-1233z" />
<glyph unicode="&#x2014;" d="M-59 444l49 246h1233l-49 -246h-1233z" />
<glyph unicode="&#x2018;" d="M420 903l53 271l270 382h215l-172 -382l-53 -271h-313z" />
<glyph unicode="&#x2019;" d="M420 903l172 383l53 270h313l-53 -270l-270 -383h-215z" />
<glyph unicode="&#x201a;" d="M172 -287l172 383l53 271h314l-54 -271l-270 -383h-215z" />
<glyph unicode="&#x201c;" d="M195 903l53 271l270 382h215l-172 -382l-53 -271h-313zM715 903l53 271l270 382h215l-172 -382l-53 -271h-313z" />
<glyph unicode="&#x201d;" d="M147 903l172 383l54 270h313l-53 -270l-271 -383h-215zM668 903l172 383l53 270h313l-53 -270l-270 -383h-215z" />
<glyph unicode="&#x201e;" d="M-78 -287l172 383l51 271h314l-51 -271l-273 -383h-213zM442 -287l172 383l52 271h313l-51 -271l-273 -383h-213z" />
<glyph unicode="&#x2022;" d="M256 762q0 78 27 139q29 66 79 115q53 51 117 78q61 27 137 26.5t138 -26.5q68 -29 116 -78q52 -52 80 -117q27 -61 27 -137q0 -78 -27 -139q-28 -65 -80 -117t-116 -80q-61 -27 -140 -27q-76 0 -137 27q-65 28 -117 80q-51 53 -77 117q-27 61 -27 139z" />
<glyph unicode="&#x2026;" d="M-86 0l70 367h315l-72 -367h-313zM324 0l71 367h295l-69 -367h-297zM715 0l71 367h314l-70 -367h-315z" />
<glyph unicode="&#x202f;" horiz-adv-x="378" />
<glyph unicode="&#x2039;" d="M305 535l25 131l547 393l-50 -252l-317 -227l229 -226l-41 -213z" />
<glyph unicode="&#x203a;" d="M317 141l45 238l322 221l-235 221l47 238l391 -393l-25 -131z" />
<glyph unicode="&#x205f;" horiz-adv-x="473" />
<glyph unicode="&#x2074;" d="M750 1321l-314 -330h250zM768 1503h205l-101 -512h109l-27 -143h-108l-35 -180h-188l36 180h-389l31 162z" />
<glyph unicode="&#x20ac;" d="M-33 483l84 187h127q6 43 12 80q8 49 15 71h-176l84 189h147q90 246 264 379q170 131 402 131q82 0 157 -19q86 -20 152 -53l-64 -328q-53 72 -127 113q-70 39 -147 39q-104 0 -190 -68q-84 -66 -144 -194h402l-82 -189h-385q-10 -41 -17 -76q-12 -68 -14 -75h346 l-82 -187h-278q6 -123 71 -194q63 -70 168 -70q76 0 149.5 31t188.5 121l-63 -328q-72 -35 -154 -53q-80 -18 -164 -19q-229 0 -354 133q-127 137 -127 373v6h-201z" />
<glyph unicode="&#x2122;" d="M0 1360v133h438v-133h-141v-445h-156v445h-141zM522 915v578h207l100 -227l89 227h208v-578h-153v437l-107 -256h-75l-117 256v-437h-152z" />
<glyph unicode="&#xe000;" horiz-adv-x="1120" d="M0 1120h1120v-1120h-1120v1120z" />
<glyph unicode="&#xfb01;" d="M66 895l45 225h190l14 78q39 199 137.5 278.5t327.5 79.5h80l-43 -225h-67q-66 0 -94.5 -24.5t-43.5 -87.5l-18 -99h602l-217 -1120h-293l174 895h-311l-174 -895h-293l174 895h-190zM932 1264l55 292h293l-57 -292h-291z" />
<glyph unicode="&#xfb02;" d="M66 895l45 225h190l14 78q39 199 137.5 278.5t327.5 79.5h500l-301 -1556h-293l258 1331h-194q-66 0 -94.5 -24.5t-43.5 -87.5l-18 -99h186l-43 -225h-188l-174 -895h-293l174 895h-190z" />
<glyph unicode="&#xfb03;" horiz-adv-x="3698" d="M2480 0l43 225h365l131 670h-287l43 225h580l-174 -895h364l-43 -225h-1022zM3101 1323l67 342h293l-67 -342h-293zM1464 895l43 225h273l16 78q43 213 133 285q92 74 332 73h240l-43 -225h-230q-66 0 -94 -28q-31 -31 -45 -107l-16 -76h344l-43 -225h-344l-174 -895 h-293l174 895h-273zM231 895l43 225h273l16 78q43 213 133 285q92 74 332 73h240l-43 -225h-230q-66 0 -94 -28q-31 -31 -45 -107l-16 -76h344l-43 -225h-344l-174 -895h-293l174 895h-273z" />
<glyph unicode="&#xfb04;" horiz-adv-x="3698" d="M2699 1331l43 225h598l-249 -1191q-3 -22 -7 -37q-2 -10 -2 -21q0 -45 31 -63.5t109 -18.5h278l-45 -225h-297q-205 0 -291 55q-84 53 -84 187q0 35 5 57l5 32q5 32 9 48l203 952h-306zM1464 895l43 225h273l16 78q43 213 133 285q92 74 332 73h240l-43 -225h-230 q-66 0 -94 -28q-31 -31 -45 -107l-16 -76h344l-43 -225h-344l-174 -895h-293l174 895h-273zM231 895l43 225h273l16 78q43 213 133 285q92 74 332 73h240l-43 -225h-230q-66 0 -94 -28q-31 -31 -45 -107l-16 -76h344l-43 -225h-344l-174 -895h-293l174 895h-273z" />
<glyph d="M848 1526h235l-47 -246h-237zM453 1526h235l-49 -246h-236z" />
<glyph d="M811 1526h281l-320 -264h-207z" />
<glyph d="M731 1313l-49 37q-29 23 -41 26q-14 6 -35 6q-33 0 -61 -32q-27 -31 -37 -88h-137q25 127 90 196.5t162 69.5q37 0 69 -12q37 -12 68 -39l53 -41q20 -16 33 -21q18 -6 35 -6q41 0 65.5 30.5t36.5 88.5h137q-25 -125 -92 -197q-66 -70 -158 -69q-39 0 -69 12 q-39 14 -70 39z" />
<glyph d="M850 684q0 109 -47 168t-131 59q-121 0 -205 -137t-84 -340q0 -104 49 -165.5t131 -61.5q121 0 205 137q82 133 82 340zM88 426q0 323 166 522q166 201 434 201q215 0 336 -121t121 -334q0 -326 -166 -524.5t-434 -198.5q-215 0 -336 121t-121 334z" />
<glyph d="M713 1526l143 -264h-178l-229 264h264z" />
<glyph d="M588 1526h348l151 -264h-169l-164 161l-230 -161h-180z" />
<glyph d="M84 500l-37 118l1059 261l37 -117z" />
</font>
</defs>
</svg>
