<?xml version="1.0" standalone="no"?>
<!DOCTYPE svg PUBLIC "-//W3C//DTD SVG 1.1//EN" "http://www.w3.org/Graphics/SVG/1.1/DTD/svg11.dtd" >
<svg xmlns="http://www.w3.org/2000/svg">
<metadata>
This is a custom SVG webfont generated by Font Squirrel.
Copyright   : Copyright c 2003 by Bitstream Inc All Rights ReservedCopyright c 2006 by Tavmjong Bah All Rights ReservedDejaVu changes are in public domain
Foundry     : DejaVu fonts team
Foundry URL : httpdejavusourceforgenet
</metadata>
<defs>
<font id="DejaVuSansCnBdOb" horiz-adv-x="1282" >
<font-face units-per-em="2048" ascent="1556" descent="-492" />
<missing-glyph horiz-adv-x="641" />
<glyph unicode=" "  horiz-adv-x="641" />
<glyph unicode="&#x09;" horiz-adv-x="641" />
<glyph unicode="&#xa0;" horiz-adv-x="641" />
<glyph unicode="!" horiz-adv-x="840" d="M127 0l63 356h324l-62 -356h-325zM262 502l25 418l102 573h325l-102 -573l-118 -418h-232z" />
<glyph unicode="&#x22;" horiz-adv-x="960" d="M176 938v555h213v-555h-213zM572 938v555h213v-555h-213z" />
<glyph unicode="#" d="M120 383l47 215h253l63 274h-254l47 213h257l86 385h201l-86 -385h237l87 385h199l-87 -385h267l-47 -213h-268l-62 -274h268l-49 -215h-266l-86 -383h-199l86 383h-237l-87 -383h-200l86 383h-256zM621 598h238l63 274h-238z" />
<glyph unicode="$" d="M50 86l44 262q86 -55 183.5 -85.5t205.5 -34.5l55 311q-189 31 -275 111.5t-86 223.5q0 199 134.5 321.5t364.5 131.5l40 229h144l-38 -227q91 -6 175.5 -23t163.5 -44l-44 -254q-57 37 -143 60.5t-193 30.5l-51 -288q192 -36 284 -117t92 -215q0 -220 -135.5 -345 t-381.5 -134l-53 -301h-145l53 301q-115 5 -213 26.5t-181 59.5zM470 948q0 -48 29 -75.5t91 -36.5l45 262q-75 -8 -120 -48.5t-45 -101.5zM629 227q89 5 137 48t48 118q0 51 -32.5 79.5t-102.5 39.5z" />
<glyph unicode="%" horiz-adv-x="1846" d="M102 1018q0 222 120 362t313 140q140 0 225.5 -86t85.5 -226q0 -223 -120 -362t-313 -139q-141 0 -226 85t-85 226zM258 -29l1112 1549h220l-1111 -1549h-221zM330 1051q0 -88 27.5 -132.5t82.5 -44.5q78 0 127.5 85t49.5 221q0 84 -28 128t-82 44q-78 0 -127.5 -84.5 t-49.5 -216.5zM1003 285q0 222 119 360.5t312 138.5q141 0 226 -85.5t85 -225.5q0 -224 -119 -363t-312 -139q-141 0 -226 86.5t-85 227.5zM1231 315q0 -87 27.5 -130.5t83.5 -43.5q78 0 127.5 84t49.5 219q0 85 -28.5 128.5t-82.5 43.5q-77 0 -127 -84t-50 -217z" />
<glyph unicode="&#x26;" horiz-adv-x="1607" d="M51 416q0 151 86 277.5t267 240.5q-23 44 -35 89t-12 93q0 176 136 290t351 114q82 0 168 -14.5t177 -43.5l-48 -278q-78 48 -149 71t-142 23q-78 0 -123 -36t-45 -97q0 -38 27 -96.5t80 -133.5l268 -374q55 63 95.5 151t66.5 203h279q-38 -175 -109.5 -318t-179.5 -255 l230 -322h-394l-76 106q-106 -68 -212 -101.5t-217 -33.5q-220 0 -354.5 123t-134.5 322zM371 483q0 -107 68.5 -180.5t170.5 -73.5q54 0 107 21t107 63l-306 430q-72 -51 -109.5 -117.5t-37.5 -142.5z" />
<glyph unicode="'" horiz-adv-x="564" d="M176 938v555h213v-555h-213z" />
<glyph unicode="(" horiz-adv-x="842" d="M142 373q0 295 114.5 589.5t344.5 591.5h261q-210 -310 -313 -613.5t-103 -608.5q0 -150 24.5 -299.5t73.5 -302.5h-262q-70 166 -105 325.5t-35 317.5z" />
<glyph unicode=")" horiz-adv-x="842" d="M-50 -270q210 310 313.5 614t103.5 610q0 150 -24 298.5t-74 301.5h264q69 -164 103 -323.5t34 -319.5q0 -298 -113.5 -592.5t-342.5 -588.5h-264z" />
<glyph unicode="*" horiz-adv-x="963" d="M37 870l301 174l-301 173l68 141l301 -182v344h153v-344l300 182l68 -141l-297 -173l297 -174l-68 -141l-300 184v-344h-153v344l-301 -184z" />
<glyph unicode="+" horiz-adv-x="1544" d="M195 524v236h470v524h214v-524h470v-236h-470v-524h-214v524h-470z" />
<glyph unicode="," horiz-adv-x="700" d="M-63 -291l157 373l54 305h324l-54 -305l-289 -373h-192z" />
<glyph unicode="-" horiz-adv-x="765" d="M46 444l52 291h565l-51 -291h-566z" />
<glyph unicode="." horiz-adv-x="700" d="M85 0l68 387h324l-67 -387h-325z" />
<glyph unicode="/" horiz-adv-x="673" d="M-177 -190l768 1683h209l-768 -1683h-209z" />
<glyph unicode="0" d="M67 510q0 196 49 384.5t137 328.5q93 147 220.5 222t287.5 75q219 0 337.5 -139.5t118.5 -397.5q0 -199 -49.5 -387t-138.5 -330q-91 -146 -220 -220.5t-287 -74.5q-220 0 -337.5 139t-117.5 400zM401 451q0 -111 37 -164.5t113 -53.5q69 0 122.5 46t89.5 135 q25 63 46 143.5t39 190.5q15 89 23 164t8 128q0 112 -36 164.5t-111 52.5q-70 0 -123.5 -44.5t-88.5 -135.5q-27 -65 -49 -148t-38 -181q-15 -90 -23.5 -167t-8.5 -130z" />
<glyph unicode="1" d="M79 0l48 266h306l168 965l-327 -72l46 262l325 72h330l-214 -1227h305l-46 -266h-941z" />
<glyph unicode="2" d="M14 0l51 285l571 479q94 80 143 162t49 159q0 82 -50.5 127t-141.5 45q-85 0 -190.5 -37.5t-237.5 -115.5l58 317q122 50 240 74.5t233 24.5q205 0 323 -98.5t118 -268.5q0 -146 -72 -266t-317 -324l-336 -280h585l-50 -283h-976z" />
<glyph unicode="3" d="M0 45l51 297q80 -52 174.5 -80.5t189.5 -28.5q152 0 240.5 63.5t88.5 170.5q0 89 -67.5 133.5t-203.5 44.5h-137l44 248h146q141 0 223.5 57t82.5 154q0 76 -57.5 116t-166.5 40q-76 0 -166 -22t-187 -64l49 282q106 32 209 48t204 16q228 0 342.5 -84t114.5 -250 q0 -149 -79.5 -248.5t-224.5 -132.5q102 -26 158.5 -105t56.5 -194q0 -248 -176.5 -391.5t-486.5 -143.5q-117 0 -222.5 18.5t-199.5 55.5z" />
<glyph unicode="4" d="M-2 272l59 330l694 891h394l-167 -942h192l-48 -279h-191l-48 -272h-329l49 272h-605zM282 551h369l109 614z" />
<glyph unicode="5" d="M24 70l53 303q100 -72 194 -106t192 -34q142 0 227.5 82.5t85.5 216.5q0 96 -65 152.5t-176 56.5q-76 0 -163.5 -21.5t-192.5 -66.5l147 840h861l-49 -283h-585l-41 -231q40 12 82.5 18.5t85.5 6.5q206 0 322.5 -104.5t116.5 -289.5q0 -294 -179.5 -466.5t-485.5 -172.5 q-113 0 -219 24.5t-211 74.5z" />
<glyph unicode="6" d="M92 522q0 204 55.5 389.5t156.5 319.5q108 143 255 215t331 72q85 0 165 -16t162 -48l-49 -276q-77 44 -150 66t-146 22q-167 0 -270.5 -100t-126.5 -281q70 51 144.5 75.5t158.5 24.5q165 0 270.5 -109t105.5 -278q0 -276 -162.5 -452.5t-418.5 -176.5 q-229 0 -355 144.5t-126 408.5zM433 401q0 -89 40.5 -138.5t112.5 -49.5q102 0 168 92.5t66 233.5q0 96 -39.5 147t-113.5 51q-103 0 -168.5 -94t-65.5 -242z" />
<glyph unicode="7" d="M144 0l711 1210h-637l48 283h1013l-41 -219l-748 -1274h-346z" />
<glyph unicode="8" d="M40 344q0 159 95 278.5t263 172.5q-97 45 -145.5 117t-48.5 173q0 203 150 319t415 116q212 0 329 -88t117 -248q0 -142 -81.5 -243t-232.5 -146q110 -47 162 -126t52 -200q0 -230 -161.5 -364t-443.5 -134q-222 0 -346 98.5t-124 274.5zM373 393q0 -83 45.5 -131.5 t125.5 -48.5q107 0 177 78.5t70 195.5q0 83 -46.5 132t-125.5 49q-105 0 -175.5 -79.5t-70.5 -195.5zM535 1061q0 -68 40 -110t105 -42q92 0 147.5 59.5t55.5 157.5q0 69 -40 110.5t-106 41.5q-92 0 -147 -59.5t-55 -157.5z" />
<glyph unicode="9" d="M76 33l47 276q79 -45 151.5 -66.5t145.5 -21.5q168 0 271.5 100t124.5 281q-69 -51 -143 -75.5t-157 -24.5q-165 0 -270.5 109t-105.5 278q0 276 162.5 452.5t418.5 176.5q229 0 355 -144.5t126 -408.5q0 -203 -56 -388.5t-158 -320.5q-108 -143 -254 -215t-330 -72 q-85 0 -166 16t-162 48zM472 948q0 -96 39.5 -147t113.5 -51q102 0 168 94t66 241q0 91 -39.5 140t-112.5 49q-101 0 -168 -93t-67 -233z" />
<glyph unicode=":" horiz-adv-x="737" d="M76 0l68 387h324l-68 -387h-324zM204 733l67 387h325l-67 -387h-325z" />
<glyph unicode=";" horiz-adv-x="737" d="M-65 -291l155 373l54 305h324l-53 -305l-288 -373h-192zM204 733l67 387h325l-67 -387h-325z" />
<glyph unicode="&#x3c;" horiz-adv-x="1544" d="M195 524v236l1154 463v-250l-867 -332l867 -330v-250z" />
<glyph unicode="=" horiz-adv-x="1544" d="M195 295v237h1154v-237h-1154zM195 752v235h1154v-235h-1154z" />
<glyph unicode="&#x3e;" horiz-adv-x="1544" d="M195 61v250l869 330l-869 332v250l1154 -463v-236z" />
<glyph unicode="?" horiz-adv-x="1069" d="M192 0l63 356h324l-63 -356h-324zM202 1124l56 314q115 42 209.5 62t181.5 20q175 0 274 -85.5t99 -234.5q0 -119 -48 -213t-163 -196l-69 -60q-72 -62 -97.5 -100.5t-32.5 -81.5l-7 -45h-325l7 49q15 80 54 142.5t157 164.5l66 58q71 61 103.5 114t32.5 107 q0 57 -36.5 87.5t-104.5 30.5q-72 0 -162.5 -33.5t-194.5 -99.5z" />
<glyph unicode="@" horiz-adv-x="1843" d="M83 434q0 176 54 340t156 301q132 176 317 270.5t398 94.5q149 0 276 -46.5t227 -138.5q95 -89 146 -208.5t51 -249.5q0 -315 -184 -512t-483 -197q-4 0 -12 -1t-12 -1q-5 0 -8 0.5t-5 1.5l28 158q-40 -75 -107.5 -116.5t-148.5 -41.5q-129 0 -202.5 94.5t-73.5 261.5 q0 221 127.5 382t304.5 161q75 0 131.5 -42t74.5 -111l21 133h183l-120 -693q136 22 227.5 163.5t91.5 332.5q0 213 -148 348t-385 135q-176 0 -328 -76t-258 -219q-83 -110 -126 -242t-43 -274q0 -269 149 -439.5t383 -170.5q106 0 210 43.5t197 126.5l99 -158 q-132 -98 -260.5 -147t-256.5 -49q-122 0 -234 41t-201 118q-126 108 -191 267t-65 360zM698 446q0 -84 36.5 -128t106.5 -44q95 0 161.5 100.5t66.5 246.5q0 86 -36 133t-102 47q-96 0 -164.5 -105t-68.5 -250z" />
<glyph unicode="A" horiz-adv-x="1426" d="M-120 0l760 1493h396l238 -1493h-330l-39 272h-536l-133 -272h-356zM500 543h360l-81 575z" />
<glyph unicode="B" horiz-adv-x="1404" d="M39 0l262 1493h519q239 0 354 -78t115 -241q0 -137 -67.5 -240.5t-176.5 -134.5q88 -28 136 -102.5t48 -184.5q0 -241 -161.5 -376.5t-453.5 -135.5h-575zM429 262h205q119 0 183 63t64 181q0 75 -44 111t-135 36h-204zM544 915h193q93 0 145 52t52 143q0 59 -36.5 90 t-104.5 31h-194z" />
<glyph unicode="C" horiz-adv-x="1352" d="M67 573q0 179 51 337.5t151 289.5q118 154 284 237t358 83q104 0 209.5 -27.5t214.5 -83.5l-56 -309q-87 73 -174 107t-187 34q-208 0 -348.5 -178t-140.5 -445q0 -172 86.5 -270t238.5 -98q91 0 193 36.5t229 114.5l-59 -331q-124 -49 -238.5 -74t-216.5 -25 q-271 0 -433 165t-162 437z" />
<glyph unicode="D" horiz-adv-x="1530" d="M39 0l262 1493h364q261 0 391.5 -34.5t217.5 -115.5t131 -196.5t44 -261.5q0 -203 -75 -382.5t-211 -301.5q-119 -109 -276 -155t-483 -46h-365zM436 291h125q242 0 383 151t141 408q0 174 -92 263t-274 89h-121z" />
<glyph unicode="E" horiz-adv-x="1259" d="M39 0l262 1493h934l-51 -291h-588l-49 -278h554l-53 -291h-552l-60 -342h607l-49 -291h-955z" />
<glyph unicode="F" horiz-adv-x="1259" d="M39 0l262 1493h934l-51 -291h-588l-49 -278h554l-53 -291h-552l-111 -633h-346z" />
<glyph unicode="G" horiz-adv-x="1512" d="M67 573q0 181 51 339.5t153 289.5q124 160 293 239t386 79q120 0 242.5 -28t241.5 -83l-53 -309q-110 71 -215 106t-211 35q-232 0 -378 -172t-146 -442q0 -179 85 -278t240 -99q50 0 100.5 7.5t101.5 23.5l52 290h-212l44 258h539l-125 -718q-132 -71 -273 -105.5 t-303 -34.5q-286 0 -449.5 161.5t-163.5 440.5z" />
<glyph unicode="H" horiz-adv-x="1542" d="M39 0l262 1493h346l-100 -569h511l99 569h347l-262 -1493h-346l110 633h-510l-111 -633h-346z" />
<glyph unicode="I" horiz-adv-x="685" d="M39 0l262 1493h346l-262 -1493h-346z" />
<glyph unicode="J" horiz-adv-x="685" d="M-306 -410l51 291h54q107 0 175 67.5t91 196.5l236 1348h346l-236 -1348q-52 -292 -204.5 -423.5t-442.5 -131.5h-70z" />
<glyph unicode="K" horiz-adv-x="1428" d="M39 0l262 1493h346l-94 -537l571 537h419l-771 -725l581 -768h-407l-452 623l-109 -623h-346z" />
<glyph unicode="L" horiz-adv-x="1174" d="M39 0l262 1493h346l-211 -1202h607l-49 -291h-955z" />
<glyph unicode="M" horiz-adv-x="1834" d="M39 0l262 1493h425l173 -793l454 793h443l-262 -1493h-329l192 1102l-466 -815h-187l-185 815l-192 -1102h-328z" />
<glyph unicode="N" horiz-adv-x="1542" d="M39 0l262 1493h387l307 -1034l181 1034h328l-262 -1493h-387l-308 1034l-180 -1034h-328z" />
<glyph unicode="O" horiz-adv-x="1566" d="M67 569q0 183 49.5 345t145.5 292q115 158 275 236t368 78q269 0 432 -165.5t163 -432.5q0 -182 -50 -344t-145 -291q-117 -159 -277 -237.5t-368 -78.5q-268 0 -430.5 165t-162.5 433zM431 612q0 -172 71 -267t198 -95q104 0 184.5 48.5t137.5 143.5q54 91 83 205 t29 234q0 176 -71.5 268t-207.5 92q-180 0 -302 -179.5t-122 -449.5z" />
<glyph unicode="P" horiz-adv-x="1350" d="M39 0l262 1493h575q211 0 330.5 -107.5t119.5 -298.5q0 -117 -40 -222.5t-113 -184.5q-80 -85 -191 -123.5t-278 -38.5h-229l-90 -518h-346zM526 797h191q123 0 187.5 64t64.5 186q0 81 -46 124t-134 43h-190z" />
<glyph unicode="Q" horiz-adv-x="1566" d="M67 569q0 183 49.5 345.5t145.5 291.5q116 159 275 236.5t368 77.5q269 0 432 -165.5t163 -432.5q0 -314 -137 -550.5t-382 -344.5l206 -326h-330l-173 272q-10 -1 -20 -1.5t-32 -0.5q-102 0 -192 31t-164 92q-99 81 -154 206.5t-55 268.5zM431 612q0 -172 71 -267 t198 -95q104 0 184.5 48.5t137.5 143.5q54 91 83 205t29 234q0 176 -71.5 268t-207.5 92q-180 0 -302 -179.5t-122 -449.5z" />
<glyph unicode="R" horiz-adv-x="1419" d="M39 0l262 1493h512q221 0 335.5 -92t114.5 -271q0 -181 -90 -298t-244 -134q70 -16 117 -79.5t82 -194.5l114 -424h-345l-101 371q-30 111 -73.5 152.5t-126.5 41.5h-111l-100 -565h-346zM531 831h146q118 0 178.5 61t60.5 179q0 74 -42 108.5t-132 34.5h-143z" />
<glyph unicode="S" horiz-adv-x="1327" d="M28 78l55 325q119 -77 232 -115t223 -38q119 0 193.5 54t74.5 138q0 55 -33.5 85.5t-146.5 62.5l-141 39q-157 43 -233 136t-76 241q0 233 160.5 373.5t432.5 140.5q109 0 223.5 -18.5t233.5 -55.5l-56 -316q-102 56 -201 83.5t-193 27.5q-130 0 -202.5 -45t-72.5 -125 q0 -51 32 -79.5t132 -55.5l142 -39q179 -50 262 -144.5t83 -244.5q0 -243 -166 -390t-446 -147q-130 0 -259.5 27t-252.5 80z" />
<glyph unicode="T" horiz-adv-x="1257" d="M88 1202l52 291h1239l-51 -291h-447l-211 -1202h-346l211 1202h-447z" />
<glyph unicode="U" horiz-adv-x="1496" d="M125 414q0 36 4.5 80.5t14.5 103.5l157 895h346l-157 -894q-8 -48 -12.5 -85t-4.5 -65q0 -98 47.5 -146.5t141.5 -48.5q126 0 193 78.5t100 265.5l157 895h346l-157 -895q-58 -330 -221.5 -478.5t-467.5 -148.5q-238 0 -362.5 113.5t-124.5 329.5z" />
<glyph unicode="V" horiz-adv-x="1426" d="M140 1493h330l164 -1116l557 1116h357l-759 -1493h-413z" />
<glyph unicode="W" horiz-adv-x="2033" d="M197 1493h321l41 -1085l422 1085h329l44 -1085l408 1085h345l-579 -1493h-392l-45 1135l-435 -1135h-401z" />
<glyph unicode="X" horiz-adv-x="1421" d="M-94 0l604 766l-318 727h353l207 -469l368 469h377l-583 -737l330 -756h-352l-219 500l-393 -500h-374z" />
<glyph unicode="Y" horiz-adv-x="1334" d="M116 1493h347l228 -553l400 553h400l-663 -870l-109 -623h-346l109 623z" />
<glyph unicode="Z" horiz-adv-x="1336" d="M-48 0l41 238l874 964h-684l51 291h1130l-43 -238l-871 -964h724l-52 -291h-1170z" />
<glyph unicode="[" horiz-adv-x="842" d="M-18 -270l319 1826h558l-41 -225h-250l-242 -1376h253l-41 -225h-556z" />
<glyph unicode="\" horiz-adv-x="673" d="M130 1493h200l178 -1683h-198z" />
<glyph unicode="]" horiz-adv-x="842" d="M-51 -270l38 225h252l243 1376h-253l38 225h559l-319 -1826h-558z" />
<glyph unicode="^" horiz-adv-x="1544" d="M186 936l476 557h221l475 -557h-217l-369 301l-368 -301h-218z" />
<glyph unicode="_" horiz-adv-x="921" d="M-18 -293h958v-190h-958v190z" />
<glyph unicode="`" horiz-adv-x="921" d="M241 1638h255l188 -376h-177z" />
<glyph unicode="a" horiz-adv-x="1243" d="M32 276q0 214 148.5 327.5t429.5 113.5h190l4 28q2 14 2.5 20t0.5 11q0 66 -56 99.5t-167 33.5q-100 0 -193.5 -23t-180.5 -69l48 273q101 28 207 42.5t219 14.5q224 0 333 -85.5t109 -260.5q0 -34 -4 -74.5t-12 -87.5l-113 -639h-322l27 166q-79 -100 -167.5 -147.5 t-191.5 -47.5q-143 0 -227 82.5t-84 222.5zM363 340q0 -61 36.5 -96t100.5 -35q98 0 165 66.5t89 187.5l7 41h-154q-121 0 -182.5 -41.5t-61.5 -122.5z" />
<glyph unicode="b" horiz-adv-x="1319" d="M57 0l271 1556h324l-105 -600q74 98 155 144.5t177 46.5q170 0 269 -120t99 -327q0 -129 -34.5 -251t-99.5 -222q-82 -126 -185 -191t-221 -65q-103 0 -175.5 46.5t-121.5 144.5l-30 -162h-323zM466 428q0 -92 44.5 -144.5t123.5 -52.5q122 0 201 125.5t79 321.5 q0 102 -42.5 155.5t-123.5 53.5q-124 0 -203 -127.5t-79 -331.5z" />
<glyph unicode="c" horiz-adv-x="1092" d="M68 426q0 137 47.5 266t135.5 232q98 113 225 168t293 55q76 0 151.5 -15.5t150.5 -46.5l-51 -292q-65 48 -128 73t-123 25q-158 0 -258 -117.5t-100 -300.5q0 -117 62.5 -181.5t175.5 -64.5q75 0 148 25t139 74l-50 -293q-80 -31 -161 -46.5t-163 -15.5 q-237 0 -365.5 118.5t-128.5 336.5z" />
<glyph unicode="d" horiz-adv-x="1319" d="M67 418q0 129 34.5 251t99.5 222q82 126 185 191t221 65q103 0 175.5 -46.5t122.5 -144.5l105 600h325l-273 -1556h-325l30 162q-74 -98 -155 -144.5t-177 -46.5q-170 0 -269 120t-99 327zM400 440q0 -102 42.5 -155.5t123.5 -53.5q124 0 202 127t78 332q0 93 -43.5 145 t-122.5 52q-122 0 -201 -125.5t-79 -321.5z" />
<glyph unicode="e" horiz-adv-x="1250" d="M67 434q0 128 40.5 248.5t119.5 220.5q93 120 222 182t286 62q205 0 325 -121t120 -326q0 -40 -5 -84.5t-16 -97.5l-11 -57h-754q0 -6 -1 -17.5t-1 -17.5q0 -109 59 -163t177 -54q102 0 215 34t237 101l-50 -278q-117 -48 -233.5 -71.5t-237.5 -23.5q-236 0 -364 121 t-128 342zM438 682h417q3 13 4 26.5t1 26.5q0 80 -43 127t-117 47q-94 0 -160.5 -57.5t-101.5 -169.5z" />
<glyph unicode="f" horiz-adv-x="801" d="M92 864l45 256h158l15 78q33 186 138.5 272t299.5 86h247l-42 -235h-177q-68 0 -99 -27.5t-43 -94.5l-15 -79h273l-44 -256h-273l-151 -864h-324l151 864h-159z" />
<glyph unicode="g" horiz-adv-x="1319" d="M37 -377l48 279q76 -54 152.5 -80.5t156.5 -26.5q160 0 246 76t116 242l14 77q-77 -98 -157 -144t-175 -46q-171 0 -270.5 122.5t-99.5 334.5q0 113 35 226.5t99 213.5q80 121 182.5 184.5t220.5 63.5q106 0 178.5 -46t121.5 -145l27 166h325l-170 -973 q-52 -301 -223 -445t-475 -144q-94 0 -180.5 16t-171.5 49zM404 469q0 -102 42.5 -155.5t123.5 -53.5q118 0 197 118.5t79 295.5q0 104 -42.5 158.5t-123.5 54.5q-118 0 -197 -119t-79 -299z" />
<glyph unicode="h" horiz-adv-x="1312" d="M57 0l271 1556h324l-105 -600q89 97 179 144t188 47q140 0 215.5 -81t75.5 -228q0 -32 -4 -71t-12 -85l-120 -682h-323l102 584q11 57 16.5 96.5t5.5 62.5q0 64 -32 99t-90 35q-100 0 -171.5 -86.5t-99.5 -239.5l-97 -551h-323z" />
<glyph unicode="i" horiz-adv-x="631" d="M57 0l196 1120h324l-197 -1120h-323zM276 1264l52 292h324l-51 -292h-325z" />
<glyph unicode="j" horiz-adv-x="631" d="M-236 -442l41 235h56q91 0 133 45.5t65 181.5l194 1100h324l-194 -1100q-41 -235 -154 -348.5t-305 -113.5h-160zM276 1264l52 292h324l-51 -292h-325z" />
<glyph unicode="k" horiz-adv-x="1225" d="M57 0l271 1556h324l-147 -843l435 407h379l-585 -518l425 -602h-368l-327 483l-84 -483h-323z" />
<glyph unicode="l" horiz-adv-x="631" d="M57 0l271 1556h324l-272 -1556h-323z" />
<glyph unicode="m" horiz-adv-x="1920" d="M57 0l196 1120h324l-30 -164q76 95 161.5 143t177.5 48q105 0 179.5 -59.5t90.5 -153.5q74 103 169 158t198 55q135 0 213 -82.5t78 -226.5q0 -30 -4.5 -68.5t-12.5 -87.5l-119 -682h-325l101 584l3 15q23 124 23 159q0 55 -28 87t-77 32q-93 0 -157 -84.5t-92 -241.5 l-97 -551h-325l103 584q14 75 19.5 113.5t5.5 60.5q0 56 -28 87.5t-78 31.5q-89 0 -156 -87.5t-93 -238.5l-97 -551h-323z" />
<glyph unicode="n" horiz-adv-x="1312" d="M57 0l196 1120h324l-30 -164q89 97 179 144t188 47q140 0 215.5 -81t75.5 -228q0 -32 -4 -71t-12 -85l-120 -682h-323l102 584q11 57 16.5 96.5t5.5 62.5q0 64 -32 99t-90 35q-100 0 -171.5 -86.5t-99.5 -239.5l-97 -551h-323z" />
<glyph unicode="o" horiz-adv-x="1266" d="M67 444q0 126 41 246.5t119 220.5q90 116 214.5 176t275.5 60q225 0 354 -127t129 -346q0 -127 -40.5 -246.5t-118.5 -218.5q-91 -118 -216.5 -178t-279.5 -60q-222 0 -350 127t-128 346zM404 444q0 -106 43.5 -161.5t127.5 -55.5q125 0 206 126.5t81 322.5 q0 105 -43.5 160t-127.5 55q-125 0 -206 -126t-81 -321z" />
<glyph unicode="p" horiz-adv-x="1319" d="M-18 -426l271 1546h324l-30 -164q74 98 155 144.5t177 46.5q170 0 269 -120t99 -327q0 -129 -34.5 -251t-99.5 -222q-82 -126 -185 -191t-221 -65q-103 0 -175.5 46.5t-121.5 144.5l-104 -588h-324zM466 428q0 -92 44.5 -144.5t123.5 -52.5q122 0 201 125.5t79 321.5 q0 102 -42.5 155.5t-123.5 53.5q-124 0 -203 -127.5t-79 -331.5z" />
<glyph unicode="q" horiz-adv-x="1319" d="M67 418q0 129 34.5 251t99.5 222q82 126 185 191t221 65q103 0 175.5 -46.5t122.5 -144.5l27 164h325l-271 -1546h-324l103 588q-72 -98 -153 -144.5t-177 -46.5q-170 0 -269 120t-99 327zM400 440q0 -102 42.5 -155.5t123.5 -53.5q124 0 202 127t78 332q0 93 -43.5 145 t-122.5 52q-122 0 -201 -125.5t-79 -321.5z" />
<glyph unicode="r" horiz-adv-x="909" d="M57 0l196 1120h324l-35 -192q64 106 159.5 162.5t212.5 56.5q18 0 39.5 -2t50.5 -6l-56 -324q-34 21 -74.5 32t-86.5 11q-124 0 -205.5 -88t-109.5 -254l-92 -516h-323z" />
<glyph unicode="s" horiz-adv-x="1097" d="M18 43l49 281q87 -57 186.5 -86t203.5 -29q102 0 153.5 27t51.5 79q0 36 -29 56t-119 41l-59 12q-172 40 -246 118t-74 216q0 187 127.5 288t363.5 101q104 0 204.5 -15.5t201.5 -46.5l-47 -278q-95 50 -188.5 76t-177.5 26q-95 0 -147 -27.5t-52 -78.5q0 -30 29 -48 t113 -38l59 -12q195 -46 273.5 -118.5t78.5 -201.5q0 -195 -137.5 -304.5t-385.5 -109.5q-104 0 -212 18t-220 54z" />
<glyph unicode="t" horiz-adv-x="881" d="M79 864l44 256h161l55 318h324l-55 -318h330l-46 -256h-330l-82 -474q-4 -16 -5.5 -27t-1.5 -21q0 -46 27.5 -66t92.5 -20h167l-46 -256h-271q-146 0 -222.5 68t-76.5 196q0 28 2.5 60t8.5 65l83 475h-159z" />
<glyph unicode="u" horiz-adv-x="1312" d="M111 281q0 35 3.5 74t10.5 81l118 684h323l-102 -583q-10 -57 -15.5 -97t-5.5 -63q0 -63 31.5 -98t89.5 -35q100 0 172 86t99 239l97 551h324l-196 -1120h-325l30 164q-83 -97 -174 -145t-191 -48q-138 0 -213.5 81t-75.5 229z" />
<glyph unicode="v" horiz-adv-x="1201" d="M116 1120h297l131 -782l379 782h327l-592 -1120h-341z" />
<glyph unicode="w" horiz-adv-x="1702" d="M160 1120h297l35 -770l304 770h256l37 -768l302 768h317l-461 -1120h-342l-33 770l-308 -770h-334z" />
<glyph unicode="x" horiz-adv-x="1188" d="M-76 0l484 573l-268 547h335l150 -332l261 332h351l-459 -545l280 -575h-335l-159 354l-290 -354h-350z" />
<glyph unicode="y" horiz-adv-x="1201" d="M0 -442l33 235h102q79 0 123 29.5t78 103.5l29 60l-243 1134h304l138 -776l358 776h344l-638 -1226q-107 -207 -198 -271.5t-235 -64.5h-195z" />
<glyph unicode="z" horiz-adv-x="1072" d="M-16 0l42 250l630 614h-499l44 256h879l-44 -250l-628 -614h521l-44 -256h-901z" />
<glyph unicode="{" horiz-adv-x="1312" d="M195 494l41 223h56q126 0 185 58t85 208l36 205q33 193 138 280.5t302 87.5h195l-39 -225h-63q-125 0 -171 -43.5t-72 -185.5l-29 -166q-27 -156 -80.5 -227.5t-155.5 -96.5q72 -21 105 -66t33 -122q0 -30 -3.5 -63.5t-11.5 -73.5l-29 -166q-8 -46 -10.5 -70t-2.5 -41 q0 -67 36.5 -93t140.5 -26h61l-38 -225h-197q-161 0 -242.5 61.5t-81.5 184.5q0 22 3.5 52t9.5 70l33 193q6 30 8.5 57.5t2.5 49.5q0 88 -41 124t-146 36h-58z" />
<glyph unicode="|" horiz-adv-x="673" d="M234 -483v2048h204v-2048h-204z" />
<glyph unicode="}" horiz-adv-x="1312" d="M81 -334l39 225h63q126 0 172 44.5t71 185.5l29 166q27 155 81 227t157 98q-72 19 -106 64t-34 123q0 24 4 58t11 79l30 166q7 42 9.5 67t2.5 43q0 68 -36.5 93.5t-140.5 25.5h-60l38 225h197q162 0 242.5 -61t80.5 -184q0 -28 -3.5 -58.5t-9.5 -64.5l-35 -205 q-5 -30 -8 -57t-3 -49q0 -88 42 -124t146 -36h57l-41 -223h-54q-127 0 -186 -58.5t-85 -208.5l-34 -192q-33 -193 -138.5 -281t-302.5 -88h-195z" />
<glyph unicode="~" horiz-adv-x="1544" d="M195 434v244q97 80 177 114.5t166 34.5q96 0 225 -58q14 -6 20 -9t20 -9q139 -61 224 -61q77 0 153 37.5t169 122.5v-244q-95 -80 -175.5 -114.5t-167.5 -34.5q-96 0 -225 58q-12 6 -20 9q-6 3 -19 9q-140 61 -224 61q-80 0 -157 -38.5t-166 -121.5z" />
<glyph unicode="&#xa1;" horiz-adv-x="840" d="M127 0l102 573l117 418h233l-26 -418l-101 -573h-325zM326 1137l63 356h325l-63 -356h-325z" />
<glyph unicode="&#xa2;" d="M123 414q0 291 164 492t430 235l50 291h146l-50 -287q61 -2 127 -17t134 -43l-51 -292q-68 50 -128.5 74t-118.5 24h-8l-115 -664q80 2 151.5 26.5t135.5 72.5l-50 -293q-65 -25 -135.5 -40t-146.5 -20l-50 -286h-145l49 290q-181 22 -285 138.5t-104 298.5zM464 473 q0 -74 26 -128.5t72 -80.5l105 592q-92 -46 -147.5 -150.5t-55.5 -232.5z" />
<glyph unicode="&#xa3;" d="M13 0l46 266h203l57 326h-173l40 239h175l30 170q46 270 182 394.5t384 124.5q83 0 162 -13.5t155 -40.5l-50 -286q-53 37 -116 57t-127 20q-113 0 -176 -61.5t-86 -194.5l-30 -170h336l-40 -239h-338l-57 -326h486l-46 -266h-1017z" />
<glyph unicode="&#xa4;" horiz-adv-x="1172" d="M67 215l186 207q-25 49 -38 102.5t-13 116.5t14 117t40 100l-188 205l138 154l186 -207q44 30 92.5 44.5t103.5 14.5q48 0 97 -13.5t100 -41.5l186 207l137 -154l-186 -207q26 -55 38.5 -110t12.5 -109q0 -63 -13 -115.5t-40 -99.5l186 -207l-138 -153l-187 206 q-41 -30 -89 -44.5t-104 -14.5q-52 0 -101 13.5t-96 41.5l-187 -207zM391 641q0 -93 56.5 -156t140.5 -63q82 0 139.5 63.5t57.5 155.5t-57.5 155.5t-139.5 63.5t-139.5 -63.5t-57.5 -155.5z" />
<glyph unicode="&#xa5;" d="M11 416l35 194h400l13 76l-26 76h-361l33 192h262l-193 539h331l175 -500l347 500h364l-396 -539h264l-33 -192h-367l-53 -76l-17 -76h409l-33 -194h-409l-74 -416h-343l74 416h-402z" />
<glyph unicode="&#xa6;" horiz-adv-x="673" d="M234 -350v758h204v-758h-204zM234 674v758h204v-758h-204z" />
<glyph unicode="&#xa7;" horiz-adv-x="921" d="M-61 -137l43 237q92 -43 164 -64.5t127 -21.5q69 0 112.5 31.5t43.5 79.5q0 31 -21.5 54.5t-92.5 60.5l-121 61q-108 54 -158 127.5t-50 175.5q0 123 66 218.5t193 154.5q-47 41 -69.5 87t-22.5 99q0 156 124.5 256.5t323.5 100.5q75 0 152.5 -14.5t157.5 -43.5l-39 -227 q-81 40 -145.5 59t-119.5 19q-72 0 -114.5 -30.5t-42.5 -80.5q0 -30 22 -55t73 -51l81 -41q158 -78 215.5 -153.5t57.5 -186.5q0 -123 -69.5 -218t-201.5 -153q52 -36 76 -80t24 -98q0 -162 -127 -261.5t-339 -99.5q-76 0 -157 14.5t-166 43.5zM251 682q0 -61 43.5 -104 t190.5 -107q72 27 111.5 72.5t39.5 101.5q0 61 -51 107.5t-185 101.5q-72 -21 -110.5 -65.5t-38.5 -106.5z" />
<glyph unicode="&#xa8;" horiz-adv-x="921" d="M280 1339l42 246h214l-44 -246h-212zM636 1339l44 246h212l-44 -246h-212z" />
<glyph unicode="&#xa9;" horiz-adv-x="1843" d="M255 741q0 154 48.5 285t146.5 240t216.5 164t255.5 55q136 0 254.5 -55t216.5 -164t146.5 -240t48.5 -285q0 -152 -48.5 -282.5t-146.5 -239.5t-216.5 -164t-254.5 -55q-137 0 -255.5 55t-216.5 164t-146.5 239.5t-48.5 282.5zM391 741q0 -121 39 -224.5t117 -190.5 q78 -86 172 -129t203 -43q110 0 203 42.5t171 129.5t117.5 190.5t39.5 224.5q0 122 -39.5 225.5t-117.5 190.5q-79 88 -172.5 131t-201.5 43q-109 0 -202.5 -43.5t-172.5 -130.5q-78 -87 -117 -190.5t-39 -225.5zM540 741q0 195 114.5 311.5t303.5 116.5q63 0 120.5 -10.5 t112.5 -32.5v-215q-52 37 -101.5 54.5t-101.5 17.5q-102 0 -159 -64t-57 -178q0 -115 57 -178t159 -63q58 0 109.5 18t93.5 53v-213q-59 -22 -118 -33.5t-115 -11.5q-189 0 -303.5 117t-114.5 311z" />
<glyph unicode="&#xaa;" horiz-adv-x="1039" d="M79 373l35 200h734l-35 -200h-734zM160 907q0 155 111 233.5t330 78.5h127l4 20q1 4 1.5 9t0.5 16q0 44 -35 67t-103 23q-79 0 -157.5 -17.5t-154.5 -52.5l31 180q88 28 167 42t146 14q168 0 255.5 -64t87.5 -186q0 -31 -2 -56.5t-7 -48.5l-77 -448h-223l22 125 q-59 -76 -127 -111t-159 -35q-113 0 -175.5 55.5t-62.5 155.5zM389 954q0 -44 28 -70t75 -26q76 0 134.5 56.5t73.5 144.5l4 22h-81q-133 0 -183.5 -28.5t-50.5 -98.5z" />
<glyph unicode="&#xab;" horiz-adv-x="1197" d="M112 506l34 186l508 371l-44 -252l-311 -229l232 -222l-39 -223zM553 506l33 186l509 371l-45 -252l-311 -229l232 -222l-39 -223z" />
<glyph unicode="&#xac;" horiz-adv-x="1544" d="M195 672v237h1154v-622h-211v385h-943z" />
<glyph unicode="&#xad;" horiz-adv-x="765" d="M46 444l52 291h565l-51 -291h-566z" />
<glyph unicode="&#xae;" horiz-adv-x="1843" d="M255 741q0 154 48.5 285t146.5 240t216.5 164t255.5 55q136 0 254.5 -55t216.5 -164t146.5 -240t48.5 -285q0 -152 -48.5 -282.5t-146.5 -239.5t-216.5 -164t-254.5 -55q-137 0 -255.5 55t-216.5 164t-146.5 239.5t-48.5 282.5zM391 741q0 -121 39 -224.5t117 -190.5 q78 -86 172 -129t203 -43q110 0 203 42.5t171 129.5t117.5 190.5t39.5 224.5q0 122 -39.5 225.5t-117.5 190.5q-79 88 -172.5 131t-201.5 43q-109 0 -202.5 -43.5t-172.5 -130.5q-78 -87 -117 -190.5t-39 -225.5zM647 338v836h257q158 0 236.5 -59.5t78.5 -180.5 q0 -86 -47.5 -142t-133.5 -73q37 -22 68.5 -62t58.5 -98l99 -221h-206l-96 213q-34 78 -60 110.5t-52 32.5h-11v-356h-192zM839 829h31q70 0 106 26.5t36 78.5t-35 77t-107 25h-31v-207z" />
<glyph unicode="&#xaf;" horiz-adv-x="921" d="M285 1368l34 188h567l-33 -188h-568z" />
<glyph unicode="&#xb0;" horiz-adv-x="921" d="M160 1200q0 141 87 237.5t214 96.5q59 0 114 -25.5t98 -72.5q43 -48 65 -108t22 -128q0 -67 -22 -127.5t-63 -105.5q-43 -48 -99 -73.5t-117 -25.5q-127 0 -213 95.5t-86 236.5zM306 1200q0 -72 44.5 -121t110.5 -49q65 0 110 49.5t45 120.5q0 72 -45.5 122t-109.5 50 q-65 0 -110 -50t-45 -122z" />
<glyph unicode="&#xb1;" horiz-adv-x="1544" d="M195 0v238h1154v-238h-1154zM195 694v236h470v354h214v-354h470v-236h-470v-354h-214v354h-470z" />
<glyph unicode="&#xb2;" horiz-adv-x="807" d="M83 668l28 153l329 266q72 58 107 107.5t35 91.5q0 40 -29 63t-81 23q-62 0 -128 -23t-130 -67l33 186q74 26 141 39t130 13q134 0 205.5 -54.5t71.5 -154.5q0 -79 -48.5 -153.5t-156.5 -158.5l-208 -163h339l-30 -168h-608z" />
<glyph unicode="&#xb3;" horiz-adv-x="807" d="M74 700l30 172q52 -36 105.5 -54.5t107.5 -18.5q98 0 153.5 38t55.5 105q0 54 -45 79.5t-138 25.5h-69l25 137h77q96 0 146.5 29t50.5 83q0 38 -34 57t-101 19q-48 0 -105.5 -13t-126.5 -40l28 166q65 17 131.5 26t132.5 9q139 0 214 -50t75 -143q0 -81 -51 -137 t-137 -70q68 -13 103 -59.5t35 -122.5q0 -137 -105.5 -211t-299.5 -74q-72 0 -137 12t-121 35z" />
<glyph unicode="&#xb4;" horiz-adv-x="921" d="M418 1262l312 376h264l-395 -376h-181z" />
<glyph unicode="&#xb5;" horiz-adv-x="1356" d="M-50 -428l271 1548h324l-114 -651q-3 -21 -5 -41t-2 -37q0 -73 38.5 -112t112.5 -39q92 0 146 56t75 173l115 651h324l-131 -749q-3 -21 -5 -38.5t-2 -31.5q0 -29 12 -43t38 -14q15 0 32.5 5.5t35.5 16.5l-45 -250q-51 -23 -95.5 -34t-84.5 -11q-79 0 -123.5 38 t-62.5 120q-56 -79 -124 -118.5t-147 -39.5q-67 0 -109 23.5t-61 71.5l-87 -494h-326z" />
<glyph unicode="&#xb6;" horiz-adv-x="1172" d="M137 1001q0 215 140.5 353.5t366.5 138.5h468l-296 -1690h-171l269 1543h-170l-271 -1543h-169l148 846q-151 20 -233 112t-82 240z" />
<glyph unicode="&#xb7;" horiz-adv-x="700" d="M155 518l68 387h324l-68 -387h-324z" />
<glyph unicode="&#xb8;" horiz-adv-x="921" d="M40 -375l27 156q36 -17 72.5 -26t70.5 -9q59 0 93.5 28.5t34.5 75.5q0 26 -12.5 60.5t-40.5 89.5h128q33 -52 48.5 -96t15.5 -86q0 -104 -68 -161.5t-191 -57.5q-44 0 -88 6.5t-90 19.5z" />
<glyph unicode="&#xb9;" horiz-adv-x="807" d="M123 668l28 157h185l92 521l-210 -52l27 160l219 49h198l-120 -678h186l-28 -157h-577z" />
<glyph unicode="&#xba;" horiz-adv-x="1039" d="M85 373l35 200h740l-34 -200h-741zM160 1032q0 217 134 352.5t353 135.5q165 0 261 -90.5t96 -243.5q0 -219 -132.5 -353.5t-351.5 -134.5q-164 0 -262 91.5t-98 242.5zM418 1024q0 -76 32 -116t92 -40q89 0 147.5 92t58.5 234q0 75 -32 115.5t-91 40.5q-89 0 -148 -92.5 t-59 -233.5z" />
<glyph unicode="&#xbb;" horiz-adv-x="1197" d="M105 135l44 254l310 229l-230 222l38 223l378 -371l-31 -186zM545 135l45 254l309 229l-232 222l40 223l378 -371l-31 -186z" />
<glyph unicode="&#xbc;" horiz-adv-x="1908" d="M102 668l28 157h185l92 521l-210 -52l27 160l219 49h198l-120 -678h186l-28 -157h-577zM314 -29l1111 1549h221l-1112 -1549h-220zM1037 162l29 168l424 505h223l-90 -518h123l-27 -155h-123l-29 -162h-207l29 162h-352zM1201 317h215l56 323z" />
<glyph unicode="&#xbd;" horiz-adv-x="1908" d="M102 668l28 157h185l92 521l-210 -52l27 160l219 49h198l-120 -678h186l-28 -157h-577zM1198 0l28 153l329 266q72 58 107 107.5t35 91.5q0 40 -29 63t-81 23q-62 0 -128 -23t-130 -67l33 186q74 26 141 39t130 13q134 0 205.5 -54.5t71.5 -154.5q0 -79 -48.5 -153.5 t-156.5 -158.5l-208 -163h339l-30 -168h-608zM314 -29l1111 1549h221l-1112 -1549h-220z" />
<glyph unicode="&#xbe;" horiz-adv-x="1908" d="M87 700l30 172q52 -36 105.5 -54.5t107.5 -18.5q98 0 153.5 38t55.5 105q0 54 -45 79.5t-138 25.5h-69l25 137h77q96 0 146.5 29t50.5 83q0 38 -34 57t-101 19q-48 0 -105.5 -13t-126.5 -40l28 166q65 17 131.5 26t132.5 9q139 0 214 -50t75 -143q0 -81 -51 -137 t-137 -70q68 -13 103 -59.5t35 -122.5q0 -137 -105.5 -211t-299.5 -74q-72 0 -137 12t-121 35zM314 -29l1111 1549h221l-1112 -1549h-220zM1037 162l29 168l424 505h223l-90 -518h123l-27 -155h-123l-29 -162h-207l29 162h-352zM1201 317h215l56 323z" />
<glyph unicode="&#xbf;" horiz-adv-x="1069" d="M68 293q0 119 48 213t162 196l68 60q75 65 100.5 102.5t32.5 79.5l8 45h324l-9 -51q-14 -80 -52.5 -141.5t-156.5 -163.5l-67 -60q-72 -61 -103.5 -113t-31.5 -106q0 -57 36 -87.5t104 -30.5q72 0 163.5 34t193.5 99l-55 -314q-114 -42 -209 -62t-181 -20 q-176 0 -275.5 85.5t-99.5 234.5zM512 1137l63 356h324l-62 -356h-325z" />
<glyph unicode="&#xc0;" horiz-adv-x="1426" d="M-120 0l760 1493h396l238 -1493h-330l-39 272h-536l-133 -272h-356zM500 543h360l-81 575zM608 1899h238l129 -264h-160z" />
<glyph unicode="&#xc1;" horiz-adv-x="1426" d="M-120 0l760 1493h396l238 -1493h-330l-39 272h-536l-133 -272h-356zM500 543h360l-81 575zM710 1635l221 264h252l-287 -264h-186z" />
<glyph unicode="&#xc2;" horiz-adv-x="1426" d="M-120 0l760 1493h396l238 -1493h-330l-39 272h-536l-133 -272h-356zM500 543h360l-81 575zM499 1635l220 264h313l137 -264h-153l-148 161l-208 -161h-161z" />
<glyph unicode="&#xc3;" horiz-adv-x="1426" d="M-120 0l760 1493h396l238 -1493h-330l-39 272h-536l-133 -272h-356zM500 543h360l-81 575zM524 1635q23 128 82 197t144 69q34 0 63 -12t61 -39l47 -41q15 -13 31 -20t31 -7q35 0 58.5 30.5t32.5 88.5h125q-24 -128 -83 -197t-142 -69q-35 0 -63.5 11t-62.5 40l-45 37 q-21 19 -36 25.5t-31 6.5q-32 0 -55.5 -32t-33.5 -88h-123z" />
<glyph unicode="&#xc4;" horiz-adv-x="1426" d="M-120 0l760 1493h396l238 -1493h-330l-39 272h-536l-133 -272h-356zM500 543h360l-81 575zM561 1653l42 246h212l-42 -246h-212zM916 1653l42 246h215l-45 -246h-212z" />
<glyph unicode="&#xc5;" horiz-adv-x="1426" d="M-120 0l743 1458q-24 37 -35 75.5t-11 82.5q0 117 75 201t181 84t181 -84t75 -201q0 -48 -11.5 -86.5t-37.5 -73.5l234 -1456h-330l-39 272h-536l-133 -272h-356zM500 543h360l-81 575zM716 1616q0 -54 34.5 -92.5t82.5 -38.5q49 0 83.5 38.5t34.5 92.5t-35 92.5 t-83 38.5t-82.5 -38.5t-34.5 -92.5z" />
<glyph unicode="&#xc6;" horiz-adv-x="1999" d="M-144 0l841 1493h1279l-52 -291h-588l-47 -278h552l-51 -291h-553l-59 -342h606l-50 -291h-955l62 350h-443l-196 -350h-346zM549 627h339l107 610h-109z" />
<glyph unicode="&#xc7;" horiz-adv-x="1352" d="M67 573q0 179 51 337.5t151 289.5q118 154 284 237t358 83q104 0 209.5 -27.5t214.5 -83.5l-56 -309q-87 73 -174 107t-187 34q-208 0 -348.5 -178t-140.5 -445q0 -172 86.5 -270t238.5 -98q91 0 193 36.5t229 114.5l-59 -331q-124 -49 -238.5 -74t-216.5 -25 q-271 0 -433 165t-162 437zM405 -375l27 156q36 -17 72.5 -26t70.5 -9q59 0 93.5 28.5t34.5 75.5q0 26 -12.5 60.5t-40.5 89.5h128q33 -52 48.5 -96t15.5 -86q0 -104 -68 -161.5t-191 -57.5q-44 0 -88 6.5t-90 19.5z" />
<glyph unicode="&#xc8;" horiz-adv-x="1259" d="M39 0l262 1493h934l-51 -291h-588l-49 -278h554l-53 -291h-552l-60 -342h607l-49 -291h-955zM571 1899h238l129 -264h-160z" />
<glyph unicode="&#xc9;" horiz-adv-x="1259" d="M39 0l262 1493h934l-51 -291h-588l-49 -278h554l-53 -291h-552l-60 -342h607l-49 -291h-955zM673 1635l221 264h252l-287 -264h-186z" />
<glyph unicode="&#xca;" horiz-adv-x="1259" d="M39 0l262 1493h934l-51 -291h-588l-49 -278h554l-53 -291h-552l-60 -342h607l-49 -291h-955zM462 1635l220 264h313l137 -264h-153l-148 161l-208 -161h-161z" />
<glyph unicode="&#xcb;" horiz-adv-x="1259" d="M39 0l262 1493h934l-51 -291h-588l-49 -278h554l-53 -291h-552l-60 -342h607l-49 -291h-955zM524 1653l42 246h212l-42 -246h-212zM879 1653l42 246h215l-45 -246h-212z" />
<glyph unicode="&#xcc;" horiz-adv-x="685" d="M39 0l262 1493h346l-262 -1493h-346zM250 1899h238l129 -264h-160z" />
<glyph unicode="&#xcd;" horiz-adv-x="685" d="M39 0l262 1493h346l-262 -1493h-346zM352 1635l221 264h252l-287 -264h-186z" />
<glyph unicode="&#xce;" horiz-adv-x="685" d="M39 0l262 1493h346l-262 -1493h-346zM141 1635l220 264h313l137 -264h-153l-148 161l-208 -161h-161z" />
<glyph unicode="&#xcf;" horiz-adv-x="685" d="M39 0l262 1493h346l-262 -1493h-346zM203 1653l42 246h212l-42 -246h-212zM558 1653l42 246h215l-45 -246h-212z" />
<glyph unicode="&#xd0;" horiz-adv-x="1557" d="M-4 643l46 260h185l103 590h365q261 0 391.5 -34.5t216.5 -115.5q87 -81 132 -197t45 -261q0 -201 -76 -381t-212 -303q-118 -109 -275 -155t-484 -46h-365l113 643h-185zM466 291h124q243 0 385 151.5t142 407.5q0 174 -93 263t-276 89h-122l-51 -299h221l-45 -260h-222 z" />
<glyph unicode="&#xd1;" horiz-adv-x="1542" d="M39 0l262 1493h387l307 -1034l181 1034h328l-262 -1493h-387l-308 1034l-180 -1034h-328zM568 1635q23 128 82 197t144 69q34 0 63 -12t61 -39l47 -41q15 -13 31 -20t31 -7q35 0 58.5 30.5t32.5 88.5h125q-24 -128 -83 -197t-142 -69q-35 0 -63.5 11t-62.5 40l-45 37 q-21 19 -36 25.5t-31 6.5q-32 0 -55.5 -32t-33.5 -88h-123z" />
<glyph unicode="&#xd2;" horiz-adv-x="1566" d="M67 569q0 183 49.5 345t145.5 292q115 158 275 236t368 78q269 0 432 -165.5t163 -432.5q0 -182 -50 -344t-145 -291q-117 -159 -277 -237.5t-368 -78.5q-268 0 -430.5 165t-162.5 433zM431 612q0 -172 71 -267t198 -95q104 0 184.5 48.5t137.5 143.5q54 91 83 205 t29 234q0 176 -71.5 268t-207.5 92q-180 0 -302 -179.5t-122 -449.5zM716 1899h238l129 -264h-160z" />
<glyph unicode="&#xd3;" horiz-adv-x="1566" d="M67 569q0 183 49.5 345t145.5 292q115 158 275 236t368 78q269 0 432 -165.5t163 -432.5q0 -182 -50 -344t-145 -291q-117 -159 -277 -237.5t-368 -78.5q-268 0 -430.5 165t-162.5 433zM431 612q0 -172 71 -267t198 -95q104 0 184.5 48.5t137.5 143.5q54 91 83 205 t29 234q0 176 -71.5 268t-207.5 92q-180 0 -302 -179.5t-122 -449.5zM818 1635l221 264h252l-287 -264h-186z" />
<glyph unicode="&#xd4;" horiz-adv-x="1566" d="M67 569q0 183 49.5 345t145.5 292q115 158 275 236t368 78q269 0 432 -165.5t163 -432.5q0 -182 -50 -344t-145 -291q-117 -159 -277 -237.5t-368 -78.5q-268 0 -430.5 165t-162.5 433zM431 612q0 -172 71 -267t198 -95q104 0 184.5 48.5t137.5 143.5q54 91 83 205 t29 234q0 176 -71.5 268t-207.5 92q-180 0 -302 -179.5t-122 -449.5zM607 1635l220 264h313l137 -264h-153l-148 161l-208 -161h-161z" />
<glyph unicode="&#xd5;" horiz-adv-x="1566" d="M67 569q0 183 49.5 345t145.5 292q115 158 275 236t368 78q269 0 432 -165.5t163 -432.5q0 -182 -50 -344t-145 -291q-117 -159 -277 -237.5t-368 -78.5q-268 0 -430.5 165t-162.5 433zM431 612q0 -172 71 -267t198 -95q104 0 184.5 48.5t137.5 143.5q54 91 83 205 t29 234q0 176 -71.5 268t-207.5 92q-180 0 -302 -179.5t-122 -449.5zM632 1635q23 128 82 197t144 69q34 0 63 -12t61 -39l47 -41q15 -13 31 -20t31 -7q35 0 58.5 30.5t32.5 88.5h125q-24 -128 -83 -197t-142 -69q-35 0 -63.5 11t-62.5 40l-45 37q-21 19 -36 25.5t-31 6.5 q-32 0 -55.5 -32t-33.5 -88h-123z" />
<glyph unicode="&#xd6;" horiz-adv-x="1566" d="M67 569q0 183 49.5 345t145.5 292q115 158 275 236t368 78q269 0 432 -165.5t163 -432.5q0 -182 -50 -344t-145 -291q-117 -159 -277 -237.5t-368 -78.5q-268 0 -430.5 165t-162.5 433zM431 612q0 -172 71 -267t198 -95q104 0 184.5 48.5t137.5 143.5q54 91 83 205 t29 234q0 176 -71.5 268t-207.5 92q-180 0 -302 -179.5t-122 -449.5zM669 1653l42 246h212l-42 -246h-212zM1024 1653l42 246h215l-45 -246h-212z" />
<glyph unicode="&#xd7;" horiz-adv-x="1544" d="M230 209l391 432l-391 434l152 168l390 -434l391 434l151 -168l-391 -434l391 -432l-151 -168l-391 432l-390 -432z" />
<glyph unicode="&#xd8;" horiz-adv-x="1566" d="M-86 45l228 213q-38 74 -56.5 152.5t-18.5 158.5q0 183 49.5 345t145.5 292q116 159 275 236.5t368 77.5q134 0 238.5 -39t184.5 -117l232 215l92 -123l-233 -213q41 -76 61 -157t20 -166q0 -182 -50 -344t-145 -291q-117 -158 -277 -236t-368 -78q-133 0 -239 41 t-189 123l-227 -213zM433 612q0 -22 3 -74v-6l640 596q-36 57 -90.5 85t-128.5 28q-182 0 -303 -178.5t-121 -450.5zM485 371q35 -59 90 -90t125 -31q104 0 184.5 48.5t137.5 143.5q54 92 84 206.5t30 230.5q0 25 -6 78q-1 8 -2 12z" />
<glyph unicode="&#xd9;" horiz-adv-x="1496" d="M125 414q0 36 4.5 80.5t14.5 103.5l157 895h346l-157 -894q-8 -48 -12.5 -85t-4.5 -65q0 -98 47.5 -146.5t141.5 -48.5q126 0 193 78.5t100 265.5l157 895h346l-157 -895q-58 -330 -221.5 -478.5t-467.5 -148.5q-238 0 -362.5 113.5t-124.5 329.5zM645 1899h238l129 -264 h-160z" />
<glyph unicode="&#xda;" horiz-adv-x="1496" d="M125 414q0 36 4.5 80.5t14.5 103.5l157 895h346l-157 -894q-8 -48 -12.5 -85t-4.5 -65q0 -98 47.5 -146.5t141.5 -48.5q126 0 193 78.5t100 265.5l157 895h346l-157 -895q-58 -330 -221.5 -478.5t-467.5 -148.5q-238 0 -362.5 113.5t-124.5 329.5zM747 1635l221 264h252 l-287 -264h-186z" />
<glyph unicode="&#xdb;" horiz-adv-x="1496" d="M125 414q0 36 4.5 80.5t14.5 103.5l157 895h346l-157 -894q-8 -48 -12.5 -85t-4.5 -65q0 -98 47.5 -146.5t141.5 -48.5q126 0 193 78.5t100 265.5l157 895h346l-157 -895q-58 -330 -221.5 -478.5t-467.5 -148.5q-238 0 -362.5 113.5t-124.5 329.5zM536 1635l220 264h313 l137 -264h-153l-148 161l-208 -161h-161z" />
<glyph unicode="&#xdc;" horiz-adv-x="1496" d="M125 414q0 36 4.5 80.5t14.5 103.5l157 895h346l-157 -894q-8 -48 -12.5 -85t-4.5 -65q0 -98 47.5 -146.5t141.5 -48.5q126 0 193 78.5t100 265.5l157 895h346l-157 -895q-58 -330 -221.5 -478.5t-467.5 -148.5q-238 0 -362.5 113.5t-124.5 329.5zM598 1653l42 246h212 l-42 -246h-212zM953 1653l42 246h215l-45 -246h-212z" />
<glyph unicode="&#xdd;" horiz-adv-x="1334" d="M116 1493h347l228 -553l400 553h400l-663 -870l-109 -623h-346l109 623zM677 1635l221 264h252l-287 -264h-186z" />
<glyph unicode="&#xde;" horiz-adv-x="1368" d="M39 0l262 1493h346l-39 -223h222q211 0 331 -107.5t120 -298.5q0 -117 -39.5 -221.5t-113.5 -183.5q-80 -86 -192 -125t-278 -39h-222l-51 -295h-346zM487 573h183q123 0 188 65t65 187q0 82 -45.5 125t-133.5 43h-185z" />
<glyph unicode="&#xdf;" horiz-adv-x="1325" d="M57 0l194 1114q38 224 177 333t385 109q203 0 309 -88t106 -258q0 -20 -2.5 -44t-6.5 -51l-14 -73q-136 -5 -216 -51.5t-80 -118.5q0 -55 92 -127q8 -6 13 -10l55 -43q76 -59 111 -128.5t35 -160.5q0 -193 -125 -312.5t-330 -119.5q-71 0 -138.5 12.5t-134.5 36.5l44 244 q50 -27 100 -41t97 -14q74 0 119 38t45 99q0 40 -21 72.5t-90 87.5l-55 43q-60 47 -87 97.5t-27 113.5q0 138 82.5 237t237.5 148q1 6 1.5 14t0.5 23q0 67 -37 102t-108 35q-91 0 -144 -53.5t-72 -165.5l-193 -1100h-323z" />
<glyph unicode="&#xe0;" horiz-adv-x="1243" d="M32 276q0 214 148.5 327.5t429.5 113.5h190l4 28q2 14 2.5 20t0.5 11q0 66 -56 99.5t-167 33.5q-100 0 -193.5 -23t-180.5 -69l48 273q101 28 207 42.5t219 14.5q224 0 333 -85.5t109 -260.5q0 -34 -4 -74.5t-12 -87.5l-113 -639h-322l27 166q-79 -100 -167.5 -147.5 t-191.5 -47.5q-143 0 -227 82.5t-84 222.5zM363 340q0 -61 36.5 -96t100.5 -35q98 0 165 66.5t89 187.5l7 41h-154q-121 0 -182.5 -41.5t-61.5 -122.5zM403 1638h255l188 -376h-177z" />
<glyph unicode="&#xe1;" horiz-adv-x="1243" d="M32 276q0 214 148.5 327.5t429.5 113.5h190l4 28q2 14 2.5 20t0.5 11q0 66 -56 99.5t-167 33.5q-100 0 -193.5 -23t-180.5 -69l48 273q101 28 207 42.5t219 14.5q224 0 333 -85.5t109 -260.5q0 -34 -4 -74.5t-12 -87.5l-113 -639h-322l27 166q-79 -100 -167.5 -147.5 t-191.5 -47.5q-143 0 -227 82.5t-84 222.5zM363 340q0 -61 36.5 -96t100.5 -35q98 0 165 66.5t89 187.5l7 41h-154q-121 0 -182.5 -41.5t-61.5 -122.5zM580 1262l312 376h264l-395 -376h-181z" />
<glyph unicode="&#xe2;" horiz-adv-x="1243" d="M32 276q0 214 148.5 327.5t429.5 113.5h190l4 28q2 14 2.5 20t0.5 11q0 66 -56 99.5t-167 33.5q-100 0 -193.5 -23t-180.5 -69l48 273q101 28 207 42.5t219 14.5q224 0 333 -85.5t109 -260.5q0 -34 -4 -74.5t-12 -87.5l-113 -639h-322l27 166q-79 -100 -167.5 -147.5 t-191.5 -47.5q-143 0 -227 82.5t-84 222.5zM363 340q0 -61 36.5 -96t100.5 -35q98 0 165 66.5t89 187.5l7 41h-154q-121 0 -182.5 -41.5t-61.5 -122.5zM357 1262l295 376h236l164 -376h-160l-140 225l-217 -225h-178z" />
<glyph unicode="&#xe3;" horiz-adv-x="1243" d="M32 276q0 214 148.5 327.5t429.5 113.5h190l4 28q2 14 2.5 20t0.5 11q0 66 -56 99.5t-167 33.5q-100 0 -193.5 -23t-180.5 -69l48 273q101 28 207 42.5t219 14.5q224 0 333 -85.5t109 -260.5q0 -34 -4 -74.5t-12 -87.5l-113 -639h-322l27 166q-79 -100 -167.5 -147.5 t-191.5 -47.5q-143 0 -227 82.5t-84 222.5zM363 340q0 -61 36.5 -96t100.5 -35q98 0 165 66.5t89 187.5l7 41h-154q-121 0 -182.5 -41.5t-61.5 -122.5zM407 1309q24 137 83 210.5t144 73.5q32 0 62 -13.5t64 -43.5l47 -43q17 -15 32 -23t29 -8q34 0 57.5 33.5t32.5 95.5h126 q-24 -136 -82.5 -210t-142.5 -74q-31 0 -58 11.5t-67 45.5l-45 37q-2 2 -9 7q-34 30 -61 30q-30 0 -53.5 -34.5t-32.5 -94.5h-126z" />
<glyph unicode="&#xe4;" horiz-adv-x="1243" d="M32 276q0 214 148.5 327.5t429.5 113.5h190l4 28q2 14 2.5 20t0.5 11q0 66 -56 99.5t-167 33.5q-100 0 -193.5 -23t-180.5 -69l48 273q101 28 207 42.5t219 14.5q224 0 333 -85.5t109 -260.5q0 -34 -4 -74.5t-12 -87.5l-113 -639h-322l27 166q-79 -100 -167.5 -147.5 t-191.5 -47.5q-143 0 -227 82.5t-84 222.5zM363 340q0 -61 36.5 -96t100.5 -35q98 0 165 66.5t89 187.5l7 41h-154q-121 0 -182.5 -41.5t-61.5 -122.5zM442 1339l42 246h214l-44 -246h-212zM798 1339l44 246h212l-44 -246h-212z" />
<glyph unicode="&#xe5;" horiz-adv-x="1243" d="M32 276q0 214 148.5 327.5t429.5 113.5h190l4 28q2 14 2.5 20t0.5 11q0 66 -56 99.5t-167 33.5q-100 0 -193.5 -23t-180.5 -69l48 273q101 28 207 42.5t219 14.5q224 0 333 -85.5t109 -260.5q0 -34 -4 -74.5t-12 -87.5l-113 -639h-322l27 166q-79 -100 -167.5 -147.5 t-191.5 -47.5q-143 0 -227 82.5t-84 222.5zM363 340q0 -61 36.5 -96t100.5 -35q98 0 165 66.5t89 187.5l7 41h-154q-121 0 -182.5 -41.5t-61.5 -122.5zM501 1524q0 120 74.5 202t182.5 82q107 0 181 -82t74 -202t-74 -202.5t-181 -82.5q-108 0 -182.5 82.5t-74.5 202.5z M623 1524q0 -65 38 -107.5t97 -42.5q58 0 96 42t38 108q0 65 -38 107t-96 42q-60 0 -97.5 -42t-37.5 -107z" />
<glyph unicode="&#xe6;" horiz-adv-x="1931" d="M32 274q0 216 148.5 329.5t433.5 113.5h184l6 29q2 13 2.5 19t0.5 11q0 66 -55.5 99.5t-163.5 33.5q-103 0 -196 -23t-178 -69l48 273q105 28 205.5 42.5t194.5 14.5q134 0 222 -36.5t139 -113.5q86 77 181.5 113.5t213.5 36.5q200 0 320 -122t120 -323q0 -45 -4.5 -91 t-13.5 -93l-13 -57h-752q0 -6 -1 -17.5t-1 -17.5q0 -109 59 -163t177 -54q100 0 212.5 33.5t237.5 101.5l-48 -278q-118 -48 -235.5 -71.5t-238.5 -23.5q-156 0 -262.5 51.5t-165.5 155.5q-105 -105 -216 -156t-236 -51q-153 0 -239 81t-86 222zM363 340q0 -61 36.5 -96 t100.5 -35q98 0 165 66.5t89 187.5l7 41h-154q-121 0 -182.5 -41.5t-61.5 -122.5zM1119 682h416q3 13 4.5 26.5t1.5 26.5q0 80 -43.5 127t-116.5 47q-95 0 -162 -58t-100 -169z" />
<glyph unicode="&#xe7;" horiz-adv-x="1092" d="M68 426q0 137 47.5 266t135.5 232q98 113 225 168t293 55q76 0 151.5 -15.5t150.5 -46.5l-51 -292q-65 48 -128 73t-123 25q-158 0 -258 -117.5t-100 -300.5q0 -117 62.5 -181.5t175.5 -64.5q75 0 148 25t139 74l-50 -293q-80 -31 -161 -46.5t-163 -15.5 q-237 0 -365.5 118.5t-128.5 336.5zM248 -375l27 156q36 -17 72.5 -26t70.5 -9q59 0 93.5 28.5t34.5 75.5q0 26 -12.5 60.5t-40.5 89.5h128q33 -52 48.5 -96t15.5 -86q0 -104 -68 -161.5t-191 -57.5q-44 0 -88 6.5t-90 19.5z" />
<glyph unicode="&#xe8;" horiz-adv-x="1250" d="M67 434q0 128 40.5 248.5t119.5 220.5q93 120 222 182t286 62q205 0 325 -121t120 -326q0 -40 -5 -84.5t-16 -97.5l-11 -57h-754q0 -6 -1 -17.5t-1 -17.5q0 -109 59 -163t177 -54q102 0 215 34t237 101l-50 -278q-117 -48 -233.5 -71.5t-237.5 -23.5q-236 0 -364 121 t-128 342zM438 682h417q3 13 4 26.5t1 26.5q0 80 -43 127t-117 47q-94 0 -160.5 -57.5t-101.5 -169.5zM445 1638h255l188 -376h-177z" />
<glyph unicode="&#xe9;" horiz-adv-x="1250" d="M67 434q0 128 40.5 248.5t119.5 220.5q93 120 222 182t286 62q205 0 325 -121t120 -326q0 -40 -5 -84.5t-16 -97.5l-11 -57h-754q0 -6 -1 -17.5t-1 -17.5q0 -109 59 -163t177 -54q102 0 215 34t237 101l-50 -278q-117 -48 -233.5 -71.5t-237.5 -23.5q-236 0 -364 121 t-128 342zM438 682h417q3 13 4 26.5t1 26.5q0 80 -43 127t-117 47q-94 0 -160.5 -57.5t-101.5 -169.5zM622 1262l312 376h264l-395 -376h-181z" />
<glyph unicode="&#xea;" horiz-adv-x="1250" d="M67 434q0 128 40.5 248.5t119.5 220.5q93 120 222 182t286 62q205 0 325 -121t120 -326q0 -40 -5 -84.5t-16 -97.5l-11 -57h-754q0 -6 -1 -17.5t-1 -17.5q0 -109 59 -163t177 -54q102 0 215 34t237 101l-50 -278q-117 -48 -233.5 -71.5t-237.5 -23.5q-236 0 -364 121 t-128 342zM438 682h417q3 13 4 26.5t1 26.5q0 80 -43 127t-117 47q-94 0 -160.5 -57.5t-101.5 -169.5zM399 1262l295 376h236l164 -376h-160l-140 225l-217 -225h-178z" />
<glyph unicode="&#xeb;" horiz-adv-x="1250" d="M67 434q0 128 40.5 248.5t119.5 220.5q93 120 222 182t286 62q205 0 325 -121t120 -326q0 -40 -5 -84.5t-16 -97.5l-11 -57h-754q0 -6 -1 -17.5t-1 -17.5q0 -109 59 -163t177 -54q102 0 215 34t237 101l-50 -278q-117 -48 -233.5 -71.5t-237.5 -23.5q-236 0 -364 121 t-128 342zM438 682h417q3 13 4 26.5t1 26.5q0 80 -43 127t-117 47q-94 0 -160.5 -57.5t-101.5 -169.5zM484 1339l42 246h214l-44 -246h-212zM840 1339l44 246h212l-44 -246h-212z" />
<glyph unicode="&#xec;" horiz-adv-x="631" d="M57 0l196 1120h324l-197 -1120h-323zM114 1638h255l188 -376h-177z" />
<glyph unicode="&#xed;" horiz-adv-x="631" d="M57 0l196 1120h324l-197 -1120h-323zM291 1262l312 376h264l-395 -376h-181z" />
<glyph unicode="&#xee;" horiz-adv-x="631" d="M57 0l196 1120h324l-197 -1120h-323zM68 1262l295 376h236l164 -376h-160l-140 225l-217 -225h-178z" />
<glyph unicode="&#xef;" horiz-adv-x="631" d="M57 0l196 1120h324l-197 -1120h-323zM153 1339l42 246h214l-44 -246h-212zM509 1339l44 246h212l-44 -246h-212z" />
<glyph unicode="&#xf0;" horiz-adv-x="1266" d="M67 426q0 280 163.5 454.5t427.5 174.5q44 0 83 -7t72 -20l-136 215l-347 -108l-31 129l306 94l-123 198h316l74 -116l347 106l31 -127l-306 -94l140 -225q57 -92 86.5 -198t29.5 -222q0 -130 -41 -251.5t-119 -221.5q-91 -116 -216.5 -176t-279.5 -60q-217 0 -347 125 t-130 330zM404 451q0 -109 45 -166.5t130 -57.5q126 0 207 126.5t81 324.5q0 13 -4 53q0 7 -1 12q-47 27 -92.5 40.5t-92.5 13.5q-126 0 -199.5 -94t-73.5 -252z" />
<glyph unicode="&#xf1;" horiz-adv-x="1312" d="M57 0l196 1120h324l-30 -164q89 97 179 144t188 47q140 0 215.5 -81t75.5 -228q0 -32 -4 -71t-12 -85l-120 -682h-323l102 584q11 57 16.5 96.5t5.5 62.5q0 64 -32 99t-90 35q-100 0 -171.5 -86.5t-99.5 -239.5l-97 -551h-323zM440 1309q24 137 83 210.5t144 73.5 q32 0 62 -13.5t64 -43.5l47 -43q17 -15 32 -23t29 -8q34 0 57.5 33.5t32.5 95.5h126q-24 -136 -82.5 -210t-142.5 -74q-31 0 -58 11.5t-67 45.5l-45 37q-2 2 -9 7q-34 30 -61 30q-30 0 -53.5 -34.5t-32.5 -94.5h-126z" />
<glyph unicode="&#xf2;" horiz-adv-x="1266" d="M67 444q0 126 41 246.5t119 220.5q90 116 214.5 176t275.5 60q225 0 354 -127t129 -346q0 -127 -40.5 -246.5t-118.5 -218.5q-91 -118 -216.5 -178t-279.5 -60q-222 0 -350 127t-128 346zM404 444q0 -106 43.5 -161.5t127.5 -55.5q125 0 206 126.5t81 322.5 q0 105 -43.5 160t-127.5 55q-125 0 -206 -126t-81 -321zM415 1638h255l188 -376h-177z" />
<glyph unicode="&#xf3;" horiz-adv-x="1266" d="M67 444q0 126 41 246.5t119 220.5q90 116 214.5 176t275.5 60q225 0 354 -127t129 -346q0 -127 -40.5 -246.5t-118.5 -218.5q-91 -118 -216.5 -178t-279.5 -60q-222 0 -350 127t-128 346zM404 444q0 -106 43.5 -161.5t127.5 -55.5q125 0 206 126.5t81 322.5 q0 105 -43.5 160t-127.5 55q-125 0 -206 -126t-81 -321zM592 1262l312 376h264l-395 -376h-181z" />
<glyph unicode="&#xf4;" horiz-adv-x="1266" d="M67 444q0 126 41 246.5t119 220.5q90 116 214.5 176t275.5 60q225 0 354 -127t129 -346q0 -127 -40.5 -246.5t-118.5 -218.5q-91 -118 -216.5 -178t-279.5 -60q-222 0 -350 127t-128 346zM404 444q0 -106 43.5 -161.5t127.5 -55.5q125 0 206 126.5t81 322.5 q0 105 -43.5 160t-127.5 55q-125 0 -206 -126t-81 -321zM369 1262l295 376h236l164 -376h-160l-140 225l-217 -225h-178z" />
<glyph unicode="&#xf5;" horiz-adv-x="1266" d="M67 444q0 126 41 246.5t119 220.5q90 116 214.5 176t275.5 60q225 0 354 -127t129 -346q0 -127 -40.5 -246.5t-118.5 -218.5q-91 -118 -216.5 -178t-279.5 -60q-222 0 -350 127t-128 346zM404 444q0 -106 43.5 -161.5t127.5 -55.5q125 0 206 126.5t81 322.5 q0 105 -43.5 160t-127.5 55q-125 0 -206 -126t-81 -321zM419 1309q24 137 83 210.5t144 73.5q32 0 62 -13.5t64 -43.5l47 -43q17 -15 32 -23t29 -8q34 0 57.5 33.5t32.5 95.5h126q-24 -136 -82.5 -210t-142.5 -74q-31 0 -58 11.5t-67 45.5l-45 37q-2 2 -9 7q-34 30 -61 30 q-30 0 -53.5 -34.5t-32.5 -94.5h-126z" />
<glyph unicode="&#xf6;" horiz-adv-x="1266" d="M67 444q0 126 41 246.5t119 220.5q90 116 214.5 176t275.5 60q225 0 354 -127t129 -346q0 -127 -40.5 -246.5t-118.5 -218.5q-91 -118 -216.5 -178t-279.5 -60q-222 0 -350 127t-128 346zM404 444q0 -106 43.5 -161.5t127.5 -55.5q125 0 206 126.5t81 322.5 q0 105 -43.5 160t-127.5 55q-125 0 -206 -126t-81 -321zM454 1339l42 246h214l-44 -246h-212zM810 1339l44 246h212l-44 -246h-212z" />
<glyph unicode="&#xf7;" horiz-adv-x="1544" d="M195 524v236h1154v-236h-1154zM634 86v309h277v-309h-277zM634 889v309h277v-309h-277z" />
<glyph unicode="&#xf8;" horiz-adv-x="1266" d="M-32 10l169 164q-35 59 -52.5 127.5t-17.5 144.5q0 126 40.5 245.5t119.5 219.5q90 117 214.5 176.5t279.5 59.5q93 0 170.5 -23t138.5 -69l173 168l88 -111l-165 -162q37 -59 55.5 -128t18.5 -148q0 -127 -40.5 -246.5t-118.5 -218.5q-91 -116 -217 -177t-279 -61 q-98 0 -176.5 24.5t-139.5 74.5l-174 -172zM404 438l410 404q-20 24 -51 36.5t-72 12.5q-126 0 -202 -119.5t-85 -333.5zM448 283q23 -28 54 -42t73 -14q127 0 204 124t83 341z" />
<glyph unicode="&#xf9;" horiz-adv-x="1312" d="M111 281q0 35 3.5 74t10.5 81l118 684h323l-102 -583q-10 -57 -15.5 -97t-5.5 -63q0 -63 31.5 -98t89.5 -35q100 0 172 86t99 239l97 551h324l-196 -1120h-325l30 164q-83 -97 -174 -145t-191 -48q-138 0 -213.5 81t-75.5 229zM436 1638h255l188 -376h-177z" />
<glyph unicode="&#xfa;" horiz-adv-x="1312" d="M111 281q0 35 3.5 74t10.5 81l118 684h323l-102 -583q-10 -57 -15.5 -97t-5.5 -63q0 -63 31.5 -98t89.5 -35q100 0 172 86t99 239l97 551h324l-196 -1120h-325l30 164q-83 -97 -174 -145t-191 -48q-138 0 -213.5 81t-75.5 229zM613 1262l312 376h264l-395 -376h-181z" />
<glyph unicode="&#xfb;" horiz-adv-x="1312" d="M111 281q0 35 3.5 74t10.5 81l118 684h323l-102 -583q-10 -57 -15.5 -97t-5.5 -63q0 -63 31.5 -98t89.5 -35q100 0 172 86t99 239l97 551h324l-196 -1120h-325l30 164q-83 -97 -174 -145t-191 -48q-138 0 -213.5 81t-75.5 229zM390 1262l295 376h236l164 -376h-160 l-140 225l-217 -225h-178z" />
<glyph unicode="&#xfc;" horiz-adv-x="1312" d="M111 281q0 35 3.5 74t10.5 81l118 684h323l-102 -583q-10 -57 -15.5 -97t-5.5 -63q0 -63 31.5 -98t89.5 -35q100 0 172 86t99 239l97 551h324l-196 -1120h-325l30 164q-83 -97 -174 -145t-191 -48q-138 0 -213.5 81t-75.5 229zM475 1339l42 246h214l-44 -246h-212z M831 1339l44 246h212l-44 -246h-212z" />
<glyph unicode="&#xfd;" horiz-adv-x="1201" d="M0 -442l33 235h102q79 0 123 29.5t78 103.5l29 60l-243 1134h304l138 -776l358 776h344l-638 -1226q-107 -207 -198 -271.5t-235 -64.5h-195zM558 1262l312 376h264l-395 -376h-181z" />
<glyph unicode="&#xfe;" horiz-adv-x="1319" d="M-18 -426l346 1982h324l-105 -600q74 98 155 144.5t177 46.5q170 0 269 -120t99 -327q0 -129 -34.5 -251t-99.5 -222q-82 -126 -185 -191t-221 -65q-103 0 -175.5 46.5t-121.5 144.5l-104 -588h-324zM466 428q0 -92 44.5 -144.5t123.5 -52.5q122 0 201 125.5t79 321.5 q0 102 -42.5 155.5t-123.5 53.5q-124 0 -203 -127.5t-79 -331.5z" />
<glyph unicode="&#xff;" horiz-adv-x="1201" d="M0 -442l33 235h102q79 0 123 29.5t78 103.5l29 60l-243 1134h304l138 -776l358 776h344l-638 -1226q-107 -207 -198 -271.5t-235 -64.5h-195zM420 1339l42 246h214l-44 -246h-212zM776 1339l44 246h212l-44 -246h-212z" />
<glyph unicode="&#x131;" horiz-adv-x="631" d="M57 0l196 1120h324l-197 -1120h-323z" />
<glyph unicode="&#x152;" horiz-adv-x="2151" d="M77 575q0 242 106.5 447.5t293.5 327.5q115 73 257 108t326 35h52h1015l-52 -291h-585l-51 -278h554l-52 -291h-553l-59 -342h608l-51 -291h-1044h-49q-341 0 -528.5 151t-187.5 424zM440 647q0 -183 108.5 -269.5t337.5 -86.5h97l158 911h-94q-126 0 -219.5 -23.5 t-162.5 -72.5q-102 -74 -163.5 -199t-61.5 -260z" />
<glyph unicode="&#x153;" horiz-adv-x="2016" d="M67 444q0 127 40.5 247.5t117.5 219.5q91 117 217 176.5t281 59.5q126 0 217 -40.5t149 -121.5q85 81 187.5 121.5t225.5 40.5q201 0 321 -122t120 -323q0 -40 -5.5 -86.5t-15.5 -97.5l-10 -57h-755q0 -6 -0.5 -17.5t-0.5 -17.5q0 -109 59 -163t176 -54q101 0 214.5 34 t237.5 101l-49 -278q-118 -48 -235 -71.5t-240 -23.5q-139 0 -229 39t-142 121q-81 -82 -177.5 -121t-219.5 -39q-226 0 -355 126.5t-129 346.5zM404 444q0 -106 43.5 -161.5t127.5 -55.5q125 0 206 126.5t81 322.5q0 105 -43.5 160t-127.5 55q-125 0 -206 -126t-81 -321z M1200 682h418q3 13 4.5 26.5t1.5 26.5q0 80 -43.5 127t-117.5 47q-94 0 -162 -58.5t-101 -168.5z" />
<glyph unicode="&#x178;" horiz-adv-x="1334" d="M116 1493h347l228 -553l400 553h400l-663 -870l-109 -623h-346l109 623zM528 1653l42 246h212l-42 -246h-212zM883 1653l42 246h215l-45 -246h-212z" />
<glyph unicode="&#x2c6;" horiz-adv-x="921" d="M195 1262l295 376h236l164 -376h-160l-140 225l-217 -225h-178z" />
<glyph unicode="&#x2da;" horiz-adv-x="921" d="M339 1524q0 120 74.5 202t182.5 82q107 0 181 -82t74 -202t-74 -202.5t-181 -82.5q-108 0 -182.5 82.5t-74.5 202.5zM461 1524q0 -65 38 -107.5t97 -42.5q58 0 96 42t38 108q0 65 -38 107t-96 42q-60 0 -97.5 -42t-37.5 -107z" />
<glyph unicode="&#x2dc;" horiz-adv-x="921" d="M245 1309q24 137 83 210.5t144 73.5q32 0 62 -13.5t64 -43.5l47 -43q17 -15 32 -23t29 -8q34 0 57.5 33.5t32.5 95.5h126q-24 -136 -82.5 -210t-142.5 -74q-31 0 -58 11.5t-67 45.5l-45 37q-2 2 -9 7q-34 30 -61 30q-30 0 -53.5 -34.5t-32.5 -94.5h-126z" />
<glyph unicode="&#x2000;" horiz-adv-x="950" />
<glyph unicode="&#x2001;" horiz-adv-x="1901" />
<glyph unicode="&#x2002;" horiz-adv-x="950" />
<glyph unicode="&#x2003;" horiz-adv-x="1901" />
<glyph unicode="&#x2004;" horiz-adv-x="633" />
<glyph unicode="&#x2005;" horiz-adv-x="475" />
<glyph unicode="&#x2006;" horiz-adv-x="316" />
<glyph unicode="&#x2007;" horiz-adv-x="316" />
<glyph unicode="&#x2008;" horiz-adv-x="237" />
<glyph unicode="&#x2009;" horiz-adv-x="380" />
<glyph unicode="&#x200a;" horiz-adv-x="105" />
<glyph unicode="&#x2010;" horiz-adv-x="765" d="M46 444l52 291h565l-51 -291h-566z" />
<glyph unicode="&#x2011;" horiz-adv-x="765" d="M46 444l52 291h565l-51 -291h-566z" />
<glyph unicode="&#x2012;" horiz-adv-x="765" d="M46 444l52 291h565l-51 -291h-566z" />
<glyph unicode="&#x2013;" horiz-adv-x="921" d="M44 432l46 258h724l-46 -258h-724z" />
<glyph unicode="&#x2014;" horiz-adv-x="1843" d="M44 432l46 258h1645l-46 -258h-1645z" />
<glyph unicode="&#x2018;" horiz-adv-x="700" d="M208 856l52 285l266 352h191l-153 -352l-50 -285h-306z" />
<glyph unicode="&#x2019;" horiz-adv-x="700" d="M135 856l152 352l51 285h306l-51 -285l-267 -352h-191z" />
<glyph unicode="&#x201a;" horiz-adv-x="700" d="M-63 -250l153 352l50 285h306l-50 -285l-267 -352h-192z" />
<glyph unicode="&#x201c;" horiz-adv-x="1187" d="M208 856l52 285l266 352h191l-153 -352l-50 -285h-306zM695 856l49 285l266 352h192l-152 -352l-49 -285h-306z" />
<glyph unicode="&#x201d;" horiz-adv-x="1187" d="M135 856l152 352l51 285h306l-51 -285l-267 -352h-191zM621 856l151 352l50 285h306l-50 -285l-265 -352h-192z" />
<glyph unicode="&#x201e;" horiz-adv-x="1187" d="M-63 -250l153 352l50 285h306l-50 -285l-267 -352h-192zM424 -250l151 352l50 285h306l-50 -285l-265 -352h-192z" />
<glyph unicode="&#x2022;" horiz-adv-x="1178" d="M266 762q0 74 23.5 139t69.5 115q48 51 106.5 77.5t124.5 26.5q65 0 124 -27t104 -77q47 -52 71 -116.5t24 -137.5q0 -74 -24.5 -139.5t-70.5 -116.5t-105 -78t-125 -27t-124.5 27t-104.5 78q-45 51 -69 116.5t-24 139.5z" />
<glyph unicode="&#x2026;" horiz-adv-x="1843" d="M85 0l68 387h324l-67 -387h-325zM656 0l68 387h324l-67 -387h-325zM1228 0l68 387h324l-68 -387h-324z" />
<glyph unicode="&#x202f;" horiz-adv-x="380" />
<glyph unicode="&#x2039;" horiz-adv-x="759" d="M112 506l34 186l508 371l-44 -252l-311 -229l232 -222l-39 -223z" />
<glyph unicode="&#x203a;" horiz-adv-x="759" d="M70 135l44 254l310 229l-230 222l38 223l378 -371l-31 -186z" />
<glyph unicode="&#x2044;" horiz-adv-x="307" d="M-512 -29l1111 1549h221l-1112 -1549h-220z" />
<glyph unicode="&#x205f;" horiz-adv-x="475" />
<glyph unicode="&#x2074;" horiz-adv-x="807" d="M6 830l29 168l424 505h223l-90 -518h123l-27 -155h-123l-29 -162h-207l29 162h-352zM170 985h215l56 323z" />
<glyph unicode="&#x20ac;" d="M-76 477l80 195h125q1 32 6 67t16 82h-158l77 195h140q88 231 270.5 367.5t404.5 136.5q94 0 189 -27.5t192 -83.5l-49 -309q-74 81 -151 119t-169 38q-101 0 -187 -62t-148 -179h448l-78 -195h-434q-7 -34 -11.5 -70t-6.5 -79h394l-79 -195h-305q22 -119 92 -181.5 t179 -62.5q83 0 176 43.5t187 124.5l-53 -331q-112 -49 -215 -74t-194 -25q-222 0 -360 132t-172 374h-206z" />
<glyph unicode="&#x2122;" horiz-adv-x="1843" d="M266 1350v143h466v-143h-157v-435h-155v435h-154zM833 915v578h205l107 -227l107 227h204v-578h-153v437l-123 -256h-68l-124 256v-437h-155z" />
<glyph unicode="&#xe000;" horiz-adv-x="1120" d="M0 1120h1120v-1120h-1120v1120z" />
<glyph unicode="&#xfb01;" horiz-adv-x="1450" d="M92 864l45 256h158l15 78q33 186 138.5 272t299.5 86h247l-42 -235h-177q-68 0 -99 -27.5t-43 -94.5l-15 -79h776l-197 -1120h-322l150 864h-451l-151 -864h-324l151 864h-159zM1095 1264l52 292h324l-52 -292h-324z" />
<glyph unicode="&#xfb02;" horiz-adv-x="1450" d="M92 864l45 256h158l15 78q33 186 138.5 272t299.5 86h723l-273 -1556h-322l228 1321h-328q-68 0 -99 -27.5t-43 -94.5l-15 -79h273l-44 -256h-273l-151 -864h-324l151 864h-159z" />
<glyph unicode="&#xfb03;" horiz-adv-x="2097" d="M92 864l45 256h160l13 78q33 183 140 270q107 88 300 88h246l-41 -235h-178q-69 0 -100 -27q-33 -28 -44 -96l-14 -78h369l14 78q32 183 139 270q107 88 300 88h247l-42 -235h-178q-68 0 -98 -27q-32 -28 -43 -96l-14 -78h689l-196 -1120h-325l152 864h-365l-151 -864 h-325l151 864h-369l-151 -864h-322l151 864h-160zM1703 1264l51 292h325l-51 -292h-325z" />
<glyph unicode="&#xfb04;" horiz-adv-x="2098" d="M92 864l45 256h160l13 78q33 183 140 270q107 88 300 88h246l-41 -235h-178q-69 0 -100 -27q-33 -28 -44 -96l-14 -78h369l14 78q32 183 139 270q107 88 300 88h640l-273 -1556h-325l231 1321h-246q-68 0 -100 -27q-32 -28 -44 -96l-14 -78h253l-45 -256h-253l-151 -864 h-322l151 864h-369l-151 -864h-322l151 864h-160z" />
<glyph horiz-adv-x="0" d="M-652 1280l42 246h212l-42 -246h-212zM-297 1280l42 246h215l-45 -246h-212z" />
<glyph horiz-adv-x="0" d="M-503 1262l221 264h252l-287 -264h-186z" />
<glyph horiz-adv-x="0" d="M-689 1262q23 128 82 197t144 69q34 0 63 -12t61 -39l47 -41q15 -13 31 -20t31 -7q35 0 58.5 30.5t32.5 88.5h125q-24 -128 -83 -197t-142 -69q-35 0 -63.5 11t-62.5 40l-45 37q-21 19 -36 25.5t-31 6.5q-32 0 -55.5 -32t-33.5 -88h-123z" />
<glyph horiz-adv-x="0" d="M-605 1526h238l129 -264h-160z" />
<glyph horiz-adv-x="0" d="M-714 1262l220 264h313l137 -264h-153l-148 161l-208 -161h-161z" />
</font>
</defs>
</svg>
