<?xml version="1.0" standalone="no"?>
<!DOCTYPE svg PUBLIC "-//W3C//DTD SVG 1.1//EN" "http://www.w3.org/Graphics/SVG/1.1/DTD/svg11.dtd" >
<svg xmlns="http://www.w3.org/2000/svg">
<metadata>
This is a custom SVG webfont generated by Font Squirrel.
Copyright   : Copyright c 2003 by Bitstream Inc All Rights ReservedDejaVu changes are in public domain
Foundry     : DejaVu fonts team
Foundry URL : httpdejavusourceforgenet
</metadata>
<defs>
<font id="webfontnNFNue46" horiz-adv-x="1302" >
<font-face units-per-em="2048" ascent="1556" descent="-492" />
<missing-glyph horiz-adv-x="649" />
<glyph unicode=" "  horiz-adv-x="649" />
<glyph unicode="&#x09;" horiz-adv-x="649" />
<glyph unicode="&#xa0;" horiz-adv-x="649" />
<glyph unicode="!" horiz-adv-x="821" d="M158 104q12 57 55 95q45 39 102.5 39t87.5 -39q33 -41 21 -94.5t-59 -94.5q-45 -39 -101 -39q-57 0 -87.5 39t-18.5 94zM289 420l49 252l92 821h258l-227 -821l-49 -252h-123z" />
<glyph unicode="&#x22;" horiz-adv-x="940" d="M201 938v555h159v-555h-159zM582 938v555h159v-555h-159z" />
<glyph unicode="#" horiz-adv-x="1714" d="M158 414v153h348l82 334h-316v154h355l104 415h170l-102 -415h282l103 415h172l-105 -415h308v-154h-347l-82 -334h314v-153h-352l-103 -414h-172l105 414h-283l-104 -414h-170l102 414h-309zM676 567h285l81 334h-282z" />
<glyph unicode="$" d="M68 72l55 276h106q-20 -135 41.5 -206.5t210.5 -73.5l94 485q-218 65 -294.5 147.5t-49.5 221.5q31 160 160 258q125 96 328 108l51 268h100l-53 -268q104 -10 189 -33q86 -25 170 -65l-52 -262h-108q12 113 -45 182q-55 70 -172 78l-88 -453q231 -68 315 -153 q82 -84 53 -232q-31 -164 -168 -266q-133 -98 -350 -115l-51 -270h-100l53 270q-100 4 -195 27q-91 23 -200 76zM442 987q-16 -82 27 -133q43 -52 147 -86l82 420q-102 -6 -172 -60q-66 -51 -84 -141zM582 68q113 8 184 65q70 55 88 150q18 84 -29 145q-45 61 -155 92z" />
<glyph unicode="%" horiz-adv-x="1945" d="M184 1114q37 182 152 295q115 111 272.5 111t229.5 -109q74 -111 36 -297q-37 -190 -151.5 -298.5t-271.5 -108.5q-160 0 -232 110.5t-35 296.5zM279 -29l1237 1549h151l-1237 -1549h-151zM342 1112q-29 -147 6 -231t121 -84q84 0 149 84q70 90 97 231q29 147 -6 231 t-117 84q-88 0 -154 -84q-69 -90 -96 -231zM1071 377q37 184 152 297q113 111 272.5 110.5t231 -111t34.5 -296.5q-37 -184 -151 -297q-111 -109 -272.5 -109t-231.5 109q-72 111 -35 297zM1230.5 376.5q-26.5 -147.5 6.5 -229.5q35 -84 119 -84q86 0 151 84q68 86 95 230 q29 152 -5 233q-33 84 -118 84q-88 0 -154 -84q-68 -86 -94.5 -233.5z" />
<glyph unicode="&#x26;" horiz-adv-x="1822" d="M80 350q0 52 12 111q25 127 125 248q98 117 272 217q-39 59 -51 123q-6 29 -6 59.5t6 65.5q31 162 164 253q131 92 332 93q76 0 151 -17q100 -20 195 -51l-49 -258h-115q0 4 1 12t1 13q0 88 -47 139q-51 55 -164 55q-102 0 -178 -57q-74 -55 -92 -146q-4 -29 -4 -43 q0 -43 14 -80q20 -55 109 -172l409 -544q84 78 144 172q55 88 88 198l20 107h293l-20 -107h-172q-43 -127 -115 -243q-71 -114 -172 -209l135 -183h236l-21 -106h-401l-109 145q-123 -88 -250 -131q-129 -43 -266 -43q-258 0 -383 131q-92 98 -92 248zM291 401 q0 -111 69 -196q94 -113 265 -113q109 0 200 35q96 37 181 104l-463 613q-96 -74 -162 -168q-59 -86 -82 -193q-8 -39 -8 -82z" />
<glyph unicode="'" horiz-adv-x="561" d="M201 938v555h159v-555h-159z" />
<glyph unicode="(" horiz-adv-x="798" d="M162 618q66 348 239 592q170 240 435 346l-21 -98q-176 -109 -278 -299q-104 -195 -172 -541q-70 -352 -39 -540q31 -193 163 -299l-18 -98q-223 109 -301 346q-76 233 -8 591z" />
<glyph unicode=")" horiz-adv-x="798" d="M-37 -319l19 98q176 109 278 299q109 199 174 540q68 348 37 541t-164 299l21 98q223 -106 301 -346q76 -233 8 -592q-66 -348 -240 -591q-170 -240 -434 -346z" />
<glyph unicode="*" horiz-adv-x="1024" d="M33 870l391 183l-391 184l76 119l348 -217l-13 381h136l-13 -381l348 217l76 -119l-391 -182l391 -185l-76 -118l-348 217l13 -381h-136l13 381l-348 -217z" />
<glyph unicode="+" horiz-adv-x="1714" d="M217 561v162h561v561h160v-561h561v-162h-561v-561h-160v561h-561z" />
<glyph unicode="," horiz-adv-x="649" d="M41 -199q106 68 169.5 162t88.5 227l6 37h197q-39 -166 -137 -293q-94 -123 -261 -213z" />
<glyph unicode="-" horiz-adv-x="690" d="M76 471l28 156h512l-28 -156h-512z" />
<glyph unicode="." horiz-adv-x="649" d="M193 104q12 55 57 94.5t102 39.5q55 0 86 -39q33 -41 21 -95q-12 -55 -57.5 -94t-102.5 -39q-55 0 -86 39q-32 41 -20 94z" />
<glyph unicode="/" horiz-adv-x="688" d="M-164 -190l858 1683h160l-858 -1683h-160z" />
<glyph unicode="0" d="M135 745q72 367 248 572q174 203 420 203t340 -203q96 -203 24 -572q-72 -367 -247 -571q-174 -203 -420 -203t-340 203q-97 202 -25 571zM324 238q43 -168 196 -168q156 0 262 168q111 174 174 507q66 342 23 508q-43 168 -197 168q-156 0 -262 -168 q-111 -174 -174 -508q-65 -339 -22 -507z" />
<glyph unicode="1" d="M143 0l21 106h260l242 1242l-340 -195l26 131l410 236h137l-274 -1414h260l-21 -106h-721z" />
<glyph unicode="2" d="M-8 0l20 109l541 452q184 156 268 275q86 123 115 264q29 152 -33 235q-61 86 -200.5 86t-233.5 -71q-88 -68 -133 -213h-113l51 266q109 55 234 88q106 29 217 29q233 0 346 -113t76 -307q-43 -221 -408 -525l-43 -34l-450 -377h622l37 184h117l-68 -348h-962z" />
<glyph unicode="3" d="M25 72l57 290h111q-18 -145 55.5 -218.5t230.5 -73.5q156 0 258 88q104 88 135 243q35 178 -38 267q-74 90 -250 90h-95l21 102h49q178 0 277 72q104 76 131 219q25 129 -35 201q-57 70 -193 69q-139 0 -223 -63q-86 -65 -123 -191h-112l51 263q145 49 237 67 q117 23 207 23q221 0 324 -95q104 -96 71 -262q-25 -133 -129 -225q-106 -92 -264 -123q178 -25 258 -133.5t47 -278.5q-41 -211 -202 -321q-164 -111 -426 -111q-115 0 -224 25q-106 25 -206 76z" />
<glyph unicode="4" d="M-6 399l20 109l850 1012h199l-197 -1014h285l-21 -107h-284l-58 -293h240l-20 -106h-680l20 106h240l57 293h-651zM156 506h510l153 794z" />
<glyph unicode="5" d="M45 72l57 290h113q-18 -145 47 -217q70 -76 215 -75q160 0 264 104q106 106 144 299q37 190 -29 297q-66 104 -221 104q-88 0 -166 -32.5t-141 -98.5h-86l145 750h791l-31 -164h-684l-84 -428q53 33 133 53q74 18 158 19q244 0 356 -133q115 -137 70 -367 q-46 -237 -215 -369q-170 -133 -422 -133q-102 0 -207 25t-207 76z" />
<glyph unicode="6" d="M127 698q76 389 281 607q203 215 495 215q86 0 164 -15q86 -16 168 -45l-47 -246h-115q8 100 -47 154q-57 53 -164 53q-195 0 -317 -147q-125 -150 -187 -453q86 76 177 113q92 37 200 37q225 0 327.5 -133t57.5 -367q-43 -229 -209 -364.5t-399 -135.5q-254 0 -352 189 q-101 190 -33 538zM326 483q-39 -199 16 -307q55 -106 196.5 -106t237.5 104q96 106 133 297q37 193 -18 297t-197 104q-143 0 -237 -100.5t-131 -288.5z" />
<glyph unicode="7" d="M250 1145l67 348h983l-20 -102l-854 -1391h-150l816 1329h-691l-34 -184h-117z" />
<glyph unicode="8" d="M72 408q31 160 145 262q117 104 291 125q-143 27 -209 114q-63 86 -39 224q33 178 180 284q141 102 363 103q217 0 319.5 -102.5t69.5 -284.5q-25 -135 -125 -223.5t-252 -114.5q164 -20 239.5 -125t45.5 -262q-41 -211 -196.5 -324t-403.5 -113t-358.5 113t-69.5 324z M283 408q-31 -160 30 -250q61 -88 207 -88t240 88q98 92 129 249.5t-33 249.5q-61 88 -205 88q-145 0 -241 -88q-96 -85 -127 -249zM465 1133q-25 -141 27 -213q55 -76 178 -76q127 0 209 76q84 78 108 213q29 137 -26.5 212.5t-178.5 75.5q-125 0 -206.5 -75.5 t-110.5 -212.5z" />
<glyph unicode="9" d="M68 31l49 248h110q-6 -98 49.5 -153.5t163.5 -55.5q195 0 318 147.5t184 452.5q-84 -78 -174 -113q-96 -37 -205 -37q-223 0 -323 133q-102 137 -58 367q43 227 211 364q166 135 400 136q252 0 350 -188.5t31 -538.5q-76 -391 -279 -606.5t-496 -215.5q-84 0 -161 15 q-90 16 -170 45zM393 1020q-37 -193 18.5 -297.5t196.5 -104.5q143 0 237.5 100.5t131.5 289.5q39 199 -16 307q-55 106 -196.5 106t-238.5 -104q-96 -107 -133 -297z" />
<glyph unicode=":" horiz-adv-x="688" d="M150 104q12 55 57 94.5t102 39.5q55 0 86 -39q33 -41 21 -95q-12 -57 -56 -94q-45 -39 -104 -39q-55 0 -86 39q-32 41 -20 94zM276 756q12 55 57.5 94t100.5 39q57 0 88 -37q33 -39 20.5 -96.5t-57.5 -93.5q-49 -39 -100 -39q-57 0 -88 39q-33 41 -21 94z" />
<glyph unicode=";" horiz-adv-x="688" d="M-25 -199q106 68 170 162t88 227l9 37h196q-39 -166 -137 -293q-94 -123 -260 -213zM305 756q12 55 57.5 94t102.5 39q55 0 86 -39t20 -94q-12 -55 -57 -94t-102 -39q-55 0 -86 39q-33 41 -21 94z" />
<glyph unicode="&#x3c;" horiz-adv-x="1714" d="M217 559v166l1282 465v-170l-1038 -379l1038 -377v-170z" />
<glyph unicode="=" horiz-adv-x="1714" d="M217 358v160h1282v-160h-1282zM217 766v160h1282v-160h-1282z" />
<glyph unicode="&#x3e;" horiz-adv-x="1714" d="M217 94v170l1038 377l-1038 379v170l1282 -465v-166z" />
<glyph unicode="?" horiz-adv-x="1097" d="M221 1167l49 260q129 51 217 70q106 23 185 23q223 0 329.5 -106.5t71.5 -289.5q-37 -188 -170 -305q-131 -115 -366 -168l-50 -254h-122l63 328q186 43 295 143q109 98 139 258q27 135 -31 215t-184 80q-111 0 -198 -65q-84 -63 -132 -189h-96zM236 104q12 55 57 94.5 t102 39.5q55 0 86 -39q33 -41 21 -95q-8 -51 -58 -94q-45 -39 -102 -39q-55 0 -86 39q-32 41 -20 94z" />
<glyph unicode="@" horiz-adv-x="2048" d="M133 190q-35 166 2 352.5t135 348.5q100 166 250 289q154 127 338 194q186 68 379 68q217 0 375 -82q162 -84 250 -240q57 -98 73 -213q16 -119 -8 -239q-52 -267 -246 -424q-190 -154 -475 -158l31 162q-72 -80 -156 -121q-86 -41 -176 -41q-172 0 -258 125 q-86 127 -47 326q40 200 172 325q131 125 309 125q92 0 158 -41q70 -43 111 -121l26 142h156l-150 -772q180 37 295 161q119 129 156 314q23 111 6 211q-16 104 -65 182q-80 131 -219.5 202.5t-317.5 71.5q-90 0 -182 -18q-82 -16 -185 -59q-219 -92 -368 -281 q-147 -186 -197 -436q-31 -168 -10 -307q20 -133 98 -244q88 -123 223 -182q137 -61 310 -62q121 0 248 39q125 39 231 113l39 -70q-129 -94 -273 -139q-152 -47 -309 -47q-182 0 -336 67q-156 68 -254 189q-104 126 -139 290zM778 537q-31 -162 21 -246q53 -88 174 -88 q115 0 198 78q86 80 111 204l21 105q25 126 -31 203q-55 78 -172 77.5t-205 -88.5q-86 -85 -117 -245z" />
<glyph unicode="A" horiz-adv-x="1478" d="M-158 0l21 106h131l803 1387h168l264 -1387h145l-20 -106h-543l20 106h166l-61 328h-629l-188 -328h164l-21 -106h-420zM371 541h547l-136 710z" />
<glyph unicode="B" horiz-adv-x="1503" d="M-33 0l21 106h190l248 1280h-188l20 107h737q225 0 322 -92q71 -69 71 -185q0 -43 -10 -92q-25 -133 -121 -213q-92 -78 -251 -96q188 -25 266 -121q56 -69 56 -173q0 -42 -9 -89q-43 -223 -203 -327.5t-459 -104.5h-690zM381 106h299q178 0 278 78q96 76 132 248 q11 55 11 101q0 93 -46 145q-68 78 -248 78h-299zM528 862h254q164 0 252 64q90 66 115 198q8 41 8 76q0 80 -45 123q-68 63 -227 63h-254z" />
<glyph unicode="C" horiz-adv-x="1566" d="M106 422q-12 59 -11 128q0 89 20 195q68 348 311.5 561.5t570.5 213.5q121 0 254 -31q111 -27 277 -98l-66 -344h-112q0 186 -96.5 276t-295.5 90q-238 0 -395 -170q-154 -166 -219 -498q-26 -134 -26 -242q0 -154 53 -255q90 -170 327 -170q168 0 291 80t203 237h184 q-106 -209 -284 -317q-174 -106 -414 -107q-145 0 -260 49q-121 51 -195 148q-88 111 -117 254z" />
<glyph unicode="D" horiz-adv-x="1640" d="M-33 0l21 106h190l248 1280h-188l20 107h594q385 0 563 -197q128 -141 128 -364q0 -86 -19 -184q-68 -352 -322 -549q-258 -199 -641 -199h-594zM381 106h186q292 0 480 166q186 166 247 476q20 101 20 187q0 177 -83 288q-123 164 -416 163h-184z" />
<glyph unicode="E" horiz-adv-x="1492" d="M-33 0l21 106h190l248 1280h-188l20 107h1202l-63 -332h-123l39 209h-686l-97 -500h490l35 187h123l-97 -496h-123l37 187h-489l-121 -625h702l39 209h123l-63 -332h-1219z" />
<glyph unicode="F" horiz-adv-x="1419" d="M-33 0l21 106h190l248 1280h-188l20 107h1223l-66 -332h-123l41 209h-706l-97 -500h510l35 187h123l-94 -496h-123l35 187h-510l-125 -642h240l-21 -106h-633z" />
<glyph unicode="G" horiz-adv-x="1634" d="M115 745q68 350 313 564q244 211 592 211q137 0 258 -29q143 -35 272 -90l-67 -354h-113q0 187 -92 276q-94 90 -293 90q-256 0 -416 -166q-162 -168 -225 -502q-25 -128 -25 -233q0 -161 60 -264q98 -170 350 -170q113 0 223 28q102 27 211 84l76 385h-281l21 107h483 l-108 -557q-137 -72 -310 -115q-156 -39 -335 -39q-338 0 -500 211q-114 149 -114 368q0 91 20 195z" />
<glyph unicode="H" horiz-adv-x="1785" d="M-33 0l21 106h190l248 1280h-188l20 107h584l-23 -107h-188l-101 -516h775l100 516h-191l21 107h584l-23 -107h-188l-250 -1280h190l-20 -106h-584l21 106h190l125 642h-774l-125 -642h190l-20 -106h-584z" />
<glyph unicode="I" horiz-adv-x="808" d="M-33 0l21 106h190l248 1280h-188l20 107h584l-23 -107h-188l-250 -1280h190l-20 -106h-584z" />
<glyph unicode="J" horiz-adv-x="819" d="M-344 -358l45 235h113q-5 -31 -5 -57q0 -57 23 -90q34 -49 123 -49q117 0 180 75q61 74 105 293l260 1337h-232l21 107h624l-20 -107h-191l-262 -1345q-49 -248 -168 -356q-121 -111 -340 -111q-78 0 -141 16q-74 19 -135 52z" />
<glyph unicode="K" horiz-adv-x="1529" d="M-33 0l21 106h190l248 1280h-188l20 107h584l-23 -107h-188l-111 -565l754 565h-164l23 107h495l-20 -107h-168l-752 -563l578 -717h170l-21 -106h-346l-569 709l-119 -603h190l-20 -106h-584z" />
<glyph unicode="L" horiz-adv-x="1359" d="M-33 0l21 106h190l248 1280h-188l20 107h584l-23 -107h-188l-246 -1263h682l47 250h123l-72 -373h-1198z" />
<glyph unicode="M" horiz-adv-x="2095" d="M-33 0l21 106h190l248 1280h-201l23 107h434l317 -1063l732 1063h407l-20 -107h-199l-250 -1280h191l-21 -106h-584l21 106h190l226 1154l-715 -1041h-141l-310 1041l-225 -1154h191l-21 -106h-504z" />
<glyph unicode="N" horiz-adv-x="1792" d="M-43 0l20 106h201l250 1280h-201l21 107h383l665 -1178l209 1071h-200l20 107h524l-20 -107h-201l-274 -1415h-121l-713 1258l-219 -1123h203l-21 -106h-526z" />
<glyph unicode="O" horiz-adv-x="1677" d="M106 422q-12 59 -11 128q0 89 20 195q35 182 116 324q86 147 218 254q117 98 252 147.5t290 49.5q324 0 484 -213q111 -147 110 -362q0 -93 -20 -200q-35 -180 -117 -323q-80 -139 -217 -254q-117 -98 -252 -147.5t-291 -49.5q-152 0 -268 49q-121 51 -197 148 q-88 111 -117 254zM344 745q-26 -133 -26 -241q0 -157 55 -258q92 -168 337.5 -168t401.5 168q160 172 223 499q26 135 26 243q0 156 -54 257q-92 168 -336 168q-250 0 -406 -168q-158 -170 -221 -500z" />
<glyph unicode="P" horiz-adv-x="1376" d="M-33 0l21 106h190l248 1280h-188l20 107h707q225 0 331 -113q81 -86 81 -215q0 -44 -9 -92q-37 -193 -190 -305q-156 -115 -377 -115h-314l-106 -547h231l-20 -106h-625zM510 760h262q152 0 244 80q94 82 123 233q10 49 9 91q0 88 -42 143q-61 80 -211 79h-264z" />
<glyph unicode="Q" horiz-adv-x="1677" d="M125 549q0 106 18 196q33 178 119 323.5t215 254.5q117 98 252 147.5t291 49.5q326 0 483 -213q111 -152 111 -365q0 -96 -21 -197q-59 -299 -245 -497q-190 -203 -465 -260q39 -66 112 -99q76 -33 181 -32h249l-36 -185h-117q-266 0 -375 82q-109 84 -154 217 q-344 0 -505 211q-113 146 -113 367zM346 502q0 -154 55 -256q92 -168 338 -168q248 0 403.5 168t221.5 499q27 147 27 244q0 156 -56 254q-92 170 -336 170q-248 0 -403 -168q-160 -172 -223 -500q-27 -147 -27 -243z" />
<glyph unicode="R" horiz-adv-x="1540" d="M-33 0l21 106h190l248 1280h-188l20 107h758q217 0 315 -104q71 -76 72 -198q0 -46 -10 -97q-31 -154 -133 -242q-104 -90 -279 -111q61 -18 106 -65q41 -43 66 -127l131 -443h182l-20 -106h-352l-142 475q-41 139 -88 178q-51 41 -145 41h-223l-115 -588h211l-21 -106 h-604zM516 801h295q150 0 238 71q84 70 114 222q10 51 11 92q0 82 -39 129q-59 72 -209 71h-295z" />
<glyph unicode="S" horiz-adv-x="1402" d="M59 72l66 340h115q-7 -45 -8 -84q0 -107 57 -168q76 -82 268 -82q178 0 286.5 71.5t133.5 204.5q7 34 7 64q0 63 -32 102q-45 57 -217 113l-184 59q-203 66 -270 162q-46 67 -46 164q0 48 11 102q37 190 192 295q157 104 400 105q98 0 223 -23q109 -18 250 -65l-62 -318 h-112q2 22 1 43q0 126 -63 186q-72 70 -256 70q-156 0 -252 -65q-94 -63 -118 -187q-6 -32 -7 -59q0 -65 35 -109q47 -59 240 -121l174 -55q195 -63 260 -155q46 -65 46 -161q0 -43 -9 -93q-43 -215 -203 -326t-436 -111q-123 0 -246 25t-244 76z" />
<glyph unicode="T" horiz-adv-x="1363" d="M96 1141l70 352h1325l-68 -352h-123l46 233h-441l-246 -1268h191l-21 -106h-583l20 106h191l248 1268h-441l-45 -233h-123z" />
<glyph unicode="U" horiz-adv-x="1724" d="M223 1386l21 107h583l-20 -107h-191l-149 -772q-25 -128 -25 -220q0 -116 39 -179q70 -113 301.5 -113t343.5 113q117 117 172 399l150 772h-191l21 107h504l-21 -107h-190l-154 -792q-63 -338 -225 -481q-160 -141 -471 -142q-315 0 -422 142q-64 85 -64 245 q0 102 25 236l154 792h-191z" />
<glyph unicode="V" horiz-adv-x="1478" d="M104 1386l21 107h545l-23 -107h-166l219 -1146l664 1146h-170l23 107h438l-23 -107h-143l-803 -1386h-172l-260 1386h-150z" />
<glyph unicode="W" horiz-adv-x="2103" d="M133 1386l23 107h544l-20 -107h-186l96 -1103l575 1210h162l109 -1223l528 1116h-172l23 107h430l-23 -107h-145l-662 -1386h-164l-104 1214l-580 -1214h-164l-120 1386h-150z" />
<glyph unicode="X" horiz-adv-x="1456" d="M-133 0l20 106h172l551 627l-309 653h-160l23 107h592l-23 -107h-176l227 -481l422 481h-190l20 107h490l-23 -107h-168l-506 -575l334 -705h160l-20 -106h-592l20 106h178l-252 533l-469 -533h193l-21 -106h-493z" />
<glyph unicode="Y" horiz-adv-x="1351" d="M100 1386l23 107h555l-23 -107h-174l256 -604l492 604h-168l20 107h435l-23 -107h-139l-590 -724l-109 -556h191l-21 -106h-583l20 106h191l104 537l-315 743h-142z" />
<glyph unicode="Z" horiz-adv-x="1421" d="M-53 0l14 72l1182 1298h-772l-43 -223h-123l67 346h1180l-14 -72l-1182 -1298h844l41 209h121l-64 -332h-1251z" />
<glyph unicode="[" horiz-adv-x="798" d="M0 -270l352 1826h465l-18 -106h-275l-313 -1614h272l-18 -106h-465z" />
<glyph unicode="\" horiz-adv-x="688" d="M164 1493h160l202 -1683h-159z" />
<glyph unicode="]" horiz-adv-x="798" d="M-18 -270l18 106h274l316 1614h-275l21 106h465l-355 -1826h-464z" />
<glyph unicode="^" horiz-adv-x="1714" d="M217 936l543 557h196l543 -557h-153l-488 381l-487 -381h-154z" />
<glyph unicode="_" horiz-adv-x="1024" d="M0 -403h1024v-80h-1024v80z" />
<glyph unicode="`" horiz-adv-x="1024" d="M367 1636h196l187 -376h-117z" />
<glyph unicode="a" horiz-adv-x="1220" d="M70 295q0 57 10 106q68 356 313 537q209 154 463 154q166 0 227 -29l-186 -957h160l-21 -106h-323l30 166q-133 -195 -348 -195q-176 0 -264 119q-61 82 -61 205zM262 299q0 -213 207 -213q127 0 213 100.5t123 292.5l92 482q0 29 -80 28q-190 0 -340 -149 q-150 -152 -201 -424q-14 -76 -14 -117z" />
<glyph unicode="b" horiz-adv-x="1310" d="M88 0l281 1450h-176l20 106h360l-127 -659q74 101 166 147q94 47 215 48q197 0 291 -154q61 -101 62 -246q0 -84 -17 -160q-49 -249 -202 -405q-154 -156 -351 -156q-123 0 -198.5 47.5t-108.5 147.5l-31 -166h-184zM348 338q0 -86 33 -152q55 -100 194 -100 q141 0 235.5 112.5t137.5 333.5q20 96 21 181q0 88 -29 151q-49 113 -192 113q-141 0 -233.5 -100.5t-129.5 -292.5l-20 -105q-17 -86 -17 -141z" />
<glyph unicode="c" horiz-adv-x="1146" d="M86 385q0 66 16 147q49 256 219.5 408t403.5 152q109 0 197 -23q100 -27 186 -72l-51 -272h-109v27q0 121 -51 178q-57 63 -188 63q-150 0 -248.5 -116.5t-143.5 -344.5q-20 -100 -20 -188q0 -90 29 -158q52 -117 202 -116q119 0 201 61.5t135 187.5h148 q-72 -170 -201 -260q-127 -88 -303 -88q-233 0 -344 154q-78 108 -78 260z" />
<glyph unicode="d" horiz-adv-x="1310" d="M41 373q0 84 16 159q49 252 203 406t350 154q123 0 199 -47.5t109 -147.5l106 553h-174l20 106h359l-301 -1556h-185l31 166q-74 -101 -166 -148q-94 -47 -215 -47q-195 0 -291 156q-61 101 -61 246zM252 352q0 -90 29 -153q49 -113 190 -113t234 100q94 104 131 293 l20 105q14 72 14 141q0 90 -30 152q-51 100 -195 100q-139 0 -235 -113q-94 -109 -138 -332q-20 -96 -20 -180z" />
<glyph unicode="e" horiz-adv-x="1210" d="M86 385q0 63 16 145q49 256 217 408q168 154 410 154q391 0 391 -277q0 -205 -205 -303q-209 -100 -616 -104q-2 -25 -2 -72q0 -96 33 -156q59 -111 217 -110q115 0 174 34q100 63 125 146h135q-41 -129 -188 -217q-104 -61 -312 -62q-205 0 -315 154q-80 113 -80 260z M322 514q322 16 491 119q113 66 113 188q0 172 -228 172q-135 0 -227 -102q-90 -101 -149 -377z" />
<glyph unicode="f" horiz-adv-x="757" d="M-127 -426l12 98q102 0 156 56q55 66 82 206l199 1022h-177l21 107h176l27 133q35 180 143 268q111 92 291 92q66 0 131 -12t127 -37l-41 -202h-96q4 29 4 41q0 46 -25 73q-33 39 -112 39q-102 0 -156 -57q-55 -57 -82 -201l-27 -137h297l-20 -107h-297l-199 -1022 q-33 -178 -145 -270q-109 -90 -289 -90z" />
<glyph unicode="g" horiz-adv-x="1310" d="M72 -379l45 223h96v-11q0 -95 53 -140q58 -49 185 -49q162 0 254 92q94 92 131 287l28 143q-74 -101 -166 -148q-94 -47 -211 -47q-176 0 -264 119q-55 74 -61 178q-1 21 -1 39q0 51 9 94q68 354 315 537q209 154 453 154q227 0 285 -29l-203 -1040q-47 -238 -195 -353 q-158 -125 -383 -125q-104 0 -196 19q-88 18 -174 57zM356 272q2 -57 29 -102q49 -84 176 -84q141 0 234 100q94 104 131 293l18 105l76 372q0 33 -111 33q-195 0 -342 -149q-145 -147 -200 -424q-11 -57 -11 -115q-1 -15 0 -29z" />
<glyph unicode="h" horiz-adv-x="1318" d="M98 0l283 1450h-176l20 106h361l-133 -682q70 104 163 162q92 55 201 56q176 0 240 -101q39 -59 39 -164q0 -66 -19 -151l-110 -570h163l-20 -106h-348l121 618q18 90 18 173q0 63 -14 94q-35 72 -156 71q-125 0 -213 -94t-121 -270l-114 -592h-185z" />
<glyph unicode="i" horiz-adv-x="653" d="M104 0l185 956h-176l20 107h361l-187 -957h174l-18 -106h-359zM322 1370q0 14 2 23q9 46 49 80q41 35 86 34.5t73 -34.5q20 -23 21 -58q0 -14 -2 -22q-9 -46 -49 -80q-39 -33 -86 -33t-74 33q-20 22 -20 57z" />
<glyph unicode="j" horiz-adv-x="634" d="M-375 -389l43 219h94q-2 -16 -2 -45q0 -63 25 -96q33 -45 117 -45q90 0 145 61.5t80 190.5l207 1060h-174l20 107h359l-228 -1167q-31 -166 -147.5 -258.5t-286.5 -92.5q-68 0 -133.5 16.5t-118.5 49.5zM371 1370q0 6 4 23q10 49 47 80q41 35 88 34q45 0 74 -34 q18 -20 18 -58q0 -14 -2 -22q-10 -49 -47 -80q-39 -33 -86 -33q-49 0 -76 33q-20 22 -20 57z" />
<glyph unicode="k" horiz-adv-x="1239" d="M86 0l281 1450h-177l21 106h360l-196 -1013l528 413h-153l20 107h299l-20 -107l-373 -292l295 -558h153l-20 -106h-295l-291 543l-170 -135l-80 -408h-182z" />
<glyph unicode="l" horiz-adv-x="653" d="M86 0l281 1450h-177l21 106h360l-282 -1450h174l-21 -106h-356z" />
<glyph unicode="m" horiz-adv-x="1941" d="M143 0l187 958h-176l20 105h361l-37 -189q68 104 161 162q89 55 191 56q125 0 194.5 -61.5t75.5 -174.5q80 121 170 176q96 59 205 60q168 0 229 -105q37 -61 37 -162q0 -61 -16 -149l-111 -570h166l-20 -106h-350l126 655q16 82 17 133q0 61 -19 99q-35 70 -145 69 q-121 0 -205 -94q-86 -94 -119 -270l-114 -592h-185l129 662q14 70 15 129q0 66 -19 98q-35 68 -145 67q-121 0 -205 -94q-86 -94 -119 -270l-114 -592h-185z" />
<glyph unicode="n" horiz-adv-x="1318" d="M143 0l187 956h-176l20 107h361l-37 -189q70 104 164 162q92 55 200 56q176 0 240 -101q39 -66 39 -164q0 -66 -19 -151l-110 -570h164l-21 -106h-348l121 618q18 90 18 173q0 66 -14 96q-35 72 -156 71q-125 0 -213 -94q-86 -92 -121 -272l-114 -592h-185z" />
<glyph unicode="o" horiz-adv-x="1232" d="M86 385q0 66 16 147q49 254 220 406q172 154 403 154q233 0 344 -154q76 -106 76 -258q0 -76 -15 -148q-49 -256 -219 -407q-172 -154 -403 -154q-233 0 -344 154q-78 108 -78 260zM297 348q0 -94 29 -162q51 -117 200 -116q147 0 246 116q100 119 143 346q20 100 21 185 q0 92 -29 160q-51 117 -200.5 116.5t-248 -117t-141.5 -344.5q-20 -100 -20 -184z" />
<glyph unicode="p" horiz-adv-x="1310" d="M88 -426l268 1382h-176l21 107h360l-31 -166q74 101 166 147q94 47 215 48q197 0 289 -154q63 -104 64 -246q0 -68 -17 -160q-49 -249 -203 -405t-350 -156q-123 0 -198.5 47.5t-108.5 147.5l-115 -592h-184zM432 338q0 -86 33 -152q55 -100 194 -100q141 0 235.5 112.5 t137.5 333.5q18 102 19 181q0 92 -27 151q-53 113 -193 113q-141 0 -233 -100.5t-129 -292.5l-20 -105q-17 -86 -17 -141z" />
<glyph unicode="q" horiz-adv-x="1310" d="M184 268q-1 14 0 29q0 55 11 104q68 356 313 537q209 154 455 154q197 0 254 -29l-269 -1382h176l-20 -107h-361l115 592q-63 -96 -151 -148q-84 -47 -195 -47q-178 0 -266 119q-56 74 -62 178zM379 272q2 -57 29 -102q49 -84 178 -84q125 0 211 100.5t123 292.5l94 482 q0 29 -80 28q-193 0 -342 -149q-147 -151 -203 -424q-11 -57 -11 -115q0 -15 1 -29z" />
<glyph unicode="r" horiz-adv-x="978" d="M143 0l187 958h-176l20 105h361l-37 -189q74 111 170 164.5t219 53.5q43 0 92 -7q29 -4 100 -20l-51 -266h-106q4 29 4 37q0 53 -25 82q-31 39 -106 38q-135 0 -228 -94q-90 -94 -125 -270l-114 -592h-185z" />
<glyph unicode="s" horiz-adv-x="1050" d="M23 59l49 248h104q-4 -37 -4 -55q0 -182 248 -182t285 182q2 12 2 49q0 35 -33 70q-34 37 -178 86l-125 45q-125 41 -170 100q-41 53 -41 123q0 25 6 55q27 145 151 230q121 82 301 82q176 0 363 -86l-45 -232h-107q4 29 5 43q0 72 -50 125q-49 51 -168 51 q-238 0 -268 -164q-4 -25 -4 -47q0 -33 33 -65q35 -35 160 -78l137 -45q141 -45 194 -119q37 -49 37 -98q0 -213 -168 -320q-131 -86 -334 -86q-204 0 -380 88z" />
<glyph unicode="t" horiz-adv-x="821" d="M113 956l20 107h162l63 330h187l-66 -330h346l-20 -107h-346l-131 -675q-14 -74 -15 -125q0 -33 6 -47q20 -39 90 -39t113 43q39 39 62 137h139q-37 -141 -121 -211q-83 -68 -227 -68q-160 0 -213 72q-33 45 -33 123q0 39 14 115l131 675h-161z" />
<glyph unicode="u" horiz-adv-x="1318" d="M139 956l23 107h350l-121 -619q-18 -90 -18 -172q0 -63 14 -94q35 -72 156 -72q127 0 213 95q88 96 121 272l114 590h185l-187 -957h174l-20 -106h-359l37 188q-70 -104 -164 -161q-92 -55 -198 -56q-178 0 -242 101q-39 59 -39 164q0 66 19 151l108 569h-166z" />
<glyph unicode="v" horiz-adv-x="1155" d="M78 956l18 107h277l180 -838q114 101 190 228q158 262 218 503h-121l20 107h275q-109 -414 -246 -643q-119 -197 -350 -420h-136l-204 956h-121z" />
<glyph unicode="w" horiz-adv-x="1751" d="M115 954l20 109h275l112 -830l434 830h129l111 -830q135 147 164 197q113 203 219 526l-156 -2l21 109h266l-20 -109q-102 -373 -199 -548q-144 -255 -301 -406h-154l-108 795l-416 -795h-147l-129 956z" />
<glyph unicode="x" horiz-adv-x="1153" d="M6 0l469 510l-235 446h-131l18 107h270l221 -414l381 414h125l-458 -500l241 -457h140l-21 -106h-278l-226 424l-391 -424h-125z" />
<glyph unicode="y" horiz-adv-x="1155" d="M-76 -424l39 203h94q-2 -10 -2 -31q0 -41 19 -65q25 -35 90 -35q176 0 330 153l-252 1155h-121l20 107h277l235 -1055q160 240 201 340q125 307 150 598h-121l20 109h275q-98 -578 -273 -875q-256 -444 -461 -575q-94 -59 -329 -60q-53 0 -95 9q-67 14 -96 22z" />
<glyph unicode="z" horiz-adv-x="1077" d="M-20 0l16 86l727 758q-16 4 -41 12q-37 14 -68 33l-49 31q-94 57 -162 57q-129 0 -284 -152l24 121q170 168 301 168q82 -4 191 -70q115 -70 180 -69q111 0 213 88h59l-16 -86l-727 -758q4 -2 15.5 -5l25.5 -7q37 -14 68 -33l49 -31q94 -57 162 -57q129 0 284 152 l-24 -121q-170 -168 -301 -168q-82 4 -191 69q-115 70 -180 70q-111 0 -213 -88h-59z" />
<glyph unicode="{" d="M246 559l20 105h62q141 0 207 59q68 61 94 207l51 258q43 221 141.5 294.5t347.5 73.5h62l-21 -104h-67q-139 0 -193 -43q-51 -43 -80 -186l-55 -287q-31 -160 -94 -225q-66 -68 -199 -99q125 -33 162 -100q35 -66 4 -225l-55 -287q-27 -139 8 -184t174 -45h70l-23 -105 h-61q-249 0 -320 74q-70 74 -26 295l51 258q29 152 -14 209t-185 57h-61z" />
<glyph unicode="|" horiz-adv-x="688" d="M264 -483v2048h162v-2048h-162z" />
<glyph unicode="}" d="M72 -334l20 105h72q139 0 190 43q49 41 78 186l55 287q31 156 95 225q61 68 198 100q-125 31 -162 99q-35 66 -4 225l56 287q29 143 -6 186q-33 43 -175 43h-69l20 104h64q250 0 317 -73q70 -76 27 -295l-51 -258q-27 -150 14 -207q43 -59 184 -59h62l-21 -105h-61 q-143 0 -207 -57q-68 -61 -94 -209l-51 -258q-43 -221 -141.5 -295t-346.5 -74h-63z" />
<glyph unicode="~" horiz-adv-x="1714" d="M217 477v152q106 90 189 127q92 41 184 41t270 -66l10 -4q4 -2 31 -12q141 -57 242 -58q90 0 180 37q88 37 176 113v-148q-98 -86 -190 -131q-84 -41 -183 -41q-92 0 -270 66l-10 4q-10 2 -33 12q-145 57 -242 58q-92 0 -178 -37q-90 -39 -176 -113z" />
<glyph unicode="&#xa1;" horiz-adv-x="821" d="M135 0l227 821l50 252h123l-50 -252l-92 -821h-258zM401 1389q12 57 56 94q45 39 102 39t88 -39q33 -41 21 -94q-12 -55 -57.5 -94.5t-102.5 -39.5t-88 39.5t-19 94.5z" />
<glyph unicode="&#xa2;" d="M154 532q49 242 204 392q154 147 379 166l54 266h100l-53 -266q90 -10 170 -31q76 -20 151 -62l-51 -272h-107q6 123 -41 188.5t-141 77.5l-180 -919q94 12 163.5 75.5t112.5 171.5h148q-66 -156 -176.5 -241.5t-265.5 -104.5l-54 -270h-98l51 270q-215 18 -313 168 q-98 151 -53 391zM371 532q-41 -217 2 -329q43 -117 168 -131l178 919q-131 -14 -219 -131q-86 -115 -129 -328z" />
<glyph unicode="&#xa3;" d="M-10 0l20 106h193l114 594h-192l20 107h195l55 295q39 203 176 311q133 106 357 107q84 0 164 -13q74 -12 147 -37l-47 -245h-105q8 94 -39 145t-143 51q-123 0 -200.5 -77.5t-108.5 -241.5l-57 -295h411l-20 -107h-412l-112 -579h479l43 227h116l-67 -348h-987z" />
<glyph unicode="&#xa4;" d="M104 186l205 207q-40 61 -61 123q-20 59 -21 125q0 74 20.5 129t65.5 117l-207 207l95 94l207 -207q57 45 116.5 65.5t128.5 20.5q68 0 127 -20q66 -23 121 -62l209 207l94 -94l-209 -209q43 -61 63.5 -120.5t20.5 -127.5q0 -74 -20 -129q-23 -59 -66 -115l207 -207 l-96 -94l-207 205q-57 -45 -115 -65q-55 -20 -129 -21q-68 0 -127 21q-61 22 -123 61l-204 -205zM385 643q0 -115 78 -192.5t190 -77.5q115 0 191 78q78 82 78 192.5t-78 188t-190.5 77.5t-190.5 -77.5t-78 -188.5z" />
<glyph unicode="&#xa5;" d="M94 473l21 105h403l12 65l-55 141h-321l20 105h264l-190 497h-139l20 107h553l-20 -107h-177l228 -604l454 604h-166l21 107h432l-20 -107h-144l-379 -497h273l-23 -105h-332l-94 -122l-16 -84h403l-20 -105h-404l-71 -367h190l-20 -106h-582l21 106h190l72 367h-404z " />
<glyph unicode="&#xa6;" horiz-adv-x="688" d="M264 -350v758h162v-758h-162zM264 674v758h162v-758h-162z" />
<glyph unicode="&#xa7;" horiz-adv-x="1024" d="M4 -139l41 209h92q-14 -80 33 -121t151.5 -41t174.5 49q70 47 88 133q20 113 -183 240l-28 18q-190 123 -239.5 196.5t-31.5 174.5q18 90 91 160q70 66 188 98q-74 51 -100 113q-27 63 -13 141q25 129 141.5 209t280.5 80q82 0 152 -15q82 -16 143 -41l-39 -202h-92 q12 70 -33 114q-41 41 -131 41q-100 0 -167.5 -49t-82.5 -131q-18 -96 199 -233q12 -8 20.5 -14.5t14.5 -8.5q170 -104 223 -184q49 -74 27 -174q-18 -94 -82 -158q-61 -61 -189 -107q70 -47 94.5 -110.5t6.5 -153.5q-25 -129 -144 -211q-115 -78 -291 -78q-89 0 -165 13 q-68 10 -150 43zM274 754q-25 -131 297 -334l29 -19q65 37 105 86q37 45 49 105q14 74 -41 141q-55 66 -281 203q-76 -45 -113 -88q-35 -41 -45 -94z" />
<glyph unicode="&#xa8;" horiz-adv-x="1024" d="M395 1452q8 49 51 82q41 35 88.5 35t75.5 -35q27 -33 19 -82t-49 -84q-39 -33 -93 -33q-51 0 -75 33q-27 31 -17 84zM784 1452q8 49 52 82q41 35 88 35t75 -35q27 -33 19 -82t-49 -84q-39 -33 -90 -33q-53 0 -78 33q-27 31 -17 84z" />
<glyph unicode="&#xa9;" horiz-adv-x="2048" d="M283 741q0 152 55 285t162 240q109 109 241 164t283 55t283 -55q133 -55 241 -164q106 -106 161.5 -239.5t55.5 -285.5q0 -154 -55 -282q-59 -135 -162 -240q-109 -109 -241 -164t-283 -55t-283 55q-133 55 -241 164q-102 104 -162 240q-55 128 -55 282zM385 741 q0 -127 47 -243q43 -104 141 -207q96 -96 207 -141q117 -47 244 -48q129 0 246 48q111 45 207 141q92 94 139 207q47 117 47 243q0 129 -47 246q-47 115 -139 207q-96 96 -207 141q-117 47 -246 47q-127 0 -244 -47q-111 -45 -207 -141t-141 -207q-47 -117 -47 -246z M616 741q0 203 113 322q115 121 297 121q80 0 158 -19q84 -20 164 -57v-213h-84q-18 111 -74 160q-57 51 -162 51q-119 0 -180 -92q-59 -88 -60 -273q0 -186 60 -272q61 -90 178 -90q96 0 154 47q55 47 77 147h119q-28 -132 -116 -202t-234 -70q-188 0 -299 121 q-111 119 -111 319z" />
<glyph unicode="&#xaa;" horiz-adv-x="972" d="M72 535l20 104h699l-21 -104h-698zM133 969q0 39 10 100q35 168 140 285q109 119 245 145q18 4 54 4q41 0 71 -12q53 -23 88 -82l15 84h127l-127 -649h129l-19 -88h-254l35 178q-63 -80 -125 -121q-63 -41 -137 -57q-34 -6 -61 -6q-94 0 -146 67q-45 58 -45 152z M274 1004q0 -66 25 -103q29 -47 96 -47q12 0 41 4q96 18 160 92q66 76 88 180l18 87q6 31 7 59q0 59 -31 96q-35 41 -94 41q-12 0 -41 -4q-96 -18 -164 -100q-70 -86 -94 -213q-11 -57 -11 -92z" />
<glyph unicode="&#xab;" horiz-adv-x="1251" d="M150 559l16 82l551 418l-23 -115l-364 -344l229 -344l-20 -115zM584 559l16 82l551 418l-23 -115l-364 -344l229 -344l-20 -115z" />
<glyph unicode="&#xac;" horiz-adv-x="1714" d="M217 700v162h1282v-575h-160v413h-1122z" />
<glyph unicode="&#xad;" horiz-adv-x="690" d="M76 471l28 156h512l-28 -156h-512z" />
<glyph unicode="&#xae;" horiz-adv-x="2048" d="M283 741q0 152 55 285t162 240q109 109 241 164t283 55t283 -55q133 -55 241 -164q106 -106 161.5 -239.5t55.5 -285.5q0 -154 -55 -282q-59 -135 -162 -240q-109 -109 -241 -164t-283 -55t-283 55q-133 55 -241 164q-102 104 -162 240q-55 128 -55 282zM385 741 q0 -127 47 -243q43 -104 141 -207q96 -96 207 -141q117 -47 244 -48q129 0 246 48q111 45 207 141q92 94 139 207q47 117 47 243q0 129 -47 246q-47 115 -139 207q-96 96 -207 141q-117 47 -246 47q-127 0 -244 -47q-111 -45 -207 -141t-141 -207q-47 -117 -47 -246z M662 352v68h83v672h-83v67h415q127 0 192.5 -55t65.5 -166q0 -83 -49 -129q-49 -47 -145 -55q41 -14 71 -39q25 -20 50 -66l116 -229h76v-68h-190l-131 254q-33 68 -66 94q-29 23 -80 23h-92v-303h84v-68h-317zM895 791h125q80 0 125 38q41 35 41 113t-41 113 q-43 37 -125 37h-125v-301z" />
<glyph unicode="&#xaf;" horiz-adv-x="1024" d="M369 1378l26 148h598l-26 -148h-598z" />
<glyph unicode="&#xb0;" horiz-adv-x="1024" d="M195 1200q0 135 92 227.5t225 92.5q65 0 123 -25q61 -27 102 -70q51 -51 70 -102q23 -61 22 -123q0 -131 -92 -223t-227 -92t-225 90t-90 225zM332 1200q0 -76 51 -127t129 -51q76 0 127 51q53 53 53 127q0 76 -53 129t-127 53t-127 -53t-53 -129z" />
<glyph unicode="&#xb1;" horiz-adv-x="1714" d="M217 0v160h1282v-160h-1282zM217 731v162h561v391h160v-391h561v-162h-561v-391h-160v391h-561z" />
<glyph unicode="&#xb2;" horiz-adv-x="819" d="M6 668l17 75l333 254q100 76 149.5 137.5t61.5 127.5q16 88 -22 135q-40 49 -123 49q-76 0 -131 -37q-53 -35 -82 -113h-70l31 158q70 31 145 49q66 16 144 17q133 0 208.5 -65.5t53.5 -170.5q-25 -121 -252 -297l-23 -16l-278 -215h385l20 108h74l-39 -196h-602z" />
<glyph unicode="&#xb3;" horiz-adv-x="819" d="M27 709l32 170h70q-8 -74 33 -113t133 -39q95 0 154 43q61 45 75 127q18 94 -24.5 141t-141.5 47h-53l14 74h27q98 0 154 37q57 37 71 111q12 68 -20 102q-34 37 -111 37q-78 0 -131 -33q-51 -33 -69 -96h-70l29 151q90 29 147 39q71 12 129 13q141 0 203 -54 q63 -55 45 -153q-16 -72 -77.5 -121t-162.5 -68q115 -14 166 -75q49 -58 31 -160q-20 -111 -123 -174q-98 -61 -262 -62q-76 0 -139 15q-76 18 -129 41z" />
<glyph unicode="&#xb4;" horiz-adv-x="1024" d="M526 1262l332 376h199l-414 -376h-117z" />
<glyph unicode="&#xb5;" horiz-adv-x="1329" d="M90 -426l270 1382h-165l20 107h350l-121 -619q-18 -100 -18 -170q0 -66 14 -96q35 -72 156 -72q127 0 213 95q88 96 121 272l114 590h185l-189 -959h174l-20 -104h-356l36 188q-74 -109 -157 -161q-86 -55 -174 -56q-57 0 -101 19q-49 20 -75 53l-93 -469h-184z" />
<glyph unicode="&#xb6;" d="M240 1071q37 188 190.5 305t366.5 117h538l-20 -107h-119l-307 -1583h-107l308 1583h-232l-307 -1583h-107l164 846q-217 18 -309 127q-96 111 -59 295z" />
<glyph unicode="&#xb7;" horiz-adv-x="649" d="M190.5 710.5q12.5 55.5 57.5 94.5t102 39q55 0 86 -39q33 -41 21 -94q-12 -55 -57.5 -94t-100.5 -39t-88 38.5t-20.5 94z" />
<glyph unicode="&#xb8;" horiz-adv-x="1024" d="M256 -371l27 131q31 -14 75 -26q33 -8 72 -8q61 0 96 26q39 29 47 72q6 25 -8 72q-10 39 -47 104h98q47 -59 72 -121q22 -55 12 -104q-16 -80 -88 -125q-74 -45 -184 -45q-41 0 -84 6q-47 6 -88 18z" />
<glyph unicode="&#xb9;" horiz-adv-x="819" d="M94 668l17 84h172l123 634l-222 -106l19 94l266 129h100l-145 -751h174l-16 -84h-488z" />
<glyph unicode="&#xba;" horiz-adv-x="962" d="M41 535l20 104h689l-21 -104h-688zM115 1128q33 176 159 285q125 106 304 107q174 0 260 -107q84 -104 49 -285q-33 -176 -160 -284q-125 -106 -301 -106.5t-262 106.5q-84 104 -49 284zM289 1128q-33 -160 6 -235q41 -80 143 -80q109 0 176.5 80t98.5 235q31 158 -8 236 q-41 80 -143.5 80t-174.5 -80q-69 -80 -98 -236z" />
<glyph unicode="&#xbb;" horiz-adv-x="1251" d="M104 141l23 115l362 344l-229 344l23 115l387 -418l-17 -82zM539 141l20 115l365 344l-230 344l23 115l387 -418l-17 -82z" />
<glyph unicode="&#xbc;" horiz-adv-x="1984" d="M1460 303l80 407l-387 -407h307zM1689 0h-434l17 84h145l29 137h-400l17 84l504 530h141l-105 -532h164l-14 -82h-166l-27 -137h146zM94 668l17 84h172l123 634l-222 -106l19 94l266 129h100l-145 -751h174l-16 -84h-488zM1540 1520h149l-1245 -1549h-149z" />
<glyph unicode="&#xbd;" horiz-adv-x="1984" d="M94 668l17 84h172l123 634l-222 -106l19 94l266 129h100l-145 -751h174l-16 -84h-488zM1540 1520h149l-1245 -1549h-149zM1038 0l17 75l333 254q100 76 149.5 137.5t61.5 127.5q16 88 -22 135q-40 49 -123 49q-76 0 -131 -37q-53 -35 -82 -113h-70l31 158q70 31 145 49 q66 16 144 17q133 0 208.5 -65.5t53.5 -170.5q-25 -121 -252 -297l-23 -16l-278 -215h385l20 108h74l-39 -196h-602z" />
<glyph unicode="&#xbe;" horiz-adv-x="1984" d="M1460 303l80 407l-387 -407h307zM1689 0h-434l17 84h145l29 137h-400l17 84l504 530h141l-105 -532h164l-14 -82h-166l-27 -137h146zM27 709l32 170h70q-8 -74 33 -113t133 -39q95 0 154 43q61 45 75 127q18 94 -24.5 141t-141.5 47h-53l14 74h27q98 0 154 37 q57 37 71 111q12 68 -20 102q-34 37 -111 37q-78 0 -131 -33q-51 -33 -69 -96h-70l29 151q90 29 147 39q71 12 129 13q141 0 203 -54q63 -55 45 -153q-16 -72 -77.5 -121t-162.5 -68q115 -14 166 -75q49 -58 31 -160q-20 -111 -123 -174q-98 -61 -262 -62q-76 0 -139 15 q-76 18 -129 41zM1540 1520h149l-1245 -1549h-149z" />
<glyph unicode="&#xbf;" horiz-adv-x="1097" d="M66 369q37 188 170 305q131 115 366 168l49 254h123l-63 -328q-186 -43 -295 -143q-109 -98 -140 -258q-27 -135 31 -215t185 -80q111 0 198 65q84 63 131 189h97l-52 -260q-129 -51 -215 -70q-102 -23 -184 -23q-223 0 -329.5 107t-71.5 289zM637 1389q8 51 57 94 q45 39 103 39q55 0 86 -39q33 -41 20 -94q-12 -55 -57 -94.5t-103 -39.5q-55 0 -86 39q-32 42 -20 95z" />
<glyph unicode="&#xc0;" horiz-adv-x="1478" d="M-158 0l21 106h131l803 1387h168l264 -1387h145l-20 -106h-543l20 106h166l-61 328h-629l-188 -328h164l-21 -106h-420zM371 541h547l-136 710zM866 1899l129 -264h-117l-209 264h197z" />
<glyph unicode="&#xc1;" horiz-adv-x="1478" d="M-158 0l21 106h131l803 1387h168l264 -1387h145l-20 -106h-543l20 106h166l-61 328h-629l-188 -328h164l-21 -106h-420zM371 541h547l-136 710zM1051 1899h196l-313 -264h-119z" />
<glyph unicode="&#xc2;" horiz-adv-x="1478" d="M-158 0l21 106h131l803 1387h168l264 -1387h145l-20 -106h-543l20 106h166l-61 328h-629l-188 -328h164l-21 -106h-420zM371 541h547l-136 710zM852 1899h176l178 -264h-114l-172 161l-236 -161h-115z" />
<glyph unicode="&#xc3;" horiz-adv-x="1478" d="M-158 0l21 106h131l803 1387h168l264 -1387h145l-20 -106h-543l20 106h166l-61 328h-629l-188 -328h164l-21 -106h-420zM371 541h547l-136 710zM913 1714l-43 29q-25 16 -37 21q-18 6 -34 6q-39 0 -72 -29q-31 -28 -43 -74h-96q23 104 84 160q63 59 147 59q31 0 66 -10 q33 -10 77 -39l43 -26q31 -18 41 -21q20 -6 37 -6q45 0 72 26.5t37 75.5h96q-23 -104 -84 -161q-59 -57 -156 -58q-68 0 -131 45z" />
<glyph unicode="&#xc4;" horiz-adv-x="1478" d="M-158 0l21 106h131l803 1387h168l264 -1387h145l-20 -106h-543l20 106h166l-61 328h-629l-188 -328h164l-21 -106h-420zM371 541h547l-136 710zM750 1884q47 0 75.5 -34.5t18.5 -81.5q-8 -47 -49 -82t-90 -35q-47 0 -76 35q-27 33 -18 82q10 47 51 82q45 34 88 34z M1141 1884q45 0 73.5 -34.5t18.5 -81.5q-8 -47 -49 -82t-90 -35t-78 35q-27 31 -16 82q10 47 51 82q45 34 90 34z" />
<glyph unicode="&#xc5;" horiz-adv-x="1478" d="M-197 0l21 106h131l737 1278q-66 37 -90 99q-25 63 -10 143q20 113 119 195q95 80 208.5 80t178.5 -80q66 -80 43 -195q-16 -82 -66 -143q-53 -66 -131 -99l244 -1278h147l-20 -106h-545l23 106h165l-61 328h-629l-188 -328h164l-21 -106h-420zM330 541h547l-136 710z M715 1626q-12 -63 22 -106q35 -45 101 -45q59 0 114 45q53 45 66 106q12 66 -23 107q-39 45 -98 45q-65 0 -117 -43q-53 -43 -65 -109z" />
<glyph unicode="&#xc6;" horiz-adv-x="2048" d="M-180 0l20 106h131l840 1280h-215l20 107h1457l-66 -332h-123l41 209h-688l-96 -500h491l35 187h125l-96 -496h-123l35 187h-492l-121 -625h705l41 209h123l-66 -332h-1218l20 106h191l63 328h-539l-215 -328h164l-20 -106h-424zM385 541h489l164 845h-100z" />
<glyph unicode="&#xc7;" horiz-adv-x="1566" d="M106 422q-12 59 -11 128q0 89 20 195q68 348 311.5 561.5t570.5 213.5q121 0 254 -31q111 -27 277 -98l-66 -344h-112q0 186 -96.5 276t-295.5 90q-238 0 -395 -170q-154 -166 -219 -498q-26 -134 -26 -242q0 -154 53 -255q90 -170 327 -170q168 0 291 80t203 237h184 q-106 -209 -284 -317q-174 -106 -414 -107q-145 0 -260 49q-121 51 -195 148q-88 111 -117 254zM379 -371l27 131q31 -14 75 -26q33 -8 72 -8q61 0 96 26q39 29 47 72q6 25 -8 72q-10 39 -47 104h98q47 -59 72 -121q22 -55 12 -104q-16 -80 -88 -125q-74 -45 -184 -45 q-41 0 -84 6q-47 6 -88 18z" />
<glyph unicode="&#xc8;" horiz-adv-x="1492" d="M-33 0l21 106h190l248 1280h-188l20 107h1202l-63 -332h-123l39 209h-686l-97 -500h490l35 187h123l-97 -496h-123l37 187h-489l-121 -625h702l39 209h123l-63 -332h-1219zM946 1899l129 -264h-117l-209 264h197z" />
<glyph unicode="&#xc9;" horiz-adv-x="1492" d="M-33 0l21 106h190l248 1280h-188l20 107h1202l-63 -332h-123l39 209h-686l-97 -500h490l35 187h123l-97 -496h-123l37 187h-489l-121 -625h702l39 209h123l-63 -332h-1219zM1059 1899h196l-313 -264h-119z" />
<glyph unicode="&#xca;" horiz-adv-x="1492" d="M-33 0l21 106h190l248 1280h-188l20 107h1202l-63 -332h-123l39 209h-686l-97 -500h490l35 187h123l-97 -496h-123l37 187h-489l-121 -625h702l39 209h123l-63 -332h-1219zM907 1899h176l178 -264h-114l-172 161l-236 -161h-115z" />
<glyph unicode="&#xcb;" horiz-adv-x="1492" d="M-33 0l21 106h190l248 1280h-188l20 107h1202l-63 -332h-123l39 209h-686l-97 -500h490l35 187h123l-97 -496h-123l37 187h-489l-121 -625h702l39 209h123l-63 -332h-1219zM811 1884q47 0 75.5 -34.5t18.5 -81.5q-8 -47 -49 -82t-90 -35q-47 0 -76 35q-27 33 -18 82 q10 47 51 82q45 34 88 34zM1202 1884q45 0 73.5 -34.5t18.5 -81.5q-8 -47 -49 -82t-90 -35t-78 35q-27 31 -16 82q10 47 51 82q45 34 90 34z" />
<glyph unicode="&#xcc;" horiz-adv-x="808" d="M-33 0l21 106h190l248 1280h-188l20 107h584l-23 -107h-188l-250 -1280h190l-20 -106h-584zM569 1899l129 -264h-117l-209 264h197z" />
<glyph unicode="&#xcd;" horiz-adv-x="808" d="M-33 0l21 106h190l248 1280h-188l20 107h584l-23 -107h-188l-250 -1280h190l-20 -106h-584zM719 1899h196l-313 -264h-119z" />
<glyph unicode="&#xce;" horiz-adv-x="808" d="M-33 0l21 106h190l248 1280h-188l20 107h584l-23 -107h-188l-250 -1280h190l-20 -106h-584zM567 1899h176l178 -264h-114l-172 161l-236 -161h-115z" />
<glyph unicode="&#xcf;" horiz-adv-x="808" d="M-33 0l21 106h190l248 1280h-188l20 107h584l-23 -107h-188l-250 -1280h190l-20 -106h-584zM434 1884q47 0 75.5 -34.5t18.5 -81.5q-8 -47 -49 -82t-90 -35q-47 0 -76 35q-27 33 -18 82q10 47 51 82q45 34 88 34zM825 1884q45 0 73.5 -34.5t18.5 -81.5q-8 -47 -49 -82 t-90 -35t-78 35q-27 31 -16 82q10 47 51 82q45 34 90 34z" />
<glyph unicode="&#xd0;" horiz-adv-x="1652" d="M-23 0l21 106h190l119 613h-198l22 125h201l104 542h-188l20 107h594q385 0 563 -197q176 -195 109 -548q-68 -352 -322 -549q-258 -199 -641 -199h-594zM389 106h189q292 0 479 166q186 166 247.5 475.5t-63.5 475.5q-123 164 -416 163h-186l-107 -542h336l-22 -125 h-336z" />
<glyph unicode="&#xd1;" horiz-adv-x="1792" d="M-43 0l20 106h201l250 1280h-201l21 107h383l665 -1178l209 1071h-200l20 107h524l-20 -107h-201l-274 -1415h-121l-713 1258l-219 -1123h203l-21 -106h-526zM1108 1714l-43 29q-25 16 -37 21q-18 6 -34 6q-39 0 -72 -29q-31 -28 -43 -74h-96q23 104 84 160q63 59 147 59 q31 0 66 -10q33 -10 77 -39l43 -26q31 -18 41 -21q20 -6 37 -6q45 0 72 26.5t37 75.5h96q-23 -104 -84 -161q-59 -57 -156 -58q-68 0 -131 45z" />
<glyph unicode="&#xd2;" horiz-adv-x="1677" d="M106 422q-12 59 -11 128q0 89 20 195q35 182 116 324q86 147 218 254q117 98 252 147.5t290 49.5q324 0 484 -213q111 -147 110 -362q0 -93 -20 -200q-35 -180 -117 -323q-80 -139 -217 -254q-117 -98 -252 -147.5t-291 -49.5q-152 0 -268 49q-121 51 -197 148 q-88 111 -117 254zM344 745q-26 -133 -26 -241q0 -157 55 -258q92 -168 337.5 -168t401.5 168q160 172 223 499q26 135 26 243q0 156 -54 257q-92 168 -336 168q-250 0 -406 -168q-158 -170 -221 -500zM1038 1899l129 -264h-117l-209 264h197z" />
<glyph unicode="&#xd3;" horiz-adv-x="1677" d="M106 422q-12 59 -11 128q0 89 20 195q35 182 116 324q86 147 218 254q117 98 252 147.5t290 49.5q324 0 484 -213q111 -147 110 -362q0 -93 -20 -200q-35 -180 -117 -323q-80 -139 -217 -254q-117 -98 -252 -147.5t-291 -49.5q-152 0 -268 49q-121 51 -197 148 q-88 111 -117 254zM344 745q-26 -133 -26 -241q0 -157 55 -258q92 -168 337.5 -168t401.5 168q160 172 223 499q26 135 26 243q0 156 -54 257q-92 168 -336 168q-250 0 -406 -168q-158 -170 -221 -500zM1151 1899h196l-313 -264h-119z" />
<glyph unicode="&#xd4;" horiz-adv-x="1677" d="M106 422q-12 59 -11 128q0 89 20 195q35 182 116 324q86 147 218 254q117 98 252 147.5t290 49.5q324 0 484 -213q111 -147 110 -362q0 -93 -20 -200q-35 -180 -117 -323q-80 -139 -217 -254q-117 -98 -252 -147.5t-291 -49.5q-152 0 -268 49q-121 51 -197 148 q-88 111 -117 254zM344 745q-26 -133 -26 -241q0 -157 55 -258q92 -168 337.5 -168t401.5 168q160 172 223 499q26 135 26 243q0 156 -54 257q-92 168 -336 168q-250 0 -406 -168q-158 -170 -221 -500zM999 1899h176l178 -264h-114l-172 161l-236 -161h-115z" />
<glyph unicode="&#xd5;" horiz-adv-x="1677" d="M106 422q-12 59 -11 128q0 89 20 195q35 182 116 324q86 147 218 254q117 98 252 147.5t290 49.5q324 0 484 -213q111 -147 110 -362q0 -93 -20 -200q-35 -180 -117 -323q-80 -139 -217 -254q-117 -98 -252 -147.5t-291 -49.5q-152 0 -268 49q-121 51 -197 148 q-88 111 -117 254zM344 745q-26 -133 -26 -241q0 -157 55 -258q92 -168 337.5 -168t401.5 168q160 172 223 499q26 135 26 243q0 156 -54 257q-92 168 -336 168q-250 0 -406 -168q-158 -170 -221 -500zM1048 1714l-43 29q-25 16 -37 21q-18 6 -34 6q-39 0 -72 -29 q-31 -28 -43 -74h-96q23 104 84 160q63 59 147 59q31 0 66 -10q33 -10 77 -39l43 -26q31 -18 41 -21q20 -6 37 -6q45 0 72 26.5t37 75.5h96q-23 -104 -84 -161q-59 -57 -156 -58q-68 0 -131 45z" />
<glyph unicode="&#xd6;" horiz-adv-x="1677" d="M106 422q-12 59 -11 128q0 89 20 195q35 182 116 324q86 147 218 254q117 98 252 147.5t290 49.5q324 0 484 -213q111 -147 110 -362q0 -93 -20 -200q-35 -180 -117 -323q-80 -139 -217 -254q-117 -98 -252 -147.5t-291 -49.5q-152 0 -268 49q-121 51 -197 148 q-88 111 -117 254zM344 745q-26 -133 -26 -241q0 -157 55 -258q92 -168 337.5 -168t401.5 168q160 172 223 499q26 135 26 243q0 156 -54 257q-92 168 -336 168q-250 0 -406 -168q-158 -170 -221 -500zM903 1884q47 0 75.5 -34.5t18.5 -81.5q-8 -47 -49 -82t-90 -35 q-47 0 -76 35q-27 33 -18 82q10 47 51 82q45 34 88 34zM1294 1884q45 0 73.5 -34.5t18.5 -81.5q-8 -47 -49 -82t-90 -35t-78 35q-27 31 -16 82q10 47 51 82q45 34 90 34z" />
<glyph unicode="&#xd7;" horiz-adv-x="1714" d="M283 180l460 461l-460 463l114 113l461 -461l461 461l115 -113l-463 -463l463 -461l-115 -112l-461 460l-461 -460z" />
<glyph unicode="&#xd8;" horiz-adv-x="1677" d="M-43 12l227 207q-66 106 -84 236q-18 125 15 290q68 344 309 560q243 215 565 215q143 0 254 -43q115 -45 193 -125l215 198l65 -71l-223 -203q68 -115 86 -240t-14 -291q-68 -346 -310 -559q-244 -215 -567 -215q-139 0 -250 43q-113 43 -194 129l-221 -200zM317 530 q-2 -94 17 -178l977 887q-47 86 -133 131q-84 43 -207 43q-250 0 -406 -168q-158 -170 -221 -500q-25 -133 -27 -215zM369 256q47 -92 131 -133q90 -45 211 -45q246 0 401 168q160 172 223 499q22 117 25 216q4 102 -14 180z" />
<glyph unicode="&#xd9;" horiz-adv-x="1724" d="M223 1386l21 107h583l-20 -107h-191l-149 -772q-25 -128 -25 -220q0 -116 39 -179q70 -113 301.5 -113t343.5 113q117 117 172 399l150 772h-191l21 107h504l-21 -107h-190l-154 -792q-63 -338 -225 -481q-160 -141 -471 -142q-315 0 -422 142q-64 85 -64 245 q0 102 25 236l154 792h-191zM1104 1899l129 -264h-117l-209 264h197z" />
<glyph unicode="&#xda;" horiz-adv-x="1724" d="M223 1386l21 107h583l-20 -107h-191l-149 -772q-25 -128 -25 -220q0 -116 39 -179q70 -113 301.5 -113t343.5 113q117 117 172 399l150 772h-191l21 107h504l-21 -107h-190l-154 -792q-63 -338 -225 -481q-160 -141 -471 -142q-315 0 -422 142q-64 85 -64 245 q0 102 25 236l154 792h-191zM1217 1899h196l-313 -264h-119z" />
<glyph unicode="&#xdb;" horiz-adv-x="1724" d="M223 1386l21 107h583l-20 -107h-191l-149 -772q-25 -128 -25 -220q0 -116 39 -179q70 -113 301.5 -113t343.5 113q117 117 172 399l150 772h-191l21 107h504l-21 -107h-190l-154 -792q-63 -338 -225 -481q-160 -141 -471 -142q-315 0 -422 142q-64 85 -64 245 q0 102 25 236l154 792h-191zM1065 1899h176l178 -264h-114l-172 161l-236 -161h-115z" />
<glyph unicode="&#xdc;" horiz-adv-x="1724" d="M223 1386l21 107h583l-20 -107h-191l-149 -772q-25 -128 -25 -220q0 -116 39 -179q70 -113 301.5 -113t343.5 113q117 117 172 399l150 772h-191l21 107h504l-21 -107h-190l-154 -792q-63 -338 -225 -481q-160 -141 -471 -142q-315 0 -422 142q-64 85 -64 245 q0 102 25 236l154 792h-191zM969 1884q47 0 75.5 -34.5t18.5 -81.5q-8 -47 -49 -82t-90 -35q-47 0 -76 35q-27 33 -18 82q10 47 51 82q45 34 88 34zM1360 1884q45 0 73.5 -34.5t18.5 -81.5q-8 -47 -49 -82t-90 -35t-78 35q-27 31 -16 82q10 47 51 82q45 34 90 34z" />
<glyph unicode="&#xdd;" horiz-adv-x="1351" d="M100 1386l23 107h555l-23 -107h-174l256 -604l492 604h-168l20 107h435l-23 -107h-139l-590 -724l-109 -556h191l-21 -106h-583l20 106h191l104 537l-315 743h-142zM988 1899h196l-313 -264h-119z" />
<glyph unicode="&#xde;" horiz-adv-x="1382" d="M-33 0l21 106h190l248 1280h-188l20 107h625l-23 -107h-229l-43 -219h313q225 0 334 -114q106 -113 70 -305q-37 -194 -191 -308q-156 -115 -377 -114h-313l-43 -220h231l-20 -106h-625zM444 434h265q147 0 243 80q95 80 123 234q31 152 -33 233q-61 80 -211 80h-264z " />
<glyph unicode="&#xdf;" horiz-adv-x="1366" d="M-174 -426l10 98q106 0 158 56q55 66 82 206l241 1252q33 172 168 272q133 98 342 98q213 0 306 -104q90 -100 61 -315h-20q-147 0 -240 -54q-94 -55 -113 -147q-10 -45 10 -90q18 -41 82 -86l80 -55q135 -98 178 -185q43 -84 21 -198q-31 -156 -164 -252 q-135 -98 -319 -99q-86 0 -166 19q-82 18 -154 53l45 233h111q-16 -102 28 -153q47 -53 148 -53q111 0 186 61q76 59 97 164q16 84 -13 143q-27 55 -133 131l-74 54q-96 68 -125 129q-31 66 -16 147q25 123 125 205t258 106q16 121 -41 183q-59 66 -176 65q-129 0 -205 -65 q-72 -63 -100 -203l-246 -1256q-35 -178 -143 -270q-109 -90 -289 -90z" />
<glyph unicode="&#xe0;" horiz-adv-x="1220" d="M70 295q0 57 10 106q68 356 313 537q209 154 463 154q166 0 227 -29l-186 -957h160l-21 -106h-323l30 166q-133 -195 -348 -195q-176 0 -264 119q-61 82 -61 205zM262 299q0 -213 207 -213q127 0 213 100.5t123 292.5l92 482q0 29 -80 28q-190 0 -340 -149 q-150 -152 -201 -424q-14 -76 -14 -117zM424 1636h196l187 -376h-117z" />
<glyph unicode="&#xe1;" horiz-adv-x="1220" d="M70 295q0 57 10 106q68 356 313 537q209 154 463 154q166 0 227 -29l-186 -957h160l-21 -106h-323l30 166q-133 -195 -348 -195q-176 0 -264 119q-61 82 -61 205zM262 299q0 -213 207 -213q127 0 213 100.5t123 292.5l92 482q0 29 -80 28q-190 0 -340 -149 q-150 -152 -201 -424q-14 -76 -14 -117zM583 1262l332 376h199l-414 -376h-117z" />
<glyph unicode="&#xe2;" horiz-adv-x="1220" d="M70 295q0 57 10 106q68 356 313 537q209 154 463 154q166 0 227 -29l-186 -957h160l-21 -106h-323l30 166q-133 -195 -348 -195q-176 0 -264 119q-61 82 -61 205zM262 299q0 -213 207 -213q127 0 213 100.5t123 292.5l92 482q0 29 -80 28q-190 0 -340 -149 q-150 -152 -201 -424q-14 -76 -14 -117zM405 1262l309 376h168l160 -376h-115l-151 260l-254 -260h-117z" />
<glyph unicode="&#xe3;" horiz-adv-x="1220" d="M70 295q0 57 10 106q68 356 313 537q209 154 463 154q166 0 227 -29l-186 -957h160l-21 -106h-323l30 166q-133 -195 -348 -195q-176 0 -264 119q-61 82 -61 205zM262 299q0 -213 207 -213q127 0 213 100.5t123 292.5l92 482q0 29 -80 28q-190 0 -340 -149 q-150 -152 -201 -424q-14 -76 -14 -117zM424 1309q28 135 92 209q66 74 155 73q39 0 68 -14q37 -20 61 -47l45 -55q16 -20 35 -31q14 -8 35 -8q45 0 76 41q31 39 49 114h96q-28 -135 -92 -209q-66 -74 -156 -73q-39 0 -67 14q-37 20 -62 47l-45 55q-22 25 -36 31 q-14 8 -33 8q-45 0 -76 -41t-49 -114h-96z" />
<glyph unicode="&#xe4;" horiz-adv-x="1220" d="M70 295q0 57 10 106q68 356 313 537q209 154 463 154q166 0 227 -29l-186 -957h160l-21 -106h-323l30 166q-133 -195 -348 -195q-176 0 -264 119q-61 82 -61 205zM262 299q0 -213 207 -213q127 0 213 100.5t123 292.5l92 482q0 29 -80 28q-190 0 -340 -149 q-150 -152 -201 -424q-14 -76 -14 -117zM452 1452q8 49 51 82q41 35 88.5 35t75.5 -35q27 -33 19 -82t-49 -84q-39 -33 -93 -33q-51 0 -75 33q-27 31 -17 84zM841 1452q8 49 52 82q41 35 88 35t75 -35q27 -33 19 -82t-49 -84q-39 -33 -90 -33q-53 0 -78 33q-27 31 -17 84z " />
<glyph unicode="&#xe5;" horiz-adv-x="1220" d="M70 295q0 57 10 106q68 356 313 537q209 154 463 154q166 0 227 -29l-186 -957h160l-21 -106h-323l30 166q-133 -195 -348 -195q-176 0 -264 119q-61 82 -61 205zM262 299q0 -213 207 -213q127 0 213 100.5t123 292.5l92 482q0 29 -80 28q-190 0 -340 -149 q-150 -152 -201 -424q-14 -76 -14 -117zM1034 1524q-20 -113 -119 -195q-95 -80 -209 -80q-117 0 -180 80q-63 78 -41 195q23 115 117 194.5t211 79.5q114 0 178 -80q66 -79 43 -194zM911 1524q12 63 -23 106q-39 45 -100 45q-65 0 -117 -43q-51 -41 -63 -108.5t22 -108.5 q33 -43 101 -43q63 0 114 43q54 43 66 109z" />
<glyph unicode="&#xe6;" horiz-adv-x="1923" d="M70 295q0 57 10 106q68 356 313 537q209 154 463 154q166 0 227 -29l-18 -96q158 125 377 125q391 0 391 -277q0 -399 -819 -407q-4 -49 -4 -72q0 -96 32 -156q59 -111 218 -110q115 0 174 34q100 63 125 146h135q-41 -129 -189 -217q-104 -61 -311 -62q-236 0 -342 197 q-144 -197 -442 -197h-15q-176 0 -264 119q-61 82 -61 205zM262 297q0 -211 207 -211q127 0 213 100.5t123 292.5l92 482q0 29 -80 28q-190 0 -340 -149q-150 -152 -201 -424q-14 -76 -14 -119zM1034 514q317 16 492 119q113 66 112 188q0 172 -227 172q-135 0 -227 -102 q-91 -101 -150 -377z" />
<glyph unicode="&#xe7;" horiz-adv-x="1146" d="M86 385q0 66 16 147q49 256 219.5 408t403.5 152q109 0 197 -23q100 -27 186 -72l-51 -272h-109v27q0 121 -51 178q-57 63 -188 63q-150 0 -248.5 -116.5t-143.5 -344.5q-20 -100 -20 -188q0 -90 29 -158q52 -117 202 -116q119 0 201 61.5t135 187.5h148 q-72 -170 -201 -260q-127 -88 -303 -88q-233 0 -344 154q-78 108 -78 260zM197 -371l27 131q31 -14 75 -26q33 -8 72 -8q61 0 96 26q39 29 47 72q6 25 -8 72q-10 39 -47 104h98q47 -59 72 -121q22 -55 12 -104q-16 -80 -88 -125q-74 -45 -184 -45q-41 0 -84 6q-47 6 -88 18z " />
<glyph unicode="&#xe8;" horiz-adv-x="1210" d="M86 385q0 63 16 145q49 256 217 408q168 154 410 154q391 0 391 -277q0 -205 -205 -303q-209 -100 -616 -104q-2 -25 -2 -72q0 -96 33 -156q59 -111 217 -110q115 0 174 34q100 63 125 146h135q-41 -129 -188 -217q-104 -61 -312 -62q-205 0 -315 154q-80 113 -80 260z M322 514q322 16 491 119q113 66 113 188q0 172 -228 172q-135 0 -227 -102q-90 -101 -149 -377zM461 1636h196l187 -376h-117z" />
<glyph unicode="&#xe9;" horiz-adv-x="1210" d="M86 385q0 63 16 145q49 256 217 408q168 154 410 154q391 0 391 -277q0 -205 -205 -303q-209 -100 -616 -104q-2 -25 -2 -72q0 -96 33 -156q59 -111 217 -110q115 0 174 34q100 63 125 146h135q-41 -129 -188 -217q-104 -61 -312 -62q-205 0 -315 154q-80 113 -80 260z M322 514q322 16 491 119q113 66 113 188q0 172 -228 172q-135 0 -227 -102q-90 -101 -149 -377zM620 1262l332 376h199l-414 -376h-117z" />
<glyph unicode="&#xea;" horiz-adv-x="1210" d="M86 385q0 63 16 145q49 256 217 408q168 154 410 154q391 0 391 -277q0 -205 -205 -303q-209 -100 -616 -104q-2 -25 -2 -72q0 -96 33 -156q59 -111 217 -110q115 0 174 34q100 63 125 146h135q-41 -129 -188 -217q-104 -61 -312 -62q-205 0 -315 154q-80 113 -80 260z M322 514q322 16 491 119q113 66 113 188q0 172 -228 172q-135 0 -227 -102q-90 -101 -149 -377zM442 1262l309 376h168l160 -376h-115l-151 260l-254 -260h-117z" />
<glyph unicode="&#xeb;" horiz-adv-x="1210" d="M86 385q0 63 16 145q49 256 217 408q168 154 410 154q391 0 391 -277q0 -205 -205 -303q-209 -100 -616 -104q-2 -25 -2 -72q0 -96 33 -156q59 -111 217 -110q115 0 174 34q100 63 125 146h135q-41 -129 -188 -217q-104 -61 -312 -62q-205 0 -315 154q-80 113 -80 260z M322 514q322 16 491 119q113 66 113 188q0 172 -228 172q-135 0 -227 -102q-90 -101 -149 -377zM489 1452q8 49 51 82q41 35 88.5 35t75.5 -35q27 -33 19 -82t-49 -84q-39 -33 -93 -33q-51 0 -75 33q-27 31 -17 84zM878 1452q8 49 52 82q41 35 88 35t75 -35q27 -33 19 -82 t-49 -84q-39 -33 -90 -33q-53 0 -78 33q-27 31 -17 84z" />
<glyph unicode="&#xec;" horiz-adv-x="653" d="M350 106h174l-18 -106h-359l187 956h-176l18 107h361zM183 1636h196l187 -376h-117z" />
<glyph unicode="&#xed;" horiz-adv-x="653" d="M350 106h174l-18 -106h-359l187 956h-176l18 107h361zM342 1262l332 376h199l-414 -376h-117z" />
<glyph unicode="&#xee;" horiz-adv-x="653" d="M350 106h174l-18 -106h-359l187 956h-176l18 107h361zM164 1262l309 376h168l160 -376h-115l-151 260l-254 -260h-117z" />
<glyph unicode="&#xef;" horiz-adv-x="653" d="M350 106h174l-18 -106h-359l187 956h-176l18 107h361zM211 1452q8 49 51 82q41 35 88.5 35t75.5 -35q27 -33 19 -82t-49 -84q-39 -33 -93 -33q-51 0 -75 33q-27 31 -17 84zM600 1452q8 49 52 82q41 35 88 35t75 -35q27 -33 19 -82t-49 -84q-39 -33 -90 -33q-53 0 -78 33 q-27 31 -17 84z" />
<glyph unicode="&#xf0;" horiz-adv-x="1232" d="M53 518q45 233 217 381q170 145 398 145q23 0 71 -4q53 -4 86 -10q-12 55 -36.5 106.5t-65.5 108.5l-350 -149l-23 78l320 135q-49 57 -121 98q-78 43 -162 63l35 86q102 -23 209 -73q94 -45 176 -115l350 150l21 -78l-312 -133q150 -164 205 -363t14 -412 q-49 -256 -219 -407q-172 -154 -403 -154q-227 0 -342 151.5t-68 395.5zM266 508q-39 -209 16.5 -323.5t198.5 -114.5q141 0 244 114q100 113 141 328q23 111 19 217.5t-31 198.5q-57 12 -84 14q-53 4 -80 4q-172 0 -276 -106q-105 -108 -148 -332z" />
<glyph unicode="&#xf1;" horiz-adv-x="1318" d="M143 0l187 956h-176l20 107h361l-37 -189q70 104 164 162q92 55 200 56q176 0 240 -101q39 -66 39 -164q0 -66 -19 -151l-110 -570h164l-21 -106h-348l121 618q18 90 18 173q0 66 -14 96q-35 72 -156 71q-125 0 -213 -94q-86 -92 -121 -272l-114 -592h-185zM453 1309 q28 135 92 209q66 74 155 73q39 0 68 -14q37 -20 61 -47l45 -55q16 -20 35 -31q14 -8 35 -8q45 0 76 41q31 39 49 114h96q-28 -135 -92 -209q-66 -74 -156 -73q-39 0 -67 14q-37 20 -62 47l-45 55q-22 25 -36 31q-14 8 -33 8q-45 0 -76 -41t-49 -114h-96z" />
<glyph unicode="&#xf2;" horiz-adv-x="1232" d="M86 385q0 66 16 147q49 254 220 406q172 154 403 154q233 0 344 -154q76 -106 76 -258q0 -76 -15 -148q-49 -256 -219 -407q-172 -154 -403 -154q-233 0 -344 154q-78 108 -78 260zM297 348q0 -94 29 -162q51 -117 200 -116q147 0 246 116q100 119 143 346q20 100 21 185 q0 92 -29 160q-51 117 -200.5 116.5t-248 -117t-141.5 -344.5q-20 -100 -20 -184zM471 1636h196l187 -376h-117z" />
<glyph unicode="&#xf3;" horiz-adv-x="1232" d="M86 385q0 66 16 147q49 254 220 406q172 154 403 154q233 0 344 -154q76 -106 76 -258q0 -76 -15 -148q-49 -256 -219 -407q-172 -154 -403 -154q-233 0 -344 154q-78 108 -78 260zM297 348q0 -94 29 -162q51 -117 200 -116q147 0 246 116q100 119 143 346q20 100 21 185 q0 92 -29 160q-51 117 -200.5 116.5t-248 -117t-141.5 -344.5q-20 -100 -20 -184zM630 1262l332 376h199l-414 -376h-117z" />
<glyph unicode="&#xf4;" horiz-adv-x="1232" d="M86 385q0 66 16 147q49 254 220 406q172 154 403 154q233 0 344 -154q76 -106 76 -258q0 -76 -15 -148q-49 -256 -219 -407q-172 -154 -403 -154q-233 0 -344 154q-78 108 -78 260zM297 348q0 -94 29 -162q51 -117 200 -116q147 0 246 116q100 119 143 346q20 100 21 185 q0 92 -29 160q-51 117 -200.5 116.5t-248 -117t-141.5 -344.5q-20 -100 -20 -184zM452 1262l309 376h168l160 -376h-115l-151 260l-254 -260h-117z" />
<glyph unicode="&#xf5;" horiz-adv-x="1232" d="M86 385q0 66 16 147q49 254 220 406q172 154 403 154q233 0 344 -154q76 -106 76 -258q0 -76 -15 -148q-49 -256 -219 -407q-172 -154 -403 -154q-233 0 -344 154q-78 108 -78 260zM297 348q0 -94 29 -162q51 -117 200 -116q147 0 246 116q100 119 143 346q20 100 21 185 q0 92 -29 160q-51 117 -200.5 116.5t-248 -117t-141.5 -344.5q-20 -100 -20 -184zM471 1309q28 135 92 209q66 74 155 73q39 0 68 -14q37 -20 61 -47l45 -55q16 -20 35 -31q14 -8 35 -8q45 0 76 41q31 39 49 114h96q-28 -135 -92 -209q-66 -74 -156 -73q-39 0 -67 14 q-37 20 -62 47l-45 55q-22 25 -36 31q-14 8 -33 8q-45 0 -76 -41t-49 -114h-96z" />
<glyph unicode="&#xf6;" horiz-adv-x="1232" d="M86 385q0 66 16 147q49 254 220 406q172 154 403 154q233 0 344 -154q76 -106 76 -258q0 -76 -15 -148q-49 -256 -219 -407q-172 -154 -403 -154q-233 0 -344 154q-78 108 -78 260zM297 348q0 -94 29 -162q51 -117 200 -116q147 0 246 116q100 119 143 346q20 100 21 185 q0 92 -29 160q-51 117 -200.5 116.5t-248 -117t-141.5 -344.5q-20 -100 -20 -184zM499 1452q8 49 51 82q41 35 88.5 35t75.5 -35q27 -33 19 -82t-49 -84q-39 -33 -93 -33q-51 0 -75 33q-27 31 -17 84zM888 1452q8 49 52 82q41 35 88 35t75 -35q27 -33 19 -82t-49 -84 q-39 -33 -90 -33q-53 0 -78 33q-27 31 -17 84z" />
<glyph unicode="&#xf7;" horiz-adv-x="1714" d="M217 561v162h1282v-162h-1282zM725 272q0 55 39 94.5t94 39.5t94 -39t39 -94.5t-39 -94.5t-94 -39q-57 0 -94 39q-39 43 -39 94zM725 1011.5q0 55.5 39 94.5t94 39t94 -39t39 -94.5t-39 -94t-94 -38.5t-94 38.5t-39 94z" />
<glyph unicode="&#xf8;" horiz-adv-x="1232" d="M-33 -31l183 178q-45 74 -58 172q-12 94 10 213q49 254 220 406q172 154 403 154q96 0 170 -25q70 -23 129 -76l170 166l63 -63l-178 -172q49 -74 62 -172q12 -96 -11 -218q-49 -256 -219 -407q-172 -154 -403 -154q-98 0 -170 27q-82 31 -131 80l-176 -172zM299 401 q-4 -76 0 -108l608 586q-29 59 -76 86q-51 29 -124 28q-147 0 -246 -116q-100 -121 -144 -345q-14 -70 -18 -131zM326 190q27 -57 77 -90q49 -31 123 -30q145 0 246 118q100 121 143 344q16 78 19 136q4 80 0 112z" />
<glyph unicode="&#xf9;" horiz-adv-x="1318" d="M139 956l23 107h350l-121 -619q-18 -90 -18 -172q0 -63 14 -94q35 -72 156 -72q127 0 213 95q88 96 121 272l114 590h185l-187 -957h174l-20 -106h-359l37 188q-70 -104 -164 -161q-92 -55 -198 -56q-178 0 -242 101q-39 59 -39 164q0 66 19 151l108 569h-166zM439 1636 h196l187 -376h-117z" />
<glyph unicode="&#xfa;" horiz-adv-x="1318" d="M139 956l23 107h350l-121 -619q-18 -90 -18 -172q0 -63 14 -94q35 -72 156 -72q127 0 213 95q88 96 121 272l114 590h185l-187 -957h174l-20 -106h-359l37 188q-70 -104 -164 -161q-92 -55 -198 -56q-178 0 -242 101q-39 59 -39 164q0 66 19 151l108 569h-166zM598 1262 l332 376h199l-414 -376h-117z" />
<glyph unicode="&#xfb;" horiz-adv-x="1318" d="M139 956l23 107h350l-121 -619q-18 -90 -18 -172q0 -63 14 -94q35 -72 156 -72q127 0 213 95q88 96 121 272l114 590h185l-187 -957h174l-20 -106h-359l37 188q-70 -104 -164 -161q-92 -55 -198 -56q-178 0 -242 101q-39 59 -39 164q0 66 19 151l108 569h-166zM420 1262 l309 376h168l160 -376h-115l-151 260l-254 -260h-117z" />
<glyph unicode="&#xfc;" horiz-adv-x="1318" d="M139 956l23 107h350l-121 -619q-18 -90 -18 -172q0 -63 14 -94q35 -72 156 -72q127 0 213 95q88 96 121 272l114 590h185l-187 -957h174l-20 -106h-359l37 188q-70 -104 -164 -161q-92 -55 -198 -56q-178 0 -242 101q-39 59 -39 164q0 66 19 151l108 569h-166zM467 1452 q8 49 51 82q41 35 88.5 35t75.5 -35q27 -33 19 -82t-49 -84q-39 -33 -93 -33q-51 0 -75 33q-27 31 -17 84zM856 1452q8 49 52 82q41 35 88 35t75 -35q27 -33 19 -82t-49 -84q-39 -33 -90 -33q-53 0 -78 33q-27 31 -17 84z" />
<glyph unicode="&#xfd;" horiz-adv-x="1155" d="M-76 -424l39 203h94q-2 -10 -2 -31q0 -41 19 -65q25 -35 90 -35q176 0 330 153l-252 1155h-121l20 107h277l235 -1055q160 240 201 340q125 307 150 598h-121l20 109h275q-98 -578 -273 -875q-256 -444 -461 -575q-94 -59 -329 -60q-53 0 -95 9q-67 14 -96 22zM594 1262 l332 376h199l-414 -376h-117z" />
<glyph unicode="&#xfe;" horiz-adv-x="1310" d="M43 -426l365 1876h-177l21 106h360l-127 -659q74 101 166 147q94 47 215 48q195 0 289 -154q63 -104 64 -246q0 -68 -17 -160q-49 -249 -203 -405t-350 -156q-123 0 -198.5 47.5t-108.5 147.5l-115 -592h-184zM387 338q0 -86 33 -152q55 -100 194 -100q141 0 235.5 112.5 t137.5 333.5q18 102 19 181q0 92 -27 151q-53 113 -192.5 113t-231.5 -100q-94 -104 -131 -293l-21 -105q-16 -86 -16 -141z" />
<glyph unicode="&#xff;" horiz-adv-x="1155" d="M-76 -424l39 203h94q-2 -10 -2 -31q0 -41 19 -65q25 -35 90 -35q176 0 330 153l-252 1155h-121l20 107h277l235 -1055q160 240 201 340q125 307 150 598h-121l20 109h275q-98 -578 -273 -875q-256 -444 -461 -575q-94 -59 -329 -60q-53 0 -95 9q-67 14 -96 22zM463 1452 q8 49 51 82q41 35 88.5 35t75.5 -35q27 -33 19 -82t-49 -84q-39 -33 -93 -33q-51 0 -75 33q-27 31 -17 84zM852 1452q8 49 52 82q41 35 88 35t75 -35q27 -33 19 -82t-49 -84q-39 -33 -90 -33q-53 0 -78 33q-27 31 -17 84z" />
<glyph unicode="&#x131;" horiz-adv-x="653" d="M350 106h174l-18 -106h-359l187 956h-176l18 107h361z" />
<glyph unicode="&#x152;" horiz-adv-x="2328" d="M121 750q68 350 321.5 546.5t638.5 196.5h1213l-66 -332h-123l41 209h-686l-96 -500h491l35 187h121l-94 -496h-123l37 187h-492l-120 -625h702l41 209h123l-66 -332h-1228q-381 0 -562 199q-176 195 -108 551zM348 750q-61 -309 64 -478q123 -166 413 -166h187l250 1280 h-189q-289 0 -477 -163q-187 -162 -248 -473z" />
<glyph unicode="&#x153;" horiz-adv-x="2023" d="M86 385q0 66 16 147q49 254 220 406q172 154 403 154q233 0 344 -154q8 -8 25 -39q18 20 39 39q170 154 409 154q391 0 391 -277q0 -205 -204 -303q-209 -100 -617 -104q-2 -25 -2 -72q0 -96 33 -156q57 -111 217 -110q115 0 174 34q100 63 125 146h135 q-41 -129 -188 -217q-104 -61 -312 -62q-205 0 -315 154q-16 23 -27 41l-43 -41q-168 -154 -401.5 -154t-343.5 154q-78 108 -78 260zM317 532q-43 -229 8.5 -345.5t200.5 -116.5q147 0 246 116q100 119 143 346q43 229 -8 345q-51 117 -200.5 116.5t-248 -117.5 t-141.5 -344zM1135 514q322 16 491 119q113 66 113 188q0 172 -228 172q-135 0 -227 -102q-90 -101 -149 -377z" />
<glyph unicode="&#x178;" horiz-adv-x="1351" d="M100 1386l23 107h555l-23 -107h-174l256 -604l492 604h-168l20 107h435l-23 -107h-139l-590 -724l-109 -556h191l-21 -106h-583l20 106h191l104 537l-315 743h-142zM740 1884q47 0 75.5 -34.5t18.5 -81.5q-8 -47 -49 -82t-90 -35q-47 0 -76 35q-27 33 -18 82q10 47 51 82 q45 34 88 34zM1131 1884q45 0 73.5 -34.5t18.5 -81.5q-8 -47 -49 -82t-90 -35t-78 35q-27 31 -16 82q10 47 51 82q45 34 90 34z" />
<glyph unicode="&#x2c6;" horiz-adv-x="1024" d="M348 1262l309 376h168l160 -376h-115l-151 260l-254 -260h-117z" />
<glyph unicode="&#x2da;" horiz-adv-x="1024" d="M977 1524q-20 -113 -119 -195q-95 -80 -209 -80q-117 0 -180 80q-63 78 -41 195q23 115 117 194.5t211 79.5q114 0 178 -80q66 -79 43 -194zM854 1524q12 63 -23 106q-39 45 -100 45q-65 0 -117 -43q-51 -41 -63 -108.5t22 -108.5q33 -43 101 -43q63 0 114 43 q54 43 66 109z" />
<glyph unicode="&#x2dc;" horiz-adv-x="1024" d="M367 1309q28 135 92 209q66 74 155 73q39 0 68 -14q37 -20 61 -47l45 -55q16 -20 35 -31q14 -8 35 -8q45 0 76 41q31 39 49 114h96q-28 -135 -92 -209q-66 -74 -156 -73q-39 0 -67 14q-37 20 -62 47l-45 55q-22 25 -36 31q-14 8 -33 8q-45 0 -76 -41t-49 -114h-96z" />
<glyph unicode="&#x2000;" horiz-adv-x="948" />
<glyph unicode="&#x2001;" horiz-adv-x="1900" />
<glyph unicode="&#x2002;" horiz-adv-x="948" />
<glyph unicode="&#x2003;" horiz-adv-x="1900" />
<glyph unicode="&#x2004;" horiz-adv-x="632" />
<glyph unicode="&#x2005;" horiz-adv-x="473" />
<glyph unicode="&#x2006;" horiz-adv-x="315" />
<glyph unicode="&#x2007;" horiz-adv-x="315" />
<glyph unicode="&#x2008;" horiz-adv-x="235" />
<glyph unicode="&#x2009;" horiz-adv-x="378" />
<glyph unicode="&#x200a;" horiz-adv-x="104" />
<glyph unicode="&#x2010;" horiz-adv-x="690" d="M76 471l28 156h512l-28 -156h-512z" />
<glyph unicode="&#x2011;" horiz-adv-x="690" d="M76 471l28 156h512l-28 -156h-512z" />
<glyph unicode="&#x2012;" horiz-adv-x="690" d="M76 471l28 156h512l-28 -156h-512z" />
<glyph unicode="&#x2013;" horiz-adv-x="1024" d="M78 477l24 133h844l-24 -133h-844z" />
<glyph unicode="&#x2014;" horiz-adv-x="2048" d="M78 477l24 133h1868l-24 -133h-1868z" />
<glyph unicode="&#x2018;" horiz-adv-x="649" d="M160 1014q33 174 121 295q84 119 239 211l64 -80q-90 -66 -141.5 -150t-75.5 -213l-13 -63h-194z" />
<glyph unicode="&#x2019;" horiz-adv-x="649" d="M111 1067q92 63 143 150q51 84 76 215l12 61h195q-35 -174 -121 -295q-84 -117 -242 -211z" />
<glyph unicode="&#x201a;" horiz-adv-x="649" d="M55 -199q111 70 172 162q61 90 86 227l9 37h196q-39 -166 -137 -293q-94 -123 -260 -213z" />
<glyph unicode="&#x201c;" horiz-adv-x="1046" d="M160 1014q33 174 121 295q84 119 239 211l64 -80q-90 -66 -141.5 -150t-75.5 -213l-13 -63h-194zM555 1014q37 178 121 295q84 119 239 211l64 -80q-90 -66 -141.5 -150t-75.5 -213l-12 -63h-195z" />
<glyph unicode="&#x201d;" horiz-adv-x="1046" d="M111 1067q92 63 143 150q51 84 76 215l12 61h195q-35 -174 -121 -295q-84 -117 -242 -211zM510 1067q86 63 139 150q51 84 76 213l12 63h195q-33 -174 -121 -295q-84 -119 -240 -211z" />
<glyph unicode="&#x201e;" horiz-adv-x="1060" d="M55 -199q111 70 172 162q61 90 86 227l9 37h196q-39 -166 -137 -293q-94 -123 -260 -213zM451 -199q111 70 172 162q63 94 88 227l6 37h196q-39 -166 -137 -293q-94 -123 -260 -213z" />
<glyph unicode="&#x2022;" horiz-adv-x="1206" d="M307 762q0 123 86 209t213 86q123 0 209 -86t86 -209q0 -125 -86 -211t-211 -86t-211 86t-86 211z" />
<glyph unicode="&#x2026;" horiz-adv-x="2048" d="M209 104q12 55 57 94.5t103 39.5q55 0 86 -39q33 -41 20 -95q-12 -55 -57 -94t-103 -39q-55 0 -86 39q-32 41 -20 94zM891 104q12 55 57 94.5t103 39.5q55 0 86 -39q33 -41 20 -95q-12 -55 -57 -94t-103 -39q-55 0 -86 39q-32 41 -20 94zM1573 104q12 55 57 94.5 t103 39.5q55 0 86 -39q33 -41 20 -95q-12 -55 -57 -94t-103 -39q-55 0 -86 39q-32 41 -20 94z" />
<glyph unicode="&#x202f;" horiz-adv-x="378" />
<glyph unicode="&#x2039;" horiz-adv-x="817" d="M150 559l16 82l551 418l-23 -115l-364 -344l229 -344l-20 -115z" />
<glyph unicode="&#x203a;" horiz-adv-x="817" d="M104 141l23 115l362 344l-229 344l23 115l387 -418l-17 -82z" />
<glyph unicode="&#x2044;" horiz-adv-x="339" d="M719 1520h149l-1245 -1549h-149z" />
<glyph unicode="&#x205f;" horiz-adv-x="473" />
<glyph unicode="&#x2074;" horiz-adv-x="819" d="M428 971l80 407l-387 -407h307zM657 668h-434l17 84h145l29 137h-400l17 84l504 530h141l-105 -532h164l-14 -82h-166l-27 -137h146z" />
<glyph unicode="&#x20ac;" d="M-47 539l63 104h136q4 16 6 39q4 33 10 63.5t12 57.5q8 33 13 47h-181l66 104h145q98 266 262 414q168 152 357 152q98 0 190 -31q90 -31 205 -100l-66 -342h-106q14 178 -43 276q-59 98 -180 98q-137 0 -242 -118q-106 -123 -170 -349h504l-68 -104h-463q0 -4 -10 -37 q-10 -45 -14 -68q0 -2 -8 -43q-2 -6 -5.5 -27.5t-5.5 -31.5h375l-65 -104h-322q-20 -229 37 -349q59 -121 195 -120q115 0 208 84q86 78 148 241h133q-84 -207 -219 -315.5t-311 -108.5q-186 0 -295 152q-106 147 -103 416h-188z" />
<glyph unicode="&#x2122;" horiz-adv-x="2048" d="M242 1323v170h557v-170h-68v104h-153v-446h86v-66h-287v66h86v446h-156v-104h-65zM885 915v66h86v446h-86v66h233l174 -270l181 270h219v-66h-86v-446h86v-66h-285v66h86v426l-209 -311h-43l-199 311v-426h84v-66h-241z" />
<glyph unicode="&#xe000;" horiz-adv-x="1065" d="M0 1065h1065v-1065h-1065v1065z" />
<glyph unicode="&#xfb01;" horiz-adv-x="1363" d="M-127 -426l12 98q102 0 156 56q55 66 82 206l199 1022h-177l21 107h176l18 96q37 195 175 297q133 100 366 100q72 0 176 -14q94 -12 172 -39l-43 -217h-94q4 25 4 35q0 59 -43 94q-53 43 -176 43q-150 0 -238 -72q-86 -70 -112 -223l-21 -100h711l-186 -957h174 l-21 -106h-356l184 956h-526l-199 -1022q-33 -178 -145 -270q-109 -90 -289 -90z" />
<glyph unicode="&#xfb02;" horiz-adv-x="1363" d="M-127 -426l12 98q102 0 156 56q55 66 82 206l199 1022h-177l21 107h176l18 96q41 201 178.5 299t383.5 98h397l-283 -1450h174l-18 -106h-361l281 1450h-215q-160 0 -242 -66q-78 -63 -108 -221l-21 -100h295l-20 -107h-295l-199 -1022q-33 -178 -145 -270 q-109 -90 -289 -90z" />
<glyph unicode="&#xfb03;" horiz-adv-x="1927" d="M-127 -426l12 98q102 0 156 56q55 66 82 206l199 1022h-177l21 107h176l27 133q35 180 143 268q111 92 291 92q66 0 131 -12t127 -37l-41 -202h-96q4 29 4 41q0 46 -25 73q-33 39 -112 39q-102 0 -156 -57q-55 -57 -82 -201l-27 -137h490l18 96q37 195 174 297 q133 100 367 100q70 0 174 -14q94 -12 172 -39l-43 -217h-92q2 12 2 35q0 59 -41 94q-51 43 -176 43q-150 0 -238 -72q-84 -70 -114 -223l-21 -100h713l-187 -957h174l-20 -106h-358l186 956h-528l-199 -1022q-33 -178 -145 -270q-109 -90 -289 -90l12 98q102 0 156 56 q55 61 82 206l198 1022h-487l-199 -1022q-33 -178 -145 -270q-109 -90 -289 -90z" />
<glyph unicode="&#xfb04;" horiz-adv-x="2017" d="M-127 -426q180 0 289 90q113 92 145 270l199 1022h514l-199 -1022q-27 -141 -82 -206q-51 -55 -155 -56l-13 -98q180 0 289 90q113 92 146 270l196 1022h295l23 107h-295l18 100q31 157 111 221q82 66 241 66h215l-280 -1450h358l21 106h-174l280 1450h-395 q-244 0 -383 -98q-137 -98 -178 -299l-19 -96h-514l27 137q27 143 82 201q53 57 156 57q80 0 112 -39q25 -28 25 -73q0 -12 -4 -41h96l41 202q-61 25 -127 37t-131 12q-180 0 -291 -92q-109 -88 -143 -268l-27 -133h-176l-21 -107h177l-199 -1022q-27 -141 -82 -206 q-53 -55 -156 -56z" />
<glyph horiz-adv-x="0" d="M-520 1511q47 0 75.5 -34.5t18.5 -81.5q-8 -47 -49 -82t-90 -35q-47 0 -76 35q-27 33 -18 82q10 47 51 82q45 34 88 34zM-129 1511q45 0 73.5 -34.5t18.5 -81.5q-8 -47 -49 -82t-90 -35t-78 35q-27 31 -16 82q10 47 51 82q45 34 90 34z" />
<glyph horiz-adv-x="0" d="M-272 1526h196l-313 -264h-119z" />
<glyph horiz-adv-x="0" d="M-375 1341l-43 29q-25 16 -37 21q-18 6 -34 6q-39 0 -72 -29q-31 -28 -43 -74h-96q23 104 84 160q63 59 147 59q31 0 66 -10q33 -10 77 -39l43 -26q31 -18 41 -21q20 -6 37 -6q45 0 72 26.5t37 75.5h96q-23 -104 -84 -161q-59 -57 -156 -58q-68 0 -131 45z" />
<glyph horiz-adv-x="0" d="M-385 1526l129 -264h-117l-209 264h197z" />
<glyph horiz-adv-x="0" d="M-424 1526h176l178 -264h-114l-172 161l-236 -161h-115z" />
</font>
</defs>
</svg>
