<?xml version="1.0" standalone="no"?>
<!DOCTYPE svg PUBLIC "-//W3C//DTD SVG 1.1//EN" "http://www.w3.org/Graphics/SVG/1.1/DTD/svg11.dtd" >
<svg xmlns="http://www.w3.org/2000/svg">
<metadata>
This is a custom SVG webfont generated by Font Squirrel.
Copyright   : Copyright c 2003 by Bitstream Inc All Rights ReservedDejaVu changes are in public domain
Foundry     : DejaVu fonts team
Foundry URL : httpdejavusourceforgenet
</metadata>
<defs>
<font id="webfontnyBkUaTr" horiz-adv-x="1280" >
<font-face units-per-em="2048" ascent="1556" descent="-492" />
<missing-glyph horiz-adv-x="638" />
<glyph unicode=" "  horiz-adv-x="638" />
<glyph unicode="&#x09;" horiz-adv-x="638" />
<glyph unicode="&#xa0;" horiz-adv-x="638" />
<glyph unicode="!" horiz-adv-x="808" d="M233 162q0 78 52 135q49 55 118 55q72 0 121 -55q51 -57 51 -135t-51 -135q-49 -55 -121 -56q-70 0 -118 56q-52 57 -52 135zM236 1493h337l-106 -842v-190h-125v190z" />
<glyph unicode="&#x22;" horiz-adv-x="958" d="M176 938v555h213v-555h-213zM571 938v555h213v-555h-213z" />
<glyph unicode="#" horiz-adv-x="1542" d="M125 383v215h295l63 274h-254v213h303l86 385h201l-86 -385h238l88 385h198l-88 -385h250v-213h-297l-61 -274h256v-215h-303l-86 -383h-201l86 383h-235l-89 -383h-198l86 383h-252zM621 598h237l64 274h-238z" />
<glyph unicode="$" d="M164 897q0 178 110.5 282.5t307.5 110.5v269h108v-269q96 -6 195 -28q100 -23 180 -60v-272h-111q-14 117 -81.5 180.5t-182.5 67.5v-373q244 -59 342 -157.5t98 -280.5q0 -184 -114.5 -287t-325.5 -109v-270h-108v270q-100 4 -201 25q-104 23 -205 63v291h109 q16 -139 84 -200q72 -66 200 -66h13v405q-225 55 -321.5 149.5t-96.5 258.5zM418 1022q0 -70 37 -113t127 -71v340q-80 -12 -121 -54q-43 -43 -43 -102zM690 84q94 12 139 55q47 43 48 117q0 72 -46 123q-41 47 -141 78v-373z" />
<glyph unicode="%" horiz-adv-x="1748" d="M43 1114q0 197 92 301.5t262 104.5q172 0 265 -105q90 -102 90 -301q0 -201 -90 -303q-92 -104 -265 -104q-170 0 -262 104t-92 303zM291 1114q0 -168 24.5 -237.5t81.5 -69.5q59 0 84 70q27 76 27 237q0 160 -27 236q-25 70 -84 69q-57 0 -82 -69q-24 -72 -24 -236z M379 -29l840 1549h153l-840 -1549h-153zM999 379q0 199 91 301q92 104 264 104q174 0 262 -104q90 -106 90 -301q0 -197 -90 -303q-88 -104 -262 -105q-172 0 -264 105q-91 102 -91 303zM1243 379q0 -162 27 -238q25 -70 84 -69q57 0 82 69q27 76 26 238q0 160 -26 235 q-25 70 -82 70q-59 0 -84 -70q-27 -75 -27 -235z" />
<glyph unicode="&#x26;" horiz-adv-x="1662" d="M74 451q0 160 78 278q76 115 243 199q-46 68 -67 129q-25 70 -25 117q0 162 125 256q121 90 348 90q68 0 156 -13q68 -10 198 -34v-312h-114q-14 119 -70 180q-51 57 -147 58q-94 0 -144 -47q-53 -49 -53 -131q0 -90 162 -275q12 -14 27 -28l413 -482q55 68 86 158 q27 78 37 201h-162v120h451v-120h-160q-14 -143 -55 -258q-39 -113 -109 -201l187 -215h151v-121h-430l-115 131q-90 -80 -198 -121q-104 -39 -238 -39q-270 0 -422 127q-153 130 -153 353zM391 516q0 -170 96.5 -278.5t243.5 -108.5q72 0 137 25q70 27 133 75l-509 588 q-49 -68 -74 -143q-27 -84 -27 -158z" />
<glyph unicode="'" horiz-adv-x="563" d="M176 938v555h213v-555h-213z" />
<glyph unicode="(" horiz-adv-x="870" d="M174 618q0 344 148 576q147 230 454 362v-120q-139 -94 -205 -285q-63 -184 -63 -532.5t63 -532.5q66 -190 205 -285v-120q-303 125 -452 358q-150 231 -150 579z" />
<glyph unicode=")" horiz-adv-x="870" d="M94 -199q143 96 204.5 284.5t61.5 533t-61 532.5t-205 285v120q307 -132 455 -362q147 -231 147 -576q0 -348 -149 -579q-150 -233 -453 -358v120z" />
<glyph unicode="*" horiz-adv-x="962" d="M41 874l324 170l-324 168l88 158l295 -242l-25 392h164l-22 -392l295 242l88 -158l-326 -168l326 -170l-88 -155l-295 239l22 -389h-164l25 389l-295 -239z" />
<glyph unicode="+" horiz-adv-x="1542" d="M195 528v230h475v526h207v-526h473v-230h-473v-526h-207v526h-475z" />
<glyph unicode="," horiz-adv-x="638" d="M25 -197q92 82 137 189q45 109 45 241v86h256v-8q0 -219 -84 -381q-84 -160 -256 -268z" />
<glyph unicode="-" horiz-adv-x="763" d="M100 414v270h566v-270h-566z" />
<glyph unicode="." horiz-adv-x="638" d="M150 162q0 80 49 135t120 55q74 0 123.5 -55t49.5 -135t-49.5 -135.5t-123.5 -55.5q-72 0 -120.5 55.5t-48.5 135.5z" />
<glyph unicode="/" horiz-adv-x="671" d="M0 -190l473 1683h201l-475 -1683h-199z" />
<glyph unicode="0" d="M86 745q0 377 143.5 576t411.5 199t411.5 -199t143.5 -575.5t-143.5 -575.5t-411.5 -199t-411.5 198.5t-143.5 575.5zM455 745.5q0 -444.5 39 -548.5q41 -109 147 -109q109 0 150 109q39 104 38 548q0 438 -38 547q-41 111 -150 111q-106 0 -147 -109 q-39 -104 -39 -548.5z" />
<glyph unicode="1" d="M225 1145v149l336 226h285v-1399h254v-121h-846v121h252v1208z" />
<glyph unicode="2" d="M123 0v244l199 153q254 193 340 332q84 135 83 320q0 176 -63 264q-66 90 -188 90q-104 0 -170 -72q-61 -66 -80 -207h-109v322q113 37 217 55q106 18 217 19q255 0 400 -117q143 -117 143 -324q0 -152 -78 -266q-84 -123 -303 -278l-375 -273h637v176h123v-438h-993z " />
<glyph unicode="3" d="M129 51v328h109q10 -143 79 -217q72 -74 195 -74q139 0 211 84q76 88 76 240q0 160 -78 250q-76 88 -221 88h-60v120h47q131 0 199 68q66 66 66 203q0 127 -61.5 194.5t-180.5 67.5q-106 0 -168 -64q-63 -68 -76 -188h-108v299q127 37 231 53q98 16 217 17q244 0 375 -97 q129 -95 129 -276q0 -133 -76 -219t-219 -113q178 -31 264 -133q86 -100 86 -279q0 -211 -149 -321q-152 -111 -432 -111q-111 0 -219 21q-127 24 -236 59z" />
<glyph unicode="4" d="M76 393v115l563 1012h338v-998h229v-129h-229v-272h199v-121h-740v121h201v272h-561zM236 522h401v725z" />
<glyph unicode="5" d="M152 53v326h106q6 -150 70 -219q66 -72 188 -72q132 0 197 98q63 96 63 301q0 195 -63 297q-61 98 -189 99q-70 0 -123 -31q-51 -31 -100 -98h-88v739h827v-262h-721v-328q66 55 134 78q74 25 153 25q248 0 393 -140q143 -137 144 -379q0 -246 -143.5 -381t-403.5 -135 q-117 0 -219 21q-127 24 -225 61z" />
<glyph unicode="6" d="M117 698q0 403 157 615q156 207 467 207q88 0 174 -15q94 -16 197 -45v-264h-108q-20 100 -84 153.5t-162 53.5q-160 0 -232 -123q-72 -125 -71 -395q61 55 129 78q80 27 157 26q209 0 326 -135t117 -367q0 -244 -133 -381q-132 -135 -375 -135q-276 0 -417.5 184.5 t-141.5 542.5zM483 479q0 -219 39 -303q41 -88 131 -88q92 0 133 88q39 84 39 303t-39 303q-41 88 -133 88q-90 0 -131 -88q-39 -84 -39 -303z" />
<glyph unicode="7" d="M145 1008v485h985v-254l-555 -1239h-184l541 1210h-664v-202h-123z" />
<glyph unicode="8" d="M94 397q0 164 84 267q84 104 244 131q-141 37 -211 120q-72 88 -72 215q0 188 129 289q127 100 371 101q246 0 373 -100.5t127 -289.5q0 -131 -70 -215q-68 -84 -213 -120q160 -27 244 -131q84 -102 84 -267q0 -207 -140 -315q-141 -111 -405 -111q-262 0 -403.5 110.5 t-141.5 315.5zM455 414q0 -188 41 -256q43 -70 143 -70q102 0 145 70q41 68 41 256t-41 252q-45 70 -145 69q-102 0 -143 -69.5t-41 -251.5zM489 1126q0 -158 33 -215q35 -59 117 -59q84 0 119 59q33 57 33 215q0 160 -33 217q-35 59 -119 60q-82 0 -117 -60 q-33 -57 -33 -217z" />
<glyph unicode="9" d="M100 1004q0 250 131 383t375 133q276 0 417.5 -184.5t141.5 -542.5q0 -403 -157 -615q-156 -207 -465 -207q-88 0 -174 15q-98 16 -199 45v264h109q20 -100 83.5 -153.5t163.5 -53.5q158 0 230 123q74 129 73 397q-59 -53 -130.5 -79.5t-157.5 -26.5q-207 0 -324 133 q-117 131 -117 369zM457 1012q0 -219 39 -303q41 -88 133 -88q90 0 131 88t41 303t-41 303t-131 88q-92 0 -133 -88q-39 -84 -39 -303z" />
<glyph unicode=":" horiz-adv-x="679" d="M170 162q0 80 49 135t121 55t121 -55t49 -135t-49 -135.5t-121 -55.5t-121 55.5t-49 135.5zM170 813q0 80 49 135.5t121 55.5t121 -55.5t49 -135.5q0 -78 -49 -133t-121 -55t-121 55t-49 133z" />
<glyph unicode=";" horiz-adv-x="679" d="M47 -188q98 84 139 186q43 104 43 242v88h258q0 -223 -84 -387q-82 -162 -256 -271zM170 813q0 80 49 135.5t121 55.5t121 -55.5t49 -135.5q0 -78 -49 -133t-121 -55t-121 55t-49 133z" />
<glyph unicode="&#x3c;" horiz-adv-x="1542" d="M195 530v226l1155 463v-240l-881 -338l881 -336v-239z" />
<glyph unicode="=" horiz-adv-x="1542" d="M195 301v227h1155v-227h-1155zM195 756v227h1155v-227h-1155z" />
<glyph unicode="&#x3e;" horiz-adv-x="1542" d="M195 66v239l880 336l-880 338v240l1155 -463v-226z" />
<glyph unicode="?" horiz-adv-x="1079" d="M121 1145v307q104 31 211 51q90 16 194 17q225 0 348 -111t123 -315q0 -199 -118 -318q-117 -117 -336 -135v-205h-125v299q126 43 184 135q57 90 57 246q0 143 -55 217t-162 74q-98 0 -151 -66q-51 -63 -62 -196h-108zM307 162q0 78 51 135q49 55 121 55t121 -55 q51 -57 51 -135t-51 -135q-49 -55 -120.5 -55.5t-121.5 55.5q-51 57 -51 135z" />
<glyph unicode="@" horiz-adv-x="1841" d="M123 543q0 193 57 356q57 160 174 291q115 127 262.5 188.5t331.5 61.5q158 0 291 -49.5t236 -145.5q119 -109 178 -254q59 -143 59 -315q0 -276 -141 -430t-397 -154h-29v148q-43 -76 -105 -111q-66 -37 -143 -37q-174 0 -272 121q-98 119 -99 330q0 212 99 331 q98 119 272 119q76 0 143 -39q63 -37 105 -108v125h196v-742q129 39 199 156q72 119 72 293q0 139 -51 260q-49 117 -152 213q-86 80 -192 121q-104 41 -238 41q-115 0 -219 -35q-92 -31 -187 -104q-131 -111 -196 -271q-70 -168 -70 -360q0 -147 45 -293q41 -135 123 -238 q98 -119 223 -180t271 -61q109 0 213 34q106 35 194 101l51 -94q-111 -82 -239 -125q-127 -43 -254 -43q-174 0 -320 63q-150 66 -260 189q-117 125 -174 290q-57 164 -57 357zM743 543q0 -145 56 -236q55 -88 143 -88q92 0 148 78q55 76 55 207v76q0 129 -55 208 q-53 78 -148 78q-86 0 -143 -88q-56 -85 -56 -235z" />
<glyph unicode="A" horiz-adv-x="1429" d="M-14 0v121h108l506 1372h215l508 -1372h127v-121h-629v121h131l-110 305h-504l-113 -305h160v-121h-399zM383 547h416l-207 571z" />
<glyph unicode="B" horiz-adv-x="1556" d="M86 0v121h172v1251h-172v121h797q246 0 368.5 -92t122.5 -277q0 -135 -84 -211q-86 -77 -252 -98q201 -20 310 -121q109 -98 108 -262q0 -223 -151 -328q-150 -104 -471 -104h-748zM604 121h129q172 0 254 76q84 78 84 235q0 160 -84 240q-80 78 -254 78h-129v-629z M604 870h119q156 0 229.5 61.5t73.5 192.5t-72 189q-76 59 -231 59h-119v-502z" />
<glyph unicode="C" horiz-adv-x="1466" d="M78 745.5q0 356.5 196.5 565.5t538.5 209q121 0 250 -31q113 -27 272 -98v-367h-112q-33 184 -129 281q-94 94 -244 94q-199 0 -293 -160q-94 -158 -94 -493.5t94 -493.5q94 -160 295 -160q135 0 219 82q86 83 123 252h178q-53 -231 -190 -342q-141 -113 -369 -113 q-342 0 -538.5 209t-196.5 565.5z" />
<glyph unicode="D" horiz-adv-x="1597" d="M86 0v121h172v1251h-172v121h690q360 0 553 -192.5t193 -552.5q0 -358 -193 -555q-190 -193 -553 -193h-690zM604 121h125q211 0 309 149q98 152 98.5 477.5t-98 475t-309.5 149.5h-125v-1251z" />
<glyph unicode="E" horiz-adv-x="1402" d="M86 0v121h172v1251h-172v121h1208v-352h-125v215h-565v-479h352v190h123v-516h-123v190h-352v-604h584v215h123v-352h-1225z" />
<glyph unicode="F" horiz-adv-x="1306" d="M86 0v121h172v1251h-172v121h1198v-352h-123v215h-555v-479h342v190h123v-516h-123v190h-342v-620h211v-121h-731z" />
<glyph unicode="G" horiz-adv-x="1572" d="M78 745.5q0 360.5 196.5 567.5t542.5 207q145 0 285 -31q127 -29 280 -98v-367h-114q-41 199 -135.5 287t-266.5 88q-207 0 -305 -158q-98 -156 -98 -496q0 -332 94 -495q90 -158 291 -158q74 0 139 19q63 18 119 57v410h-162v120h483v-573q-162 -82 -301 -117 q-152 -37 -309 -37q-346 0 -542.5 207t-196.5 567.5z" />
<glyph unicode="H" horiz-adv-x="1740" d="M86 0v121h172v1251h-172v121h692v-121h-174v-502h535v502h-170v121h690v-121h-172v-1251h172v-121h-690v121h170v612h-535v-612h174v-121h-692z" />
<glyph unicode="I" horiz-adv-x="860" d="M86 0v121h172v1251h-172v121h692v-121h-174v-1251h174v-121h-692z" />
<glyph unicode="J" horiz-adv-x="870" d="M-135 -123h117q6 -92 40.5 -137t102.5 -45q88 0 123 74q35 76 35 280v1323h-197v121h717v-121h-172v-1331q0 -244 -111 -354q-113 -113 -350 -113q-84 0 -152 16q-82 20 -153 52v235z" />
<glyph unicode="K" horiz-adv-x="1601" d="M86 0v121h172v1251h-172v121h692v-121h-174v-545l570 545h-144v121h502v-121h-178l-484 -461l656 -790h133v-121h-457l-598 725v-604h174v-121h-692z" />
<glyph unicode="L" horiz-adv-x="1294" d="M86 0v121h172v1251h-172v121h692v-121h-174v-1235h531v236h120v-373h-1169z" />
<glyph unicode="M" horiz-adv-x="2039" d="M78 0v121h170v1251h-170v121h555l383 -958l385 958h553v-121h-172v-1251h172v-121h-690v121h170v1139l-416 -1041h-230l-413 1041v-1139h170v-121h-467z" />
<glyph unicode="N" horiz-adv-x="1683" d="M82 0v121h172v1251h-172v121h420l811 -1057v936h-172v121h471v-121h-172v-1372h-238l-821 1079v-958h170v-121h-469z" />
<glyph unicode="O" horiz-adv-x="1603" d="M78 745q0 362 192 568q195 207 533 207t530.5 -205t192.5 -569.5t-192.5 -569.5t-530.5 -205q-340 0 -532.5 204.5t-192.5 569.5zM463 745.5q0 -327.5 84 -491.5q82 -162 256 -162q170 0 254 162t84 491.5t-84 491.5t-254 162q-174 0 -256 -162q-84 -164 -84 -491.5z" />
<glyph unicode="P" horiz-adv-x="1384" d="M86 0v121h172v1251h-172v121h766q225 0 356 -119t131 -317q0 -201 -131 -320t-356 -119h-248v-497h217v-121h-735zM604 739h103q117 0 186 86q70 84 70 232q0 141 -70 229q-68 86 -186 86h-103v-633z" />
<glyph unicode="Q" horiz-adv-x="1603" d="M78 745q0 362 192 568q195 207 533 207t530.5 -205t192.5 -570q0 -319 -148 -516q-150 -201 -422 -245q43 -55 117 -82q68 -25 176 -25h47v-246h-26q-172 0 -285 82q-115 84 -188 258q-340 6 -531 209q-188 200 -188 565zM463 745.5q0 -327.5 84 -491.5q82 -162 256 -162 q170 0 254 162t84 491.5t-84 491.5t-254 162q-174 0 -256 -162q-84 -164 -84 -491.5z" />
<glyph unicode="R" horiz-adv-x="1529" d="M86 0v121h172v1251h-172v121h768q231 0 360 -104q127 -102 127 -297q0 -156 -90 -246q-92 -92 -272 -117q76 -12 133 -59q55 -47 96 -133l197 -416h137v-121h-440l-215 451q-57 133 -107 178q-41 39 -121 39h-55v-547h174v-121h-692zM604 788h119q127 0 195 76 q68 78 67 217q0 141 -67 215q-70 76 -195 76h-119v-584z" />
<glyph unicode="S" horiz-adv-x="1329" d="M123 1051q0 223 131 346t373 123q111 0 245 -23q115 -18 265 -65v-330h-115q-29 158 -115 225q-90 72 -252 72q-135 0 -200 -51q-68 -52 -68 -154q0 -90 47 -141q43 -47 230 -101l200 -55q190 -53 273 -162q84 -113 84 -303q0 -227 -141.5 -344t-411.5 -117 q-133 0 -262 25q-135 25 -265 76v354h115q29 -170 125 -252t268 -82q135 0 211 60q74 58 74 172q0 92 -49 141t-205 92l-201 55q-195 55 -276 156q-80 99 -80 283z" />
<glyph unicode="T" horiz-adv-x="1370" d="M20 1120v373h1334v-373h-123v236h-371v-1235h180v-121h-706v121h178v1235h-369v-236h-123z" />
<glyph unicode="U" horiz-adv-x="1605" d="M63 1372v121h691v-121h-172v-747q0 -279 80 -389q82 -113 268 -113t262 113q78 115 78 389v747h-170v121h467v-121h-172v-768q0 -342 -133.5 -487.5t-448.5 -145.5q-309 0 -444.5 147.5t-135.5 487.5v766h-170z" />
<glyph unicode="V" horiz-adv-x="1429" d="M-10 1372v121h628v-121h-129l363 -989l365 989h-160v121h399v-121h-113l-505 -1372h-215l-506 1372h-127z" />
<glyph unicode="W" horiz-adv-x="2068" d="M-16 1372v121h637v-121h-144l256 -917l291 1038h256l295 -1055l260 934h-160v121h416v-121h-137l-383 -1372h-234l-303 1087l-305 -1087h-231l-383 1372h-131z" />
<glyph unicode="X" horiz-adv-x="1429" d="M8 1372v121h670v-121h-150l260 -420l259 420h-156v121h467v-121h-166l-332 -536l440 -715h127v-121h-669v121h149l-282 454l-281 -454h166v-121h-477v121h166l354 571l-422 680h-123z" />
<glyph unicode="Y" horiz-adv-x="1314" d="M-16 1372v121h645v-121h-150l301 -569l301 569h-133v121h385v-121h-114l-373 -702v-549h180v-121h-709v121h181v497l-400 754h-114z" />
<glyph unicode="Z" horiz-adv-x="1343" d="M68 0v141l802 1215h-643v-223h-123v360h1166v-141l-793 -1215h678v209h125v-346h-1212z" />
<glyph unicode="[" horiz-adv-x="870" d="M229 -270v1826h512v-120h-192v-1586h192v-120h-512z" />
<glyph unicode="\" horiz-adv-x="671" d="M0 1493h199l475 -1683h-201z" />
<glyph unicode="]" horiz-adv-x="870" d="M129 -150h193v1586h-193v120h512v-1826h-512v120z" />
<glyph unicode="^" horiz-adv-x="1542" d="M186 936l490 557h201l481 -557h-193l-393 315l-393 -315h-193z" />
<glyph unicode="_" horiz-adv-x="919" d="M0 -293h922v-190h-922v190z" />
<glyph unicode="`" horiz-adv-x="919" d="M127 1638h252l231 -376h-147z" />
<glyph unicode="a" horiz-adv-x="1193" d="M76 309q0 180 112.5 268.5t339.5 88.5h168v63q0 129 -55 190.5t-170 61.5q-95 0 -147 -43q-49 -41 -72 -143h-102v229q82 33 176 51q82 16 194 17q258 0 377 -106.5t119 -332.5v-532h135v-121h-455v135q-68 -88 -139 -125q-76 -39 -176 -39q-145 0 -227 88 q-78 84 -78 250zM391 338q0 -100 35 -152q33 -49 106.5 -49t118.5 53.5t45 143.5v213h-118q-90 0 -138 -53q-49 -56 -49 -156z" />
<glyph unicode="b" horiz-adv-x="1286" d="M43 0v121h135v1315h-135v120h455v-628q39 82 108.5 123t169.5 41q205 0 322 -150q117 -152 116 -410q0 -261 -116 -411q-117 -150 -322 -150q-100 0 -169.5 41t-108.5 123v-135h-455zM498 479q0 -184 43 -268t139 -84q98 0 137 88q39 86 39 317.5t-39 315.5 q-41 88 -137 88t-139 -82q-43 -83 -43 -270v-105z" />
<glyph unicode="c" horiz-adv-x="1120" d="M76 532q0 262 139 412q137 147 383 148q106 0 203 -21q109 -23 207 -63v-295h-101q-16 139 -71 200q-59 66 -158 66q-135 0 -191 -100q-57 -104 -57 -347q0 -240 55.5 -344t180.5 -104q96 0 153 63q59 66 72 185h149q-33 -178 -141 -271q-106 -90 -287 -90 q-256 0 -397 148q-139 145 -139 413z" />
<glyph unicode="d" horiz-adv-x="1286" d="M76 532q0 258 117 410q117 150 319 150q100 0 170 -41t109 -123v508h-138v120h457v-1435h135v-121h-454v135q-39 -82 -109 -123t-170 -41q-203 0 -319 150q-117 150 -117 411zM430 532q0 -225 41 -317q39 -88 139 -88q94 0 137.5 84t43.5 268v105q0 187 -43 270 q-43 82 -138 82q-98 0 -139 -88.5t-41 -315.5z" />
<glyph unicode="e" horiz-adv-x="1171" d="M76 532q0 264 135 412t379 148q240 0 364 -156q127 -158 136 -455h-660v-8q0 -201 57 -297q55 -92 181 -92q102 0 165.5 61.5t81.5 176.5h152q-39 -180 -156 -267q-115 -84 -321 -84q-248 0 -381 145.5t-133 415.5zM430 600h309q0 207 -34 295q-33 84 -121 84 q-80 0 -117 -82t-37 -279v-18z" />
<glyph unicode="f" horiz-adv-x="790" d="M57 942v121h142v133q0 176 102 268q100 92 297 92q70 0 152 -10q63 -8 143 -28v-228h-102q-6 80 -41 117q-33 37 -97 37q-72 0 -102 -58q-33 -61 -33 -186v-137h240v-121h-240v-821h184v-121h-639v121h136v821h-142z" />
<glyph unicode="g" horiz-adv-x="1286" d="M76 532q0 258 117 410q117 150 319 150q100 0 170 -41t109 -123v135h454v-121h-135v-928q0 -223 -143 -346q-144 -123 -406 -123q-90 0 -194 17q-94 14 -201 49v254h100q14 -102 78 -156q59 -51 178 -51q150 0 209.5 78t59.5 278v121q-39 -82 -109 -123t-170 -41 q-203 0 -319 150q-117 150 -117 411zM430 532q0 -225 41 -317q39 -88 139 -88q94 0 137.5 84t43.5 268v105q0 187 -43 270q-43 82 -138 82q-98 0 -139 -88.5t-41 -315.5z" />
<glyph unicode="h" horiz-adv-x="1339" d="M57 1436v120h461v-643q57 94 131 138q70 41 187 41q160 0 243 -105q82 -102 82 -311v-555h137v-121h-573v121h117v565q0 137 -31 188.5t-106 51.5q-96 0 -141.5 -78t-45.5 -250v-477h117v-121h-572v121h136v1315h-142z" />
<glyph unicode="i" horiz-adv-x="698" d="M63 0v121h136v821h-136v121h455v-942h135v-121h-590zM170 1364q0 82 49 137t123 55t123 -55t49 -137q0 -80 -49 -135t-123 -55t-123 55t-49 135z" />
<glyph unicode="j" horiz-adv-x="665" d="M-137 -190h102q4 -82 29 -117q27 -35 86 -35q66 0 90 47q27 49 27 170v1067h-136v121h455v-1188q0 -163 -104 -246q-106 -84 -308 -84q-47 0 -114 11q-55 8 -127 28v226zM160 1364q0 80 51 137q49 55 123 55q70 0 121 -57t51 -135t-51 -135q-49 -55 -121 -55 q-74 0 -123 55q-51 57 -51 135z" />
<glyph unicode="k" horiz-adv-x="1275" d="M63 0v121h136v1315h-136v120h455v-999l385 385h-115v121h439v-121h-178l-246 -246l401 -575h105v-121h-549v121h112l-266 379l-88 -88v-291h121v-121h-576z" />
<glyph unicode="l" horiz-adv-x="698" d="M63 0v121h136v1315h-136v120h455v-1435h135v-121h-590z" />
<glyph unicode="m" horiz-adv-x="1949" d="M63 0v121h136v821h-136v121h455v-150q55 92 127 135.5t170 43.5q117 0 191 -50q72 -49 112 -153q61 104 144 155q74 47 182 48q164 0 246 -102.5t82 -313.5v-555h137v-121h-572v121h115v502q0 201 -26.5 252t-102.5 51q-86 0 -131 -72q-47 -76 -47 -207v-526h115v-121 h-547v121h112v502q0 201 -26.5 252t-102.5 51q-86 0 -131 -72q-47 -76 -47 -207v-526h115v-121h-570z" />
<glyph unicode="n" horiz-adv-x="1339" d="M63 0v121h136v821h-136v121h455v-150q57 94 131 138q70 41 187 41q160 0 243 -105q82 -102 82 -311v-555h137v-121h-573v121h117v565q0 137 -31 188.5t-106 51.5q-96 0 -141.5 -78t-45.5 -250v-477h117v-121h-572z" />
<glyph unicode="o" horiz-adv-x="1228" d="M76 532q0 266 143 412q145 147 397 147.5t396 -147.5q143 -145 143 -412q0 -262 -143.5 -411.5t-395.5 -149.5q-254 0 -397 149.5t-143 411.5zM430 532q0 -254 43 -352q43 -96 143.5 -96t141.5 96q41 98 41 352q0 252 -41 351q-41 96 -141.5 96t-143.5 -96t-43 -351z" />
<glyph unicode="p" horiz-adv-x="1286" d="M43 -305h135v1247h-135v121h455v-135q39 82 108.5 123t169.5 41q205 0 322 -150q117 -152 116 -410q0 -261 -116 -411q-117 -150 -322 -150q-100 0 -169.5 41t-108.5 123v-440h147v-121h-602v121zM498 479q0 -184 43 -268t139 -84q98 0 137 88q39 86 39 317.5t-39 315.5 q-41 88 -137 88t-139 -82q-43 -83 -43 -270v-105z" />
<glyph unicode="q" horiz-adv-x="1286" d="M76 532q0 258 117 410q117 150 319 150q100 0 170 -41t109 -123v135h454v-121h-135v-1247h135v-121h-602v121h148v440q-39 -82 -109 -123t-170 -41q-203 0 -319 150q-117 150 -117 411zM430 532q0 -225 41 -317q39 -88 139 -88q94 0 137.5 84t43.5 268v105q0 187 -43 270 q-43 82 -138 82q-98 0 -139 -88.5t-41 -315.5z" />
<glyph unicode="r" horiz-adv-x="970" d="M53 942v121h465v-189q47 113 123 164q78 53 188 54q14 0 68 -5q40 -3 92 -12v-317h-100q-6 86 -41 127t-107 41q-102 0 -163 -103q-59 -98 -60 -282v-420h172v-121h-627v121h136v821h-146z" />
<glyph unicode="s" horiz-adv-x="1036" d="M80 750q0 172 106 258q104 84 334 84q92 0 180 -15q98 -16 213 -49v-268h-102q-10 111 -70 164q-61 55 -178 55q-94 0 -145 -35t-51 -100q0 -51 28 -84q29 -31 105 -53l131 -37q188 -53 260 -131t72 -217q0 -178 -117 -264.5t-359 -86.5q-94 0 -188 15q-113 16 -213 45 v297h102q12 -119 80 -181q70 -63 185 -63q96 0 147 37t51 108q0 66 -33 99q-39 39 -126 61l-132 37q-147 39 -215 117q-65 74 -65 207z" />
<glyph unicode="t" horiz-adv-x="849" d="M43 942v121h139v330h320v-330h266v-121h-266v-651q0 -143 18 -172q23 -35 74 -35q57 0 84 43t31 133h133q-10 -162 -78 -225q-70 -63 -244 -64q-197 0 -266 68q-72 68 -72 252v651h-139z" />
<glyph unicode="u" horiz-adv-x="1339" d="M43 942v121h455v-621q0 -201 30 -252q31 -53 109 -53q100 0 141 78q43 80 43 252v475h-114v121h434v-942h137v-121h-457v150q-57 -94 -131 -138q-70 -41 -184 -41q-162 0 -244 105q-84 106 -84 311v555h-135z" />
<glyph unicode="v" horiz-adv-x="1069" d="M-33 942v121h549v-121h-117l242 -672l242 672h-125v121h358v-121h-110l-338 -942h-256l-340 942h-105z" />
<glyph unicode="w" horiz-adv-x="1585" d="M-16 942v121h542v-121h-112l176 -575l215 696h188l217 -709l181 588h-125v121h358v-121h-113l-288 -942h-219l-203 666l-205 -666h-217l-291 942h-104z" />
<glyph unicode="x" horiz-adv-x="1097" d="M0 0v121h137l254 397l-274 424h-109v121h586v-121h-117l170 -264l168 264h-117v121h373v-121h-127l-244 -379l285 -442h127v-121h-608v121h123l-181 280l-180 -280h127v-121h-393z" />
<glyph unicode="y" horiz-adv-x="1069" d="M-25 942v121h551v-121h-112l241 -629l228 629h-127v121h358v-121h-115l-424 -1182q-43 -117 -104 -166t-166 -49q-51 0 -96 11q-61 14 -119 32v222h103q4 -80 32 -115q31 -37 90.5 -37t94.5 35q33 33 71 135l15 37l-416 1077h-105z" />
<glyph unicode="z" horiz-adv-x="1044" d="M66 0v121l548 825h-413v-182h-107v299h891v-119l-551 -825h445v192h106v-311h-919z" />
<glyph unicode="{" horiz-adv-x="1183" d="M156 551v121h55q125 0 174 57q47 55 47 209v250q0 111 12 166q14 61 37 92q43 61 119 86q74 25 287 24h133v-120h-92q-102 0 -140 -47q-37 -45 -36 -183v-270q0 -156 -45 -227q-41 -66 -160 -97q117 -35 162 -100q43 -66 43 -225v-271q0 -135 36.5 -182t139.5 -47h92 v-121h-133q-213 0 -287 25q-76 25 -119 86q-23 31 -37 92q-12 55 -12 166v250q0 154 -47 209q-49 57 -174 57h-55z" />
<glyph unicode="|" horiz-adv-x="669" d="M238 -483v2048h192v-2048h-192z" />
<glyph unicode="}" horiz-adv-x="1183" d="M168 -213h90q100 0 137 47t37 182v271q0 154 45 225q43 68 162 100q-115 31 -162 99q-45 66 -45 225v270q0 137 -37 183q-37 47 -137 47h-90v120h131q213 0 287 -24q72 -25 119 -86q25 -37 36 -92q10 -47 11 -166v-250q0 -151 49 -209q49 -57 174 -57h55v-121h-55 q-125 0 -174 -57q-49 -58 -49 -209v-250q0 -121 -11 -166q-12 -55 -36 -92q-47 -61 -119 -86q-74 -25 -287 -25h-131v121z" />
<glyph unicode="~" horiz-adv-x="1542" d="M195 453v206q88 86 170 127q86 41 174 41t221 -57q10 -4 15 -7t7 -3l15 -6q158 -68 245 -68q68 0 146 37q80 39 162 108v-206q-84 -86 -168 -127q-86 -41 -176 -41q-86 0 -222 57q-6 2 -12 5l-10 5q-2 0 -8 3t-11 5q-156 66 -241 66q-72 0 -146 -37q-83 -42 -161 -108z " />
<glyph unicode="&#xa1;" horiz-adv-x="808" d="M233 1329q0 78 52 135q49 55 118 56q72 0 121 -56q51 -57 51 -135q0 -76 -51 -133q-49 -55 -120.5 -55t-121 55t-49.5 133zM236 0l106 842v190h125v-190l106 -842h-337z" />
<glyph unicode="&#xa2;" d="M143 532q0 260 138 408q135 145 385 152v264h108v-269q45 -2 125 -22q41 -10 178 -57v-295h-100q-12 123 -64 190q-49 63 -139 76v-891q82 14 129 78q49 66 58 166h149q-27 -156 -115 -246t-221 -109v-276h-108v270q-252 6 -385 152q-138 149 -138 409zM498 532 q0 -213 38.5 -311t129.5 -127v875q-90 -25 -129 -125q-39 -99 -39 -312z" />
<glyph unicode="&#xa3;" d="M131 0v121h174v573h-174v121h174v277q0 213 121 321q119 106 367 107q66 0 139 -9q100 -10 190 -26v-283h-108q-6 96 -49 152q-41 53 -121 53q-106 0 -152 -74q-45 -72 -45 -250v-268h318v-121h-318v-557h377v228h125v-365h-1018z" />
<glyph unicode="&#xa4;" horiz-adv-x="1171" d="M68 215l188 209q-29 47 -41 100q-12 52 -12 117q0 72 12 117q14 49 41 100l-188 205l139 158l184 -211q39 29 94 45q45 14 103 14q53 0 98 -14q51 -16 100 -45l185 211l137 -154l-188 -205q29 -57 41 -112.5t12 -108.5q0 -63 -12 -115q-12 -53 -41 -100l188 -211 l-139 -154l-189 211q-39 -29 -88 -45q-45 -14 -104 -14q-55 0 -101 14q-59 18 -96 41l-186 -207zM391 641q0 -88 58 -156q55 -63 139 -63q82 0 139 63.5t57 155.5t-57 155.5t-139 63.5t-139.5 -63.5t-57.5 -155.5z" />
<glyph unicode="&#xa5;" d="M35 1372v121h624v-121h-151l231 -551l230 551h-135v121h393v-121h-123l-199 -477h262v-117h-313l-47 -116v-78h360v-117h-360v-346h170v-121h-684v121h172v346h-363v117h363v59l-55 135h-308v117h256l-200 477h-123z" />
<glyph unicode="&#xa6;" horiz-adv-x="669" d="M238 -350v758h192v-758h-192zM238 674v758h192v-758h-192z" />
<glyph unicode="&#xa7;" horiz-adv-x="962" d="M57 674q0 104 52 176q53 74 155 117q-74 46 -110 110q-35 61 -35 154q0 137 96 213t274 76q80 0 146 -11q68 -10 172 -34v-240h-107q-6 84 -53 129q-45 43 -133 43q-76 0 -115 -37q-41 -37 -41 -104q0 -46 25 -80q23 -33 106 -80l121 -72q168 -98 234 -182 q63 -82 63 -199q0 -106 -51 -178q-53 -76 -154 -117q76 -47 109 -110q35 -66 35 -154q0 -135 -98 -213q-96 -76 -279 -76q-86 0 -156 11q-68 10 -174 34v240h109q6 -90 53 -131t141 -41q78 0 121 37q41 35 41 106q0 49 -22 80q-25 35 -107 80l-121 72q-168 98 -233 182 q-64 82 -64 199zM274 745q0 -59 41 -112q37 -47 140 -109l151 -88q40 34 62 74q20 39 20 82q0 61 -41 110q-45 55 -141 111l-150 88q-41 -35 -61 -72q-21 -39 -21 -84z" />
<glyph unicode="&#xa8;" horiz-adv-x="919" d="M127 1468.5q0 61.5 39 102.5q39 43 94 43q51 0 92 -43q39 -41 39 -103q0 -63 -39 -104q-40 -43 -92 -43q-53 0 -94 45q-39 41 -39 102.5zM528 1468.5q0 57.5 41 102.5q41 43 93 43q55 0 94 -43q39 -41 39 -102.5t-39 -102.5q-41 -45 -94 -45q-51 0 -92.5 45t-41.5 102.5z " />
<glyph unicode="&#xa9;" horiz-adv-x="1841" d="M256 741q0 158 47 285q49 132 148 240q102 113 215 164q121 55 256 55t254 -55q117 -53 217 -164q98 -108 147 -240q47 -127 47 -285q0 -160 -47 -282q-51 -135 -147 -240q-100 -111 -217 -164q-119 -55 -254.5 -55t-255.5 55q-113 51 -215 164q-96 104 -148 240 q-47 122 -47 282zM391 741q0 -123 39 -225q40 -104 117 -190t172 -129t203 -43q111 0 202 43q98 45 172 129q74 82 115 190q39 102 39 225t-39 226q-41 109 -115 190q-78 88 -172 131q-92 43 -202.5 43t-202.5 -43q-88 -41 -172 -131q-77 -86 -117 -190q-39 -103 -39 -226z M545 741q0 199 106 322q104 121 281 121q72 0 143 -19q82 -23 152 -57v-223h-97q-12 96 -57 147q-47 53 -121 53q-90 0 -145 -92t-55 -252q0 -162 53 -252t147 -90q68 0 111 45q45 47 65 136h123q-25 -139 -106.5 -209t-220.5 -70q-170 0 -275 121q-104 118 -104 319z" />
<glyph unicode="&#xaa;" horiz-adv-x="894" d="M55 973q0 127 84 190.5t258 63.5h127v28q0 90 -43 134q-45 45 -127 45q-70 0 -108 -33q-41 -35 -49 -94h-86v166q72 25 135 34q70 12 145 13q190 0 280.5 -74t90.5 -234v-362h102v-94h-340v92q-43 -55 -104 -84q-55 -27 -135 -27q-109 0 -170 62q-60 59 -60 174zM102 504 v135h717v-135h-717zM293 993q0 -63 26.5 -96t79.5 -33q55 0 90 37q35 39 35 100v132h-92q-66 0 -102.5 -37t-36.5 -103z" />
<glyph unicode="&#xab;" horiz-adv-x="1150" d="M141 516v168l422 385v-147l-215 -322l215 -321v-148zM555 516v168l424 385v-147l-215 -322l215 -321v-148z" />
<glyph unicode="&#xac;" horiz-adv-x="1542" d="M195 676v227h1155v-616h-207v389h-948z" />
<glyph unicode="&#xad;" horiz-adv-x="763" d="M100 414v270h566v-270h-566z" />
<glyph unicode="&#xae;" horiz-adv-x="1841" d="M256 741q0 158 47 285q49 132 148 240q102 113 215 164q121 55 256 55t254 -55q117 -53 217 -164q98 -108 147 -240q47 -127 47 -285q0 -160 -47 -282q-51 -135 -147 -240q-100 -111 -217 -164q-119 -55 -254.5 -55t-255.5 55q-113 51 -215 164q-96 104 -148 240 q-47 122 -47 282zM391 741q0 -123 39 -225q40 -104 117 -190t172 -129t203 -43q111 0 202 43q98 45 172 129q74 82 115 190q39 102 39 225t-39 226q-41 109 -115 190q-78 88 -172 131q-92 43 -202.5 43t-202.5 -43q-88 -41 -172 -131q-77 -86 -117 -190q-39 -103 -39 -226z M584 352v82h78v643h-78v82h407q109 0 170 -55q63 -57 64 -150q0 -86 -45 -141q-41 -49 -131 -59q39 -14 61 -37q27 -27 45 -68l90 -215h55v-82h-200l-107 254q-29 70 -55.5 90.5t-75.5 20.5h-22v-283h75v-82h-331zM840 799h59q68 0 109 37q39 37 39 102.5t-39 101.5 q-41 37 -109 37h-59v-278z" />
<glyph unicode="&#xaf;" horiz-adv-x="919" d="M176 1360v188h567v-188h-567z" />
<glyph unicode="&#xb0;" horiz-adv-x="919" d="M160 1200q0 139 88 238q86 96 213 96q59 0 114 -25q51 -23 99 -73q43 -49 63 -109q23 -63 23 -126.5t-23 -127.5q-20 -59 -61 -106t-101 -74q-55 -25 -116 -25q-127 0 -213 94.5t-86 237.5zM305 1200q0 -70 45 -121q43 -49 111 -49q65 0 110 49q45 47 45 121 q0 76 -45 123q-46 49 -110.5 49t-110.5 -49q-45 -47 -45 -123z" />
<glyph unicode="&#xb1;" horiz-adv-x="1542" d="M195 0v227h1155v-227h-1155zM195 698v228h475v358h207v-358h473v-228h-473v-358h-207v358h-475z" />
<glyph unicode="&#xb2;" horiz-adv-x="806" d="M78 684v133l117 84q166 121 213 193q45 70 45 163q0 82 -39 132q-37 47 -103 47q-57 0 -96 -41t-45 -111h-84v195q66 23 131 30q76 10 139 11q166 0 254 -64q90 -66 90 -178q0 -83 -49 -147.5t-190 -153.5l-219 -139h372v96h91v-250h-627z" />
<glyph unicode="&#xb3;" horiz-adv-x="806" d="M82 711v200h86q6 -82 45 -120.5t109 -38.5q78 0 120.5 43t42.5 125q0 80 -45 124q-43 43 -125 43h-36v84h26q74 0 113 33t39 99q0 63 -35 98t-100 35q-57 0 -95 -37q-35 -35 -41 -101h-86v183q94 23 146 28q76 10 125 11q164 0 245 -52q84 -53 84 -153q0 -72 -47 -119 q-49 -49 -139 -63q109 -14 164 -72q55 -55 55 -148q0 -123 -92 -184t-272 -61q-66 0 -144 10q-61 8 -143 33z" />
<glyph unicode="&#xb4;" horiz-adv-x="919" d="M311 1262l234 376h250l-336 -376h-148z" />
<glyph unicode="&#xb5;" horiz-adv-x="1347" d="M51 -305h137v1247h-137v121h457v-596q0 -223 29 -274q31 -55 110 -56q94 0 139 80q45 78 45 250v475h-116v121h436v-942h135v-121h-455v125q-47 -82 -98 -119q-47 -35 -117 -35q-23 0 -53 11q-28 9 -55 30v-317h135v-121h-592v121z" />
<glyph unicode="&#xb6;" horiz-adv-x="1171" d="M131 1071q0 186 119 305q117 117 311 117h500v-125h-103v-1565h-137v1565h-145v-1565h-137v846q-197 18 -301 127q-107 109 -107 295z" />
<glyph unicode="&#xb7;" horiz-adv-x="638" d="M150 711q0 80 49 135t120 55q74 0 123.5 -55t49.5 -135q0 -78 -49.5 -133.5t-123.5 -55.5q-72 0 -120.5 55.5t-48.5 133.5z" />
<glyph unicode="&#xb8;" horiz-adv-x="919" d="M236 -219q35 -16 79 -27q35 -8 70 -8q57 0 82 23q29 25 29 69q0 31 -14.5 61.5t-61.5 100.5h115q53 -63 81 -119q27 -53 27 -106q0 -86 -57.5 -131t-167.5 -45q-41 0 -88 6q-31 4 -92 20z" />
<glyph unicode="&#xb9;" horiz-adv-x="806" d="M129 1290v105l199 125h204v-742h148v-94h-535v94h148v613z" />
<glyph unicode="&#xba;" horiz-adv-x="919" d="M55 1128q0 182 107 287q109 104 299 104.5t299 -104.5q106 -104 106 -286.5t-106 -286.5q-109 -104 -299.5 -104.5t-298.5 104.5q-107 104 -107 286zM102 504v135h717v-135h-717zM332 1128.5q0 -165.5 30.5 -235.5t98 -70t98.5 72q31 71 31 233q0 166 -31 236t-98.5 70 t-98 -70t-30.5 -235.5z" />
<glyph unicode="&#xbb;" horiz-adv-x="1150" d="M174 131v148l215 321l-215 322v147l422 -385v-168zM588 131v148l217 321l-217 322v147l422 -385v-168z" />
<glyph unicode="&#xbc;" horiz-adv-x="1921" d="M1839 16h-467v94h113v121h-328v88l342 533h227v-527h131v-94h-131v-121h113v-94zM1485 325v334l-215 -334h215zM129 1290v105l199 125h204v-742h148v-94h-535v94h148v613zM1305 1520h153l-841 -1549h-152z" />
<glyph unicode="&#xbd;" horiz-adv-x="1921" d="M129 1290v105l199 125h204v-742h148v-94h-535v94h148v613zM1305 1520h153l-841 -1549h-152zM1192 16v133l117 84q166 121 213 193q45 70 45 163q0 82 -39 132q-37 47 -103 47q-57 0 -96 -41t-45 -111h-84v195q66 23 131 30q76 10 139 11q166 0 254 -64q90 -66 90 -178 q0 -83 -49 -147.5t-190 -153.5l-219 -139h372v96h91v-250h-627z" />
<glyph unicode="&#xbe;" horiz-adv-x="1921" d="M1839 16h-467v94h113v121h-328v88l342 533h227v-527h131v-94h-131v-121h113v-94zM1485 325v334l-215 -334h215zM82 711v200h86q6 -82 45 -120.5t109 -38.5q78 0 120.5 43t42.5 125q0 80 -45 124q-43 43 -125 43h-36v84h26q74 0 113 33t39 99q0 63 -35 98t-100 35 q-57 0 -95 -37q-35 -35 -41 -101h-86v183q94 23 146 28q76 10 125 11q164 0 245 -52q84 -53 84 -153q0 -72 -47 -119q-49 -49 -139 -63q109 -14 164 -72q55 -55 55 -148q0 -123 -92 -184t-272 -61q-66 0 -144 10q-61 8 -143 33zM1305 1520h153l-841 -1549h-152z" />
<glyph unicode="&#xbf;" horiz-adv-x="1079" d="M84 397q0 201 116.5 317.5t338.5 135.5v205h125v-299q-126 -43 -185 -135q-59 -94 -59 -246q0 -143 55 -217t164 -74q96 0 149 66q53 68 64 196h109v-307q-100 -31 -213 -51q-90 -16 -195 -17q-225 0 -348 111q-121 108 -121 315zM430 1329q0 78 51 135q49 55 119 56 q72 0 121 -56q51 -57 51 -135q0 -76 -51 -133q-49 -55 -121 -55q-70 0 -119 55q-51 57 -51 133z" />
<glyph unicode="&#xc0;" horiz-adv-x="1429" d="M-14 0v121h108l506 1372h215l508 -1372h127v-121h-629v121h131l-110 305h-504l-113 -305h160v-121h-399zM383 547h416l-207 571zM680 1899l164 -264h-148l-266 264h250z" />
<glyph unicode="&#xc1;" horiz-adv-x="1429" d="M-14 0v121h108l506 1372h215l508 -1372h127v-121h-629v121h131l-110 305h-504l-113 -305h160v-121h-399zM383 547h416l-207 571zM709 1899h251l-268 -264h-147z" />
<glyph unicode="&#xc2;" horiz-adv-x="1429" d="M-14 0v121h108l506 1372h215l508 -1372h127v-121h-629v121h131l-110 305h-504l-113 -305h160v-121h-399zM383 547h416l-207 571zM557 1899h276l199 -264h-145l-193 161l-190 -161h-150z" />
<glyph unicode="&#xc3;" horiz-adv-x="1429" d="M-14 0v121h108l506 1372h215l508 -1372h127v-121h-629v121h131l-110 305h-504l-113 -305h160v-121h-399zM383 547h416l-207 571zM373 1635v12q0 125 47 190.5t139 65.5q57 0 127 -39l12 -6l66 -33q35 -16 41 -18q20 -4 31 -4q37 0 59 24q23 27 22 70v4h99v-15 q0 -127 -47 -188q-49 -66 -140 -65q-27 0 -61 10q-39 12 -78 35l-51 28q-33 16 -47 21q-23 6 -39 6q-37 0 -60 -25q-23 -27 -22 -69v-4h-98z" />
<glyph unicode="&#xc4;" horiz-adv-x="1429" d="M-14 0v121h108l506 1372h215l508 -1372h127v-121h-629v121h131l-110 305h-504l-113 -305h160v-121h-399zM383 547h416l-207 571zM360 1776q0 63 39 104q39 43 94 43q51 0 93 -43q39 -41 39 -104q0 -61 -39 -103q-41 -43 -93 -43q-55 0 -94 43q-39 42 -39 103zM764 1776 q0 63 39 104q41 43 92 43q55 0 94 -43q39 -41 39 -104q0 -61 -39 -103q-39 -43 -94 -43q-51 0 -92 43q-39 42 -39 103z" />
<glyph unicode="&#xc5;" horiz-adv-x="1429" d="M-14 0v121h108l467 1263q-53 37 -79.5 96.5t-26.5 135.5q0 117 73.5 201t180.5 84q104 0 182 -84q76 -82 76 -201q0 -72 -29 -133q-29 -59 -82 -99l467 -1263h127v-121h-629v121h131l-110 305h-504l-113 -305h160v-121h-399zM383 547h416l-205 571zM592 1616 q0 -55 35 -92q37 -39 82 -39q51 0 84 39q35 41 34.5 92t-34.5 92q-33 39 -84 39q-45 0 -82 -39q-35 -37 -35 -92z" />
<glyph unicode="&#xc6;" horiz-adv-x="1904" d="M-57 0v121h102l535 1251h-183v121h1397v-352h-125v215h-541v-479h330v190h121v-516h-121v190h-330v-604h560v215h122v-352h-1202v121h170v303h-469l-129 -303h148v-121h-385zM360 545h418v827h-65z" />
<glyph unicode="&#xc7;" horiz-adv-x="1466" d="M78 745.5q0 356.5 196.5 565.5t538.5 209q121 0 250 -31q113 -27 272 -98v-367h-112q-33 184 -129 281q-94 94 -244 94q-199 0 -293 -160q-94 -158 -94 -493.5t94 -493.5q94 -160 295 -160q135 0 219 82q86 83 123 252h178q-53 -231 -190 -342q-141 -113 -369 -113 q-342 0 -538.5 209t-196.5 565.5zM566 -219q35 -16 79 -27q35 -8 70 -8q57 0 82 23q29 25 29 69q0 31 -14.5 61.5t-61.5 100.5h115q53 -63 81 -119q27 -53 27 -106q0 -86 -57.5 -131t-167.5 -45q-41 0 -88 6q-31 4 -92 20z" />
<glyph unicode="&#xc8;" horiz-adv-x="1402" d="M86 0v121h172v1251h-172v121h1208v-352h-125v215h-565v-479h352v190h123v-516h-123v190h-352v-604h584v215h123v-352h-1225zM719 1899l164 -264h-148l-266 264h250z" />
<glyph unicode="&#xc9;" horiz-adv-x="1402" d="M86 0v121h172v1251h-172v121h1208v-352h-125v215h-565v-479h352v190h123v-516h-123v190h-352v-604h584v215h123v-352h-1225zM748 1899h251l-268 -264h-147z" />
<glyph unicode="&#xca;" horiz-adv-x="1402" d="M86 0v121h172v1251h-172v121h1208v-352h-125v215h-565v-479h352v190h123v-516h-123v190h-352v-604h584v215h123v-352h-1225zM596 1899h276l199 -264h-145l-193 161l-190 -161h-150z" />
<glyph unicode="&#xcb;" horiz-adv-x="1402" d="M86 0v121h172v1251h-172v121h1208v-352h-125v215h-565v-479h352v190h123v-516h-123v190h-352v-604h584v215h123v-352h-1225zM399 1776q0 63 39 104q39 43 94 43q51 0 93 -43q39 -41 39 -104q0 -61 -39 -103q-41 -43 -93 -43q-55 0 -94 43q-39 42 -39 103zM803 1776 q0 63 39 104q41 43 92 43q55 0 94 -43q39 -41 39 -104q0 -61 -39 -103q-39 -43 -94 -43q-51 0 -92 43q-39 42 -39 103z" />
<glyph unicode="&#xcc;" horiz-adv-x="860" d="M86 0v121h172v1251h-172v121h692v-121h-174v-1251h174v-121h-692zM418 1899l164 -264h-148l-266 264h250z" />
<glyph unicode="&#xcd;" horiz-adv-x="860" d="M86 0v121h172v1251h-172v121h692v-121h-174v-1251h174v-121h-692zM447 1899h251l-268 -264h-147z" />
<glyph unicode="&#xce;" horiz-adv-x="860" d="M86 0v121h172v1251h-172v121h692v-121h-174v-1251h174v-121h-692zM295 1899h276l199 -264h-145l-193 161l-190 -161h-150z" />
<glyph unicode="&#xcf;" horiz-adv-x="860" d="M86 0v121h172v1251h-172v121h692v-121h-174v-1251h174v-121h-692zM98 1776q0 63 39 104q39 43 94 43q51 0 93 -43q39 -41 39 -104q0 -61 -39 -103q-41 -43 -93 -43q-55 0 -94 43q-39 42 -39 103zM502 1776q0 63 39 104q41 43 92 43q55 0 94 -43q39 -41 39 -104 q0 -61 -39 -103q-39 -43 -94 -43q-51 0 -92 43q-39 42 -39 103z" />
<glyph unicode="&#xd0;" horiz-adv-x="1609" d="M80 713v137h190v522h-172v121h690q360 0 553 -193q190 -190 190.5 -552.5t-190 -555t-553.5 -192.5h-690v121h172v592h-190zM616 121h125q211 0 310 149q96 147 96 478q0 328 -96 475q-98 150 -310 149h-125v-522h299v-137h-299v-592z" />
<glyph unicode="&#xd1;" horiz-adv-x="1683" d="M82 0v121h172v1251h-172v121h420l811 -1057v936h-172v121h471v-121h-172v-1372h-238l-821 1079v-958h170v-121h-469zM521 1635v12q0 125 47 190.5t139 65.5q57 0 127 -39l12 -6l66 -33q35 -16 41 -18q20 -4 31 -4q37 0 59 24q23 27 22 70v4h99v-15q0 -127 -47 -188 q-49 -66 -140 -65q-27 0 -61 10q-39 12 -78 35l-51 28q-33 16 -47 21q-23 6 -39 6q-37 0 -60 -25q-23 -27 -22 -69v-4h-98z" />
<glyph unicode="&#xd2;" horiz-adv-x="1603" d="M78 745q0 362 192 568q195 207 533 207t530.5 -205t192.5 -569.5t-192.5 -569.5t-530.5 -205q-340 0 -532.5 204.5t-192.5 569.5zM463 745.5q0 -327.5 84 -491.5q82 -162 256 -162q170 0 254 162t84 491.5t-84 491.5t-254 162q-174 0 -256 -162q-84 -164 -84 -491.5z M789 1899l164 -264h-148l-266 264h250z" />
<glyph unicode="&#xd3;" horiz-adv-x="1603" d="M78 745q0 362 192 568q195 207 533 207t530.5 -205t192.5 -569.5t-192.5 -569.5t-530.5 -205q-340 0 -532.5 204.5t-192.5 569.5zM463 745.5q0 -327.5 84 -491.5q82 -162 256 -162q170 0 254 162t84 491.5t-84 491.5t-254 162q-174 0 -256 -162q-84 -164 -84 -491.5z M818 1899h251l-268 -264h-147z" />
<glyph unicode="&#xd4;" horiz-adv-x="1603" d="M78 745q0 362 192 568q195 207 533 207t530.5 -205t192.5 -569.5t-192.5 -569.5t-530.5 -205q-340 0 -532.5 204.5t-192.5 569.5zM463 745.5q0 -327.5 84 -491.5q82 -162 256 -162q170 0 254 162t84 491.5t-84 491.5t-254 162q-174 0 -256 -162q-84 -164 -84 -491.5z M666 1899h276l199 -264h-145l-193 161l-190 -161h-150z" />
<glyph unicode="&#xd5;" horiz-adv-x="1603" d="M78 745q0 362 192 568q195 207 533 207t530.5 -205t192.5 -569.5t-192.5 -569.5t-530.5 -205q-340 0 -532.5 204.5t-192.5 569.5zM463 745.5q0 -327.5 84 -491.5q82 -162 256 -162q170 0 254 162t84 491.5t-84 491.5t-254 162q-174 0 -256 -162q-84 -164 -84 -491.5z M482 1635v12q0 125 47 190.5t139 65.5q57 0 127 -39l12 -6l66 -33q35 -16 41 -18q20 -4 31 -4q37 0 59 24q23 27 22 70v4h99v-15q0 -127 -47 -188q-49 -66 -140 -65q-27 0 -61 10q-39 12 -78 35l-51 28q-33 16 -47 21q-23 6 -39 6q-37 0 -60 -25q-23 -27 -22 -69v-4h-98z " />
<glyph unicode="&#xd6;" horiz-adv-x="1603" d="M78 745q0 362 192 568q195 207 533 207t530.5 -205t192.5 -569.5t-192.5 -569.5t-530.5 -205q-340 0 -532.5 204.5t-192.5 569.5zM463 745.5q0 -327.5 84 -491.5q82 -162 256 -162q170 0 254 162t84 491.5t-84 491.5t-254 162q-174 0 -256 -162q-84 -164 -84 -491.5z M469 1776q0 63 39 104q39 43 94 43q51 0 93 -43q39 -41 39 -104q0 -61 -39 -103q-41 -43 -93 -43q-55 0 -94 43q-39 42 -39 103zM873 1776q0 63 39 104q41 43 92 43q55 0 94 -43q39 -41 39 -104q0 -61 -39 -103q-39 -43 -94 -43q-51 0 -92 43q-39 42 -39 103z" />
<glyph unicode="&#xd7;" horiz-adv-x="1542" d="M238 201l397 440l-397 440l139 156l395 -440l395 440l140 -156l-396 -440l396 -440l-140 -154l-395 440l-395 -440z" />
<glyph unicode="&#xd8;" horiz-adv-x="1603" d="M61 12l181 201q-82 100 -123 235.5t-41 296.5q0 362 192 568q195 207 533 207q145 0 262 -39q125 -41 215 -115l182 203l80 -90l-178 -199q82 -106 121 -238q41 -135 41 -297q0 -365 -192.5 -569.5t-530.5 -204.5q-145 0 -262 39q-120 40 -215 117l-185 -205zM463 745 q0 -57 4 -143q2 -45 14 -123l611 678q-35 117 -113 180q-74 61 -176 62q-174 0 -256 -162q-84 -164 -84 -492zM514 334q39 -117 113 -182q68 -59 176 -60q175 0 258 166q82 164 82 526q0 66 -6 115q-8 66 -17 94z" />
<glyph unicode="&#xd9;" horiz-adv-x="1605" d="M63 1372v121h691v-121h-172v-747q0 -279 80 -389q82 -113 268 -113t262 113q78 115 78 389v747h-170v121h467v-121h-172v-768q0 -342 -133.5 -487.5t-448.5 -145.5q-309 0 -444.5 147.5t-135.5 487.5v766h-170zM836 1899l164 -264h-148l-266 264h250z" />
<glyph unicode="&#xda;" horiz-adv-x="1605" d="M63 1372v121h691v-121h-172v-747q0 -279 80 -389q82 -113 268 -113t262 113q78 115 78 389v747h-170v121h467v-121h-172v-768q0 -342 -133.5 -487.5t-448.5 -145.5q-309 0 -444.5 147.5t-135.5 487.5v766h-170zM865 1899h251l-268 -264h-147z" />
<glyph unicode="&#xdb;" horiz-adv-x="1605" d="M63 1372v121h691v-121h-172v-747q0 -279 80 -389q82 -113 268 -113t262 113q78 115 78 389v747h-170v121h467v-121h-172v-768q0 -342 -133.5 -487.5t-448.5 -145.5q-309 0 -444.5 147.5t-135.5 487.5v766h-170zM713 1899h276l199 -264h-145l-193 161l-190 -161h-150z" />
<glyph unicode="&#xdc;" horiz-adv-x="1605" d="M63 1372v121h691v-121h-172v-747q0 -279 80 -389q82 -113 268 -113t262 113q78 115 78 389v747h-170v121h467v-121h-172v-768q0 -342 -133.5 -487.5t-448.5 -145.5q-309 0 -444.5 147.5t-135.5 487.5v766h-170zM516 1776q0 63 39 104q39 43 94 43q51 0 93 -43 q39 -41 39 -104q0 -61 -39 -103q-41 -43 -93 -43q-55 0 -94 43q-39 42 -39 103zM920 1776q0 63 39 104q41 43 92 43q55 0 94 -43q39 -41 39 -104q0 -61 -39 -103q-39 -43 -94 -43q-51 0 -92 43q-39 42 -39 103z" />
<glyph unicode="&#xdd;" horiz-adv-x="1314" d="M-16 1372v121h645v-121h-150l301 -569l301 569h-133v121h385v-121h-114l-373 -702v-549h180v-121h-709v121h181v497l-400 754h-114zM672 1899h251l-268 -264h-147z" />
<glyph unicode="&#xde;" horiz-adv-x="1394" d="M86 0v121h172v1251h-172v121h733v-121h-215v-170h248q225 0 356 -118.5t131 -317.5t-131 -317q-133 -121 -356 -121h-248v-207h217v-121h-735zM604 449h103q117 0 186 86q70 84 70 231q0 141 -70 229q-68 86 -186 86h-103v-632z" />
<glyph unicode="&#xdf;" horiz-adv-x="1398" d="M63 0v121h136v1026q0 201 127 305q125 104 366 104q236 0 359 -106q121 -106 145 -334h-20q-141 0 -211 -45t-70 -135q0 -41 20.5 -74t94.5 -94l80 -63q162 -131 202 -207q43 -80 43 -187q0 -160 -110 -250q-113 -90 -314 -90q-78 0 -151 15q-84 16 -168 45v258h108 q12 -106 55.5 -155.5t129.5 -49.5q68 0 110.5 43t42.5 117q0 106 -147 223q-10 8 -18.5 13t-12.5 9l-80 64q-92 74 -131 152q-41 82 -41 184q0 133 72 217q68 80 217 115q-6 125 -49 174t-143.5 49t-143.5 -60q-43 -57 -43 -194v-1190h-455z" />
<glyph unicode="&#xe0;" horiz-adv-x="1193" d="M76 309q0 180 112.5 268.5t339.5 88.5h168v63q0 129 -55 190.5t-170 61.5q-95 0 -147 -43q-49 -41 -72 -143h-102v229q82 33 176 51q82 16 194 17q258 0 377 -106.5t119 -332.5v-532h135v-121h-455v135q-68 -88 -139 -125q-76 -39 -176 -39q-145 0 -227 88 q-78 84 -78 250zM391 338q0 -100 35 -152q33 -49 106.5 -49t118.5 53.5t45 143.5v213h-118q-90 0 -138 -53q-49 -56 -49 -156zM207 1638h252l231 -376h-147z" />
<glyph unicode="&#xe1;" horiz-adv-x="1193" d="M76 309q0 180 112.5 268.5t339.5 88.5h168v63q0 129 -55 190.5t-170 61.5q-95 0 -147 -43q-49 -41 -72 -143h-102v229q82 33 176 51q82 16 194 17q258 0 377 -106.5t119 -332.5v-532h135v-121h-455v135q-68 -88 -139 -125q-76 -39 -176 -39q-145 0 -227 88 q-78 84 -78 250zM391 338q0 -100 35 -152q33 -49 106.5 -49t118.5 53.5t45 143.5v213h-118q-90 0 -138 -53q-49 -56 -49 -156zM391 1262l234 376h250l-336 -376h-148z" />
<glyph unicode="&#xe2;" horiz-adv-x="1193" d="M76 309q0 180 112.5 268.5t339.5 88.5h168v63q0 129 -55 190.5t-170 61.5q-95 0 -147 -43q-49 -41 -72 -143h-102v229q82 33 176 51q82 16 194 17q258 0 377 -106.5t119 -332.5v-532h135v-121h-455v135q-68 -88 -139 -125q-76 -39 -176 -39q-145 0 -227 88 q-78 84 -78 250zM391 338q0 -100 35 -152q33 -49 106.5 -49t118.5 53.5t45 143.5v213h-118q-90 0 -138 -53q-49 -56 -49 -156zM203 1262l229 376h217l232 -376h-150l-190 225l-193 -225h-145z" />
<glyph unicode="&#xe3;" horiz-adv-x="1193" d="M76 309q0 180 112.5 268.5t339.5 88.5h168v63q0 129 -55 190.5t-170 61.5q-95 0 -147 -43q-49 -41 -72 -143h-102v229q82 33 176 51q82 16 194 17q258 0 377 -106.5t119 -332.5v-532h135v-121h-455v135q-68 -88 -139 -125q-76 -39 -176 -39q-145 0 -227 88 q-78 84 -78 250zM391 338q0 -100 35 -152q33 -49 106.5 -49t118.5 53.5t45 143.5v213h-118q-90 0 -138 -53q-49 -56 -49 -156zM219 1309v16q0 143 47 221q45 76 140 76q35 0 65 -12q37 -14 74 -43l63 -47l2 -2q41 -29 72 -29q37 0 59.5 35t22.5 96h98v-16q0 -143 -47 -222 q-45 -76 -139 -75q-35 0 -65.5 12t-73.5 43l-66 47q-39 31 -72 31q-37 0 -59 -35t-22 -96h-99z" />
<glyph unicode="&#xe4;" horiz-adv-x="1193" d="M76 309q0 180 112.5 268.5t339.5 88.5h168v63q0 129 -55 190.5t-170 61.5q-95 0 -147 -43q-49 -41 -72 -143h-102v229q82 33 176 51q82 16 194 17q258 0 377 -106.5t119 -332.5v-532h135v-121h-455v135q-68 -88 -139 -125q-76 -39 -176 -39q-145 0 -227 88 q-78 84 -78 250zM391 338q0 -100 35 -152q33 -49 106.5 -49t118.5 53.5t45 143.5v213h-118q-90 0 -138 -53q-49 -56 -49 -156zM207 1468.5q0 61.5 39 102.5q39 43 94 43q51 0 92 -43q39 -41 39 -103q0 -63 -39 -104q-40 -43 -92 -43q-53 0 -94 45q-39 41 -39 102.5z M608 1468.5q0 57.5 41 102.5q41 43 93 43q55 0 94 -43q39 -41 39 -102.5t-39 -102.5q-41 -45 -94 -45q-51 0 -92.5 45t-41.5 102.5z" />
<glyph unicode="&#xe5;" horiz-adv-x="1193" d="M76 309q0 180 112.5 268.5t339.5 88.5h168v63q0 129 -55 190.5t-170 61.5q-95 0 -147 -43q-49 -41 -72 -143h-102v229q82 33 176 51q82 16 194 17q258 0 377 -106.5t119 -332.5v-532h135v-121h-455v135q-68 -88 -139 -125q-76 -39 -176 -39q-145 0 -227 88 q-78 84 -78 250zM391 338q0 -100 35 -152q33 -49 106.5 -49t118.5 53.5t45 143.5v213h-118q-90 0 -138 -53q-49 -56 -49 -156zM285 1534q0 121 74 201q78 84 182 84q106 0 180 -84q76 -86 76 -201t-76 -201q-74 -84 -180 -84q-104 0 -182 84q-74 80 -74 201zM422 1534 q0 -53 35 -92t84 -39q51 0 84 39q35 41 35 92t-35 92q-33 39 -84 39t-84 -39q-35 -41 -35 -92z" />
<glyph unicode="&#xe6;" horiz-adv-x="1796" d="M76 309q0 178 114 269q113 88 349 88h168v63q0 117 -64 182q-66 68 -174 68q-92 0 -145 -43q-49 -41 -72 -141h-102v229q82 33 176 51q82 16 194 17q125 0 211 -39q92 -41 148 -117q68 76 151 117q80 39 182 39q238 0 365 -154q125 -154 135 -457h-657v-8q0 -205 55 -297 t180 -92q101 0 166 61q61 57 80 177h152q-37 -178 -152 -267q-111 -84 -324 -84q-121 0 -213 39q-96 41 -163 117q-80 -76 -177 -117q-92 -39 -204 -39q-187 0 -283 86t-96 252zM391 324q0 -111 37 -160t117 -49q76 0 119 55t43 160v217h-121q-96 0 -145.5 -55t-49.5 -168z M1055 600h307q0 207 -35 295q-33 84 -121 84q-80 0 -116 -82q-35 -78 -35 -279v-18z" />
<glyph unicode="&#xe7;" horiz-adv-x="1120" d="M76 532q0 262 139 412q137 147 383 148q106 0 203 -21q109 -23 207 -63v-295h-101q-16 139 -71 200q-59 66 -158 66q-135 0 -191 -100q-57 -104 -57 -347q0 -240 55.5 -344t180.5 -104q96 0 153 63q59 66 72 185h149q-33 -178 -141 -271q-106 -90 -287 -90 q-256 0 -397 148q-139 145 -139 413zM361 -219q35 -16 79 -27q35 -8 70 -8q57 0 82 23q29 25 29 69q0 31 -14.5 61.5t-61.5 100.5h115q53 -63 81 -119q27 -53 27 -106q0 -86 -57.5 -131t-167.5 -45q-41 0 -88 6q-31 4 -92 20z" />
<glyph unicode="&#xe8;" horiz-adv-x="1171" d="M76 532q0 264 135 412t379 148q240 0 364 -156q127 -158 136 -455h-660v-8q0 -201 57 -297q55 -92 181 -92q102 0 165.5 61.5t81.5 176.5h152q-39 -180 -156 -267q-115 -84 -321 -84q-248 0 -381 145.5t-133 415.5zM430 600h309q0 207 -34 295q-33 84 -121 84 q-80 0 -117 -82t-37 -279v-18zM252 1638h252l231 -376h-147z" />
<glyph unicode="&#xe9;" horiz-adv-x="1171" d="M76 532q0 264 135 412t379 148q240 0 364 -156q127 -158 136 -455h-660v-8q0 -201 57 -297q55 -92 181 -92q102 0 165.5 61.5t81.5 176.5h152q-39 -180 -156 -267q-115 -84 -321 -84q-248 0 -381 145.5t-133 415.5zM430 600h309q0 207 -34 295q-33 84 -121 84 q-80 0 -117 -82t-37 -279v-18zM436 1262l234 376h250l-336 -376h-148z" />
<glyph unicode="&#xea;" horiz-adv-x="1171" d="M76 532q0 264 135 412t379 148q240 0 364 -156q127 -158 136 -455h-660v-8q0 -201 57 -297q55 -92 181 -92q102 0 165.5 61.5t81.5 176.5h152q-39 -180 -156 -267q-115 -84 -321 -84q-248 0 -381 145.5t-133 415.5zM430 600h309q0 207 -34 295q-33 84 -121 84 q-80 0 -117 -82t-37 -279v-18zM248 1262l229 376h217l232 -376h-150l-190 225l-193 -225h-145z" />
<glyph unicode="&#xeb;" horiz-adv-x="1171" d="M76 532q0 264 135 412t379 148q240 0 364 -156q127 -158 136 -455h-660v-8q0 -201 57 -297q55 -92 181 -92q102 0 165.5 61.5t81.5 176.5h152q-39 -180 -156 -267q-115 -84 -321 -84q-248 0 -381 145.5t-133 415.5zM430 600h309q0 207 -34 295q-33 84 -121 84 q-80 0 -117 -82t-37 -279v-18zM252 1468.5q0 61.5 39 102.5q39 43 94 43q51 0 92 -43q39 -41 39 -103q0 -63 -39 -104q-40 -43 -92 -43q-53 0 -94 45q-39 41 -39 102.5zM653 1468.5q0 57.5 41 102.5q41 43 93 43q55 0 94 -43q39 -41 39 -102.5t-39 -102.5q-41 -45 -94 -45 q-51 0 -92.5 45t-41.5 102.5z" />
<glyph unicode="&#xec;" horiz-adv-x="698" d="M518 121h135v-121h-590v121h136v821h-136v121h455v-942zM16 1638h252l231 -376h-147z" />
<glyph unicode="&#xed;" horiz-adv-x="698" d="M518 121h135v-121h-590v121h136v821h-136v121h455v-942zM200 1262l234 376h250l-336 -376h-148z" />
<glyph unicode="&#xee;" horiz-adv-x="698" d="M518 121h135v-121h-590v121h136v821h-136v121h455v-942zM12 1262l229 376h217l232 -376h-150l-190 225l-193 -225h-145z" />
<glyph unicode="&#xef;" horiz-adv-x="698" d="M518 121h135v-121h-590v121h136v821h-136v121h455v-942zM16 1468.5q0 61.5 39 102.5q39 43 94 43q51 0 92 -43q39 -41 39 -103q0 -63 -39 -104q-40 -43 -92 -43q-53 0 -94 45q-39 41 -39 102.5zM417 1468.5q0 57.5 41 102.5q41 43 93 43q55 0 94 -43q39 -41 39 -102.5 t-39 -102.5q-41 -45 -94 -45q-51 0 -92.5 45t-41.5 102.5z" />
<glyph unicode="&#xf0;" horiz-adv-x="1228" d="M76 508q0 231 143 381q145 152 363 151q37 0 77 -6q37 -6 78 -18q-14 47 -49 119q-25 49 -72 106l-286 -149l-45 100l252 131q-51 41 -115 70q-70 31 -160 53l25 110q137 -20 231 -53q106 -37 189 -92l297 154l40 -103l-237 -125q172 -152 258 -350q90 -205 90 -430 q0 -274 -143.5 -430t-395.5 -156q-250 0 -395 145.5t-145 391.5zM430 508q0 -233 43 -330q43 -94 143 -94q102 0 142 94q41 98 41 330q0 108 -13 203q-12 102 -32 180q-51 23 -76 29q-31 8 -62 8q-100 0 -143 -97q-43 -94 -43 -323z" />
<glyph unicode="&#xf1;" horiz-adv-x="1339" d="M63 0v121h136v821h-136v121h455v-150q57 94 131 138q70 41 187 41q160 0 243 -105q82 -102 82 -311v-555h137v-121h-573v121h117v565q0 137 -31 188.5t-106 51.5q-96 0 -141.5 -78t-45.5 -250v-477h117v-121h-572zM334 1309v16q0 143 47 221q45 76 140 76q35 0 65 -12 q37 -14 74 -43l63 -47l2 -2q41 -29 72 -29q37 0 59.5 35t22.5 96h98v-16q0 -143 -47 -222q-45 -76 -139 -75q-35 0 -65.5 12t-73.5 43l-66 47q-39 31 -72 31q-37 0 -59 -35t-22 -96h-99z" />
<glyph unicode="&#xf2;" horiz-adv-x="1228" d="M76 532q0 266 143 412q145 147 397 147.5t396 -147.5q143 -145 143 -412q0 -262 -143.5 -411.5t-395.5 -149.5q-254 0 -397 149.5t-143 411.5zM430 532q0 -254 43 -352q43 -96 143.5 -96t141.5 96q41 98 41 352q0 252 -41 351q-41 96 -141.5 96t-143.5 -96t-43 -351z M283 1638h252l231 -376h-147z" />
<glyph unicode="&#xf3;" horiz-adv-x="1228" d="M76 532q0 266 143 412q145 147 397 147.5t396 -147.5q143 -145 143 -412q0 -262 -143.5 -411.5t-395.5 -149.5q-254 0 -397 149.5t-143 411.5zM430 532q0 -254 43 -352q43 -96 143.5 -96t141.5 96q41 98 41 352q0 252 -41 351q-41 96 -141.5 96t-143.5 -96t-43 -351z M467 1262l234 376h250l-336 -376h-148z" />
<glyph unicode="&#xf4;" horiz-adv-x="1228" d="M76 532q0 266 143 412q145 147 397 147.5t396 -147.5q143 -145 143 -412q0 -262 -143.5 -411.5t-395.5 -149.5q-254 0 -397 149.5t-143 411.5zM430 532q0 -254 43 -352q43 -96 143.5 -96t141.5 96q41 98 41 352q0 252 -41 351q-41 96 -141.5 96t-143.5 -96t-43 -351z M279 1262l229 376h217l232 -376h-150l-190 225l-193 -225h-145z" />
<glyph unicode="&#xf5;" horiz-adv-x="1228" d="M76 532q0 266 143 412q145 147 397 147.5t396 -147.5q143 -145 143 -412q0 -262 -143.5 -411.5t-395.5 -149.5q-254 0 -397 149.5t-143 411.5zM430 532q0 -254 43 -352q43 -96 143.5 -96t141.5 96q41 98 41 352q0 252 -41 351q-41 96 -141.5 96t-143.5 -96t-43 -351z M295 1309v16q0 143 47 221q45 76 140 76q35 0 65 -12q37 -14 74 -43l63 -47l2 -2q41 -29 72 -29q37 0 59.5 35t22.5 96h98v-16q0 -143 -47 -222q-45 -76 -139 -75q-35 0 -65.5 12t-73.5 43l-66 47q-39 31 -72 31q-37 0 -59 -35t-22 -96h-99z" />
<glyph unicode="&#xf6;" horiz-adv-x="1228" d="M76 532q0 266 143 412q145 147 397 147.5t396 -147.5q143 -145 143 -412q0 -262 -143.5 -411.5t-395.5 -149.5q-254 0 -397 149.5t-143 411.5zM430 532q0 -254 43 -352q43 -96 143.5 -96t141.5 96q41 98 41 352q0 252 -41 351q-41 96 -141.5 96t-143.5 -96t-43 -351z M283 1468.5q0 61.5 39 102.5q39 43 94 43q51 0 92 -43q39 -41 39 -103q0 -63 -39 -104q-40 -43 -92 -43q-53 0 -94 45q-39 41 -39 102.5zM684 1468.5q0 57.5 41 102.5q41 43 93 43q55 0 94 -43q39 -41 39 -102.5t-39 -102.5q-41 -45 -94 -45q-51 0 -92.5 45t-41.5 102.5z " />
<glyph unicode="&#xf7;" horiz-adv-x="1542" d="M195 528v228h1155v-228h-1155zM639 272q0 66 39 107q39 43 94 43t96 -43q39 -41 39 -107q0 -63 -39 -104q-41 -45 -96 -45q-53 0 -94 45q-39 41 -39 104zM639 1012q0 63 39 104q41 45 94 45q55 0 96 -45q39 -41 39 -104q0 -66 -39 -107q-41 -43 -96 -43t-94 43 q-39 41 -39 107z" />
<glyph unicode="&#xf8;" horiz-adv-x="1228" d="M45 -16l150 163q-55 70 -89 172q-31 94 -30 213q0 266 143 412q145 147 397 148q102 0 189 -25q84 -25 149 -74l152 168l78 -86l-148 -162q59 -72 90 -168q29 -88 29 -213q0 -262 -143.5 -411.5t-395.5 -149.5q-101 0 -184 25q-86 27 -156 74l-153 -172zM432 416l348 385 q-16 92 -55 135q-41 43 -109 43q-98 0 -141 -96.5t-43 -329.5v-137zM451 262q16 -90 55 -133q41 -45 110 -45q100 0 140 94q41 98 41 330v141z" />
<glyph unicode="&#xf9;" horiz-adv-x="1339" d="M43 942v121h455v-621q0 -201 30 -252q31 -53 109 -53q100 0 141 78q43 80 43 252v475h-114v121h434v-942h137v-121h-457v150q-57 -94 -131 -138q-70 -41 -184 -41q-162 0 -244 105q-84 106 -84 311v555h-135zM303 1638h252l231 -376h-147z" />
<glyph unicode="&#xfa;" horiz-adv-x="1339" d="M43 942v121h455v-621q0 -201 30 -252q31 -53 109 -53q100 0 141 78q43 80 43 252v475h-114v121h434v-942h137v-121h-457v150q-57 -94 -131 -138q-70 -41 -184 -41q-162 0 -244 105q-84 106 -84 311v555h-135zM487 1262l234 376h250l-336 -376h-148z" />
<glyph unicode="&#xfb;" horiz-adv-x="1339" d="M43 942v121h455v-621q0 -201 30 -252q31 -53 109 -53q100 0 141 78q43 80 43 252v475h-114v121h434v-942h137v-121h-457v150q-57 -94 -131 -138q-70 -41 -184 -41q-162 0 -244 105q-84 106 -84 311v555h-135zM299 1262l229 376h217l232 -376h-150l-190 225l-193 -225 h-145z" />
<glyph unicode="&#xfc;" horiz-adv-x="1339" d="M43 942v121h455v-621q0 -201 30 -252q31 -53 109 -53q100 0 141 78q43 80 43 252v475h-114v121h434v-942h137v-121h-457v150q-57 -94 -131 -138q-70 -41 -184 -41q-162 0 -244 105q-84 106 -84 311v555h-135zM303 1468.5q0 61.5 39 102.5q39 43 94 43q51 0 92 -43 q39 -41 39 -103q0 -63 -39 -104q-40 -43 -92 -43q-53 0 -94 45q-39 41 -39 102.5zM704 1468.5q0 57.5 41 102.5q41 43 93 43q55 0 94 -43q39 -41 39 -102.5t-39 -102.5q-41 -45 -94 -45q-51 0 -92.5 45t-41.5 102.5z" />
<glyph unicode="&#xfd;" horiz-adv-x="1069" d="M-25 942v121h551v-121h-112l241 -629l228 629h-127v121h358v-121h-115l-424 -1182q-43 -117 -104 -166t-166 -49q-51 0 -96 11q-61 14 -119 32v222h103q4 -80 32 -115q31 -37 90.5 -37t94.5 35q33 33 71 135l15 37l-416 1077h-105zM387 1262l234 376h250l-336 -376h-148z " />
<glyph unicode="&#xfe;" horiz-adv-x="1286" d="M43 -305h135v1741h-135v120h455v-628q39 82 108.5 123t169.5 41q205 0 322 -150q117 -152 116 -410q0 -261 -116 -411q-117 -150 -322 -150q-100 0 -169.5 41t-108.5 123v-440h147v-121h-602v121zM498 479q0 -184 43 -268t139 -84q98 0 137 88q39 86 39 317.5t-39 315.5 q-41 88 -137 88t-139 -82q-43 -83 -43 -270v-105z" />
<glyph unicode="&#xff;" horiz-adv-x="1069" d="M-25 942v121h551v-121h-112l241 -629l228 629h-127v121h358v-121h-115l-424 -1182q-43 -117 -104 -166t-166 -49q-51 0 -96 11q-61 14 -119 32v222h103q4 -80 32 -115q31 -37 90.5 -37t94.5 35q33 33 71 135l15 37l-416 1077h-105zM203 1468.5q0 61.5 39 102.5 q39 43 94 43q51 0 92 -43q39 -41 39 -103q0 -63 -39 -104q-40 -43 -92 -43q-53 0 -94 45q-39 41 -39 102.5zM604 1468.5q0 57.5 41 102.5q41 43 93 43q55 0 94 -43q39 -41 39 -102.5t-39 -102.5q-41 -45 -94 -45q-51 0 -92.5 45t-41.5 102.5z" />
<glyph unicode="&#x131;" horiz-adv-x="698" d="M518 121h135v-121h-590v121h136v821h-136v121h455v-942z" />
<glyph unicode="&#x152;" horiz-adv-x="2174" d="M78 748q0 221 76 385q78 166 217 251q90 59 211 84q119 25 311 25h1171v-352h-122v215h-545v-479h329v190h123v-516h-123v190h-329v-604h561v215h123v-352h-1188q-176 0 -309 27q-123 25 -213 82q-139 86 -217 251q-76 165 -76 388zM455 748q0 -313 120 -472 q119 -156 359 -155h115v1251h-115q-238 0 -358.5 -157.5t-120.5 -466.5z" />
<glyph unicode="&#x153;" horiz-adv-x="1892" d="M76 532q0 266 143 412q145 147 397 148q117 0 203 -39q94 -43 158 -117q70 82 151 119q83 37 191 37q236 0 360.5 -156t135.5 -455h-660v-8q0 -207 55 -299q53 -90 181 -90q100 0 165 61q63 61 82 177h150q-33 -172 -148 -263q-113 -88 -303 -88q-121 0 -207 39 q-92 41 -153 117q-61 -76 -158 -117q-92 -39 -219 -39q-242 0 -383 151.5t-141 409.5zM430 532q0 -254 43 -352q43 -96 143.5 -96t141.5 96q41 98 41 352q0 252 -41 351q-41 96 -141.5 96t-143.5 -96t-43 -351zM1155 600h307q0 209 -37 295q-37 84 -118.5 84t-114.5 -82 q-37 -90 -37 -279v-18z" />
<glyph unicode="&#x178;" horiz-adv-x="1314" d="M-16 1372v121h645v-121h-150l301 -569l301 569h-133v121h385v-121h-114l-373 -702v-549h180v-121h-709v121h181v497l-400 754h-114zM323 1776q0 63 39 104q39 43 94 43q51 0 93 -43q39 -41 39 -104q0 -61 -39 -103q-41 -43 -93 -43q-55 0 -94 43q-39 42 -39 103z M727 1776q0 63 39 104q41 43 92 43q55 0 94 -43q39 -41 39 -104q0 -61 -39 -103q-39 -43 -94 -43q-51 0 -92 43q-39 42 -39 103z" />
<glyph unicode="&#x2c6;" horiz-adv-x="919" d="M123 1262l229 376h217l232 -376h-150l-190 225l-193 -225h-145z" />
<glyph unicode="&#x2da;" horiz-adv-x="919" d="M205 1534q0 121 74 201q78 84 182 84q106 0 180 -84q76 -86 76 -201t-76 -201q-74 -84 -180 -84q-104 0 -182 84q-74 80 -74 201zM342 1534q0 -53 35 -92t84 -39q51 0 84 39q35 41 35 92t-35 92q-33 39 -84 39t-84 -39q-35 -41 -35 -92z" />
<glyph unicode="&#x2dc;" horiz-adv-x="919" d="M139 1309v16q0 143 47 221q45 76 140 76q35 0 65 -12q37 -14 74 -43l63 -47l2 -2q41 -29 72 -29q37 0 59.5 35t22.5 96h98v-16q0 -143 -47 -222q-45 -76 -139 -75q-35 0 -65.5 12t-73.5 43l-66 47q-39 31 -72 31q-37 0 -59 -35t-22 -96h-99z" />
<glyph unicode="&#x2000;" horiz-adv-x="960" />
<glyph unicode="&#x2001;" horiz-adv-x="1921" />
<glyph unicode="&#x2002;" horiz-adv-x="960" />
<glyph unicode="&#x2003;" horiz-adv-x="1921" />
<glyph unicode="&#x2004;" horiz-adv-x="638" />
<glyph unicode="&#x2005;" horiz-adv-x="479" />
<glyph unicode="&#x2006;" horiz-adv-x="319" />
<glyph unicode="&#x2007;" horiz-adv-x="319" />
<glyph unicode="&#x2008;" horiz-adv-x="239" />
<glyph unicode="&#x2009;" horiz-adv-x="382" />
<glyph unicode="&#x200a;" horiz-adv-x="104" />
<glyph unicode="&#x2010;" horiz-adv-x="763" d="M100 414v270h566v-270h-566z" />
<glyph unicode="&#x2011;" horiz-adv-x="763" d="M100 414v270h566v-270h-566z" />
<glyph unicode="&#x2012;" horiz-adv-x="763" d="M100 414v270h566v-270h-566z" />
<glyph unicode="&#x2013;" horiz-adv-x="919" d="M98 424v240h725v-240h-725z" />
<glyph unicode="&#x2014;" horiz-adv-x="1841" d="M98 424v240h1647v-240h-1647z" />
<glyph unicode="&#x2018;" horiz-adv-x="638" d="M127 934q6 209 82 348q78 141 231 238l95 -136q-88 -70 -127 -162t-39 -233v-55h-242z" />
<glyph unicode="&#x2019;" horiz-adv-x="638" d="M88 1042q86 68 125 160q41 98 41 236v55h242q-6 -209 -82 -348q-74 -137 -232 -238z" />
<glyph unicode="&#x201a;" horiz-adv-x="638" d="M55 -131q86 68 125 162q39 92 39 233v55h244q-10 -211 -84 -348q-78 -143 -229 -237z" />
<glyph unicode="&#x201c;" horiz-adv-x="1058" d="M127 934q6 209 82 348q78 141 231 238l95 -136q-88 -70 -127 -162t-39 -233v-55h-242zM545 934q6 209 81.5 348t231.5 238l94 -136q-86 -68 -125 -161q-41 -98 -41 -234v-55h-241z" />
<glyph unicode="&#x201d;" horiz-adv-x="1058" d="M88 1042q86 68 125 160q41 98 41 236v55h242q-6 -209 -82 -348q-74 -137 -232 -238zM508 1042q84 66 123 160q39 92 39 236v55h243q-6 -209 -82 -348q-74 -137 -231 -238z" />
<glyph unicode="&#x201e;" horiz-adv-x="1058" d="M55 -131q86 68 125 162q39 92 39 233v55h244q-10 -211 -84 -348q-78 -143 -229 -237zM471 -131q88 70 127 162q41 98 41 233v55h242q-6 -209 -82 -348q-78 -141 -232 -237z" />
<glyph unicode="&#x2022;" horiz-adv-x="1177" d="M266 762q0 80 23 139q27 68 69 115q47 49 107 78q55 27 124.5 26.5t125.5 -26.5q53 -25 102 -78q47 -53 71.5 -116.5t24.5 -137.5t-24 -139q-25 -63 -72 -117q-43 -49 -104 -78q-55 -27 -125 -27t-125 27q-61 29 -105 78q-41 47 -67 117q-25 65 -25 139z" />
<glyph unicode="&#x2026;" horiz-adv-x="1841" d="M150 162q0 80 49 135t120 55q74 0 123.5 -55t49.5 -135t-49.5 -135.5t-123.5 -55.5q-72 0 -120.5 55.5t-48.5 135.5zM752 162q0 80 49 135t120.5 55t120.5 -55q51 -57 51.5 -135t-51.5 -135q-49 -55 -120.5 -55.5t-120.5 55t-49 135.5zM1352 162q0 80 49 135t123 55 q70 0 118 -55q51 -57 51.5 -135t-51.5 -135q-49 -55 -118 -56q-74 0 -123 55.5t-49 135.5z" />
<glyph unicode="&#x202f;" horiz-adv-x="382" />
<glyph unicode="&#x2039;" horiz-adv-x="735" d="M141 516v168l422 385v-147l-215 -322l215 -321v-148z" />
<glyph unicode="&#x203a;" horiz-adv-x="735" d="M174 131v148l215 321l-215 322v147l422 -385v-168z" />
<glyph unicode="&#x2044;" horiz-adv-x="305" d="M498 1520h153l-841 -1549h-152z" />
<glyph unicode="&#x205f;" horiz-adv-x="479" />
<glyph unicode="&#x2074;" horiz-adv-x="806" d="M725 684h-467v94h113v121h-328v88l342 533h227v-527h131v-94h-131v-121h113v-94zM371 993v334l-215 -334h215z" />
<glyph unicode="&#x20ac;" d="M-6 530l47 119h109q0 2 -1.5 9.5t-1.5 13.5q-2 35 -2 73q0 43 2 80q0 4 1.5 9.5t1.5 7.5h-156l47 119h123q45 264 198 413q147 145 379 146q96 0 201 -31q98 -29 227 -98v-367h-104q-37 193 -102 287q-66 92 -170 92q-115 0 -183 -109q-66 -104 -88 -333h424l-49 -119 h-381q-4 -57 -4 -68v-45v-4q0 -4 1 -11t1 -16q0 -10 1 -26.5t1 -22.5h303l-47 -119h-248q18 -225 84 -331q68 -111 187 -111q101 0 166 86q66 88 90 252h145q-33 -225 -149 -340q-115 -115 -306 -115q-231 0 -379 146q-154 150 -198 413h-170z" />
<glyph unicode="&#x2122;" horiz-adv-x="1841" d="M213 1313v180h510v-180h-70v98h-116v-416h77v-80h-292v80h77v416h-116v-98h-70zM788 915v80h76v416h-76v82h240l150 -293l149 293h221v-82h-78v-416h78v-80h-291v80h78v359l-145 -285h-103l-145 285v-359h78v-80h-232z" />
<glyph unicode="&#xe000;" horiz-adv-x="1065" d="M0 1065h1065v-1065h-1065v1065z" />
<glyph unicode="&#xfb01;" horiz-adv-x="1339" d="M57 942v121h142v76q0 207 127 311q129 106 376 106q86 0 185 -12q92 -12 203 -37v-239h-103q-8 86 -63 131q-53 45 -148 45q-135 0 -196 -72q-61 -70 -62 -223v-86h643v-942h137v-121h-573v121h117v821h-324v-821h117v-121h-572v121h136v821h-142z" />
<glyph unicode="&#xfb02;" horiz-adv-x="1339" d="M57 942v121h142v76q0 215 131 315q133 102 407 102h420v-1435h137v-121h-571v121h117v1323h-80q-127 0 -184.5 -69.5t-57.5 -225.5v-86h217v-121h-217v-821h117v-121h-572v121h136v821h-142z" />
<glyph unicode="&#xfb03;" horiz-adv-x="2062" d="M57 942v121h144v133q0 176 100 268t299 92q68 0 150 -10q63 -8 143 -28v-228h-100q-6 80 -41 117t-97 37q-72 0 -104.5 -57.5t-32.5 -186.5v-137h402v76q0 207 127 311q129 106 374 106q86 0 185 -12q92 -12 202 -37v-239h-100q-8 86 -63 131q-53 45 -150 45 q-133 0 -195 -72q-63 -74 -63 -223v-86h643v-942h137v-121h-571v121h117v821h-326v-821h117v-121h-572v121h138v821h-402v-821h184v-121h-639v121h138v821h-144z" />
<glyph unicode="&#xfb04;" horiz-adv-x="2056" d="M57 942v121h142v133q0 176 102 268q100 92 297 92q70 0 152 -10q63 -8 143 -28v-228h-102q-6 80 -41 117q-33 37 -97 37q-72 0 -102 -58q-33 -61 -33 -186v-137h400v76q0 215 131 315q133 102 405 102h422v-1435h135v-121h-569v121h114v1323h-77q-127 0 -184.5 -69.5 t-57.5 -225.5v-86h217v-121h-217v-821h117v-121h-574v121h138v821h-400v-821h184v-121h-639v121h136v821h-142z" />
<glyph horiz-adv-x="0" d="M-795 1403q0 63 39 104q39 43 94 43q51 0 93 -43q39 -41 39 -104q0 -61 -39 -103q-41 -43 -93 -43q-55 0 -94 43q-39 42 -39 103zM-391 1403q0 63 39 104q41 43 92 43q55 0 94 -43q39 -41 39 -104q0 -61 -39 -103q-39 -43 -94 -43q-51 0 -92 43q-39 42 -39 103z" />
<glyph horiz-adv-x="0" d="M-446 1526h251l-268 -264h-147z" />
<glyph horiz-adv-x="0" d="M-782 1262v12q0 125 47 190.5t139 65.5q57 0 127 -39l12 -6l66 -33q35 -16 41 -18q20 -4 31 -4q37 0 59 24q23 27 22 70v4h99v-15q0 -127 -47 -188q-49 -66 -140 -65q-27 0 -61 10q-39 12 -78 35l-51 28q-33 16 -47 21q-23 6 -39 6q-37 0 -60 -25q-23 -27 -22 -69v-4h-98 z" />
<glyph horiz-adv-x="0" d="M-475 1526l164 -264h-148l-266 264h250z" />
<glyph horiz-adv-x="0" d="M-598 1526h276l199 -264h-145l-193 161l-190 -161h-150z" />
</font>
</defs>
</svg>
